  0
SECTION
  2
HEADER
  9
$ACADVER
  1
AC1003
  9
$INSBASE
 10
0.000000
 20
0.000000
  9
$EXTMIN
 10
0.000000
 20
0.000000
  9
$EXTMAX
 10
11890.000000
 20
8410.000000
  9
$LIMMIN
 10
0.000000
 20
0.000000
  9
$LIMMAX
 10
11890.000000
 20
8410.000000
  9
$VIEWCTR
 10
5945.000000
 20
4205.000000
  9
$VIEWSIZE
 40
8410.000000
  9
$PEXTMIN
 10
0.000000
 20
0.000000
 30
0.000000
  9
$PEXTMAX
 10
1189.000000
 20
841.000000
 30
0.000000
  9
$SNAPMODE
 70
     0
  9
$SNAPUNIT
 10
1.000000
 20
1.000000
  9
$SNAPBASE
 10
0.000000
 20
0.000000
  9
$SNAPANG
 50
0.000000
  9
$SNAPISOPAIR
 70
     0
  9
$SNAPSTYLE
 70
     0
  9
$GRIDMODE
 70
     0
  9
$GRIDUNIT
 10
0.000000
 20
0.000000
  9
$ORTHOMODE
 70
     0
  9
$REGENMODE
 70
     1
  9
$FILLMODE
 70
     1
  9
$QTEXTMODE
 70
     0
  9
$DRAGMODE
 70
     2
  9
$LTSCALE
 40
2.500000
  9
$OSMODE
 70
     0
  9
$ATTMODE
 70
     1
  9
$TEXTSIZE
 40
0.200000
  9
$TRACEWID
 40
0.050000
  9
$TEXTSTYLE
  7
STANDARD
  9
$CLAYER
  8
0
  9
$CELTYPE
  6
BYLAYER
  9
$CECOLOR
 62
   256
  9
$DIMSCALE
 40
1.000000
  9
$DIMASZ
 40
1.000000
  9
$DIMEXO
 40
0.000000
  9
$DIMDLI
 40
0.500000
  9
$DIMRND
 40
0.000000
  9
$DIMDLE
 40
0.000000
  9
$DIMEXE
 40
0.000000
  9
$DIMTP
 40
0.000000
  9
$DIMTM
 40
0.000000
  9
$DIMTXT
 40
0.180000
  9
$DIMCEN
 40
0.000000
  9
$DIMTSZ
 40
0.000000
  9
$DIMTOL
 70
     0
  9
$DIMLIM
 70
     0
  9
$DIMTIH
 70
     1
  9
$DIMTOH
 70
     1
  9
$DIMSE1
 70
     0
  9
$DIMSE2
 70
     0
  9
$DIMTAD
 70
     0
  9
$DIMZIN
 70
     0
  9
$DIMBLK
  1

  9
$DIMASO
 70
     0
  9
$DIMSHO
 70
     0
  9
$DIMPOST
  1

  9
$DIMAPOST
  1

  9
$DIMALT
 70
     0
  9
$DIMALTD
 70
     0
  9
$DIMALTF
 40
25.400000
  9
$DIMLFAC
 40
1.000000
  9
$DIMTOFL
 70
     0
  9
$DIMTVP
 40
0.000000
  9
$DIMTIX
 70
     0
  9
$DIMSOXD
 70
     0
  9
$DIMSAH
 70
     0
  9
$DIMBLKL
  1

  9
$DIMBLKR
  1

  9
$LUNITS
 70
     2
  9
$LUPREC
 70
     2
  9
$AXISMODE
 70
     0
  9
$AXISUNIT
 10
1.000000
 20
1.000000
  9
$SKETCHINC
 40
0.000000
  9
$FILLETRAD
 40
0.000000
  9
$AUNITS
 70
     1
  9
$AUPREC
 70
     2
  9
$MENU
  1
ACAD
  9
$ELEVATION
 40
0.000000
  9
$THICKNESS
 40
0.000000
  9
$VIEWDIR
 10
0.000000
 20
0.000000
 30
1.000000
  9
$LIMCHECK
 70
     1
  9
$BLIPMODE
 70
     1
  9
$CHAMFERA
 40
0.000000
  9
$CHAMFERB
 40
0.000000
  9
$FASTZOOM
 70
     1
  9
$SKPOLY
 70
     0
  9
$TDCREATE
 40
0.000000
  9
$TDUPDATE
 40
0.000000
  9
$TDINDWG
 40
0.000000
  9
$TDUSRTIMER
 40
0.000000
  9
$USRTIMER
 70
     1
  9
$ANGBASE
 50
0.000000
  9
$ANGDIR
 70
     0
  9
$PDMODE
 70
     0
  9
$PDSIZE
 40
0.000000
  9
$PLINEWID
 40
0.000000
  9
$COORDS
 70
     2
  9
$USERI1
 70
     0
  9
$USERI2
 70
     0
  9
$USERI3
 70
     0
  9
$USERI4
 70
     0
  9
$USERI5
 70
     0
  9
$USERR1
 40
0.000000
  9
$USERR2
 40
0.000000
  9
$USERR3
 40
0.000000
  9
$USERR4
 40
0.000000
  9
$USERR5
 40
0.000000
  0
ENDSEC
  0
SECTION
  2
TABLES
  0
TABLE
  2
LTYPE
 70
     5
  0
LTYPE
  2
CONTINUOUS
 70
    64
  3
Solid line
 72
    65
 73
     0
 40
0.0
  0
LTYPE
  2
HIDDEN
 70
    64
  3
------------------------
 72
    65
 73
     2
 40
12.6
 49
8.4
 49
-4.2
  0
LTYPE
  2
DOT
 70
    64
  3
････････････････････････
 72
    65
 73
     2
 40
8.0
 49
6.0
 49
-2.0
  0
LTYPE
  2
DASHDOT
 70
    64
  3
--･--･--･--･--･--･--･--
 72
    65
 73
     4
 40
50.5
 49
30.0
 49
-9.0
 49
2.5
 49
-9.0
  0
LTYPE
  2
DIVIDE
 70
    64
  3
--･･--･･--･･--･･--･･--
 72
    65
 73
     6
 40
58.0
 49
30.0
 49
-9.0
 49
2.5
 49
-5.0
 49
2.5
 49
-9.0
  0
ENDTAB
  0
TABLE
  2
LAYER
 70
2
  0
LAYER
  2
1
 70
64
 62
7
  6
CONTINUOUS
  0
LAYER
  2
128
 70
64
 62
7
  6
CONTINUOUS
  0
ENDTAB
  0
TABLE
  2
STYLE
 70
     2
  0
STYLE
  2
STANDARD
 70
    64
 40
0.0
 41
1.0
 50
0.0
 71
     0
 42
0.2
  3
TXT
  4

  0
STYLE
  2
KANJI
 70
    64
 40
0.0
 41
1.0
 50
0.0
 71
     0
 42
0.2
  3
TXT
  4
BIGFONT
  0
ENDTAB
  0
TABLE
  2
VIEW
 70
     0
  0
ENDTAB
  0
ENDSEC
  0
SECTION
  2
BLOCKS
  0
BLOCK
  8
1
 62
7
  6
CONTINUOUS
  2
*D1
 70
    65
 10
0.0
 20
0.0
  0
LINE
  8
1
 62
7
  6
CONTINUOUS
 10
5621.108008
 20
1060.000000
 11
7421.108008
 21
1060.000000
  0
LINE
  8
1
 62
7
  6
CONTINUOUS
 10
5621.108008
 20
1040.000000
 11
5621.108008
 21
1269.397093
  0
LINE
  8
1
 62
7
  6
CONTINUOUS
 10
7421.108008
 20
1040.000000
 11
7421.108008
 21
1270.000000
  0
LINE
  8
1
 62
7
  6
CONTINUOUS
 10
5621.108008
 20
1060.000000
 11
5659.745041
 21
1070.352762
  0
LINE
  8
1
 62
7
  6
CONTINUOUS
 10
5621.108008
 20
1060.000000
 11
5659.745041
 21
1049.647238
  0
LINE
  8
1
 62
7
  6
CONTINUOUS
 10
5659.745041
 20
1070.352762
 11
5659.745041
 21
1049.647238
  0
LINE
  8
1
 62
7
  6
CONTINUOUS
 10
5630.767266
 20
1060.000000
 11
5650.085783
 21
1065.176381
  0
LINE
  8
1
 62
7
  6
CONTINUOUS
 10
5630.767266
 20
1060.000000
 11
5650.085783
 21
1054.823619
  0
LINE
  8
1
 62
7
  6
CONTINUOUS
 10
5650.085783
 20
1065.176381
 11
5650.085783
 21
1054.823619
  0
LINE
  8
1
 62
7
  6
CONTINUOUS
 10
7421.108008
 20
1060.000000
 11
7382.470975
 21
1049.647238
  0
LINE
  8
1
 62
7
  6
CONTINUOUS
 10
7421.108008
 20
1060.000000
 11
7382.470975
 21
1070.352762
  0
LINE
  8
1
 62
7
  6
CONTINUOUS
 10
7382.470975
 20
1049.647238
 11
7382.470975
 21
1070.352762
  0
LINE
  8
1
 62
7
  6
CONTINUOUS
 10
7411.448750
 20
1060.000000
 11
7392.130233
 21
1054.823619
  0
LINE
  8
1
 62
7
  6
CONTINUOUS
 10
7411.448750
 20
1060.000000
 11
7392.130233
 21
1065.176381
  0
LINE
  8
1
 62
7
  6
CONTINUOUS
 10
7392.130233
 20
1054.823619
 11
7392.130233
 21
1065.176381
  0
TEXT
  8
1
 62
7
  6
CONTINUOUS
 10
6441.108008
 20
1060.000000
 40
80.000000
 41
0.500000
  1
1800
  7
KANJI
 50
0.000000
 51
30.000000
  0
ENDBLK
  0
BLOCK
  8
1
 62
7
  6
CONTINUOUS
  2
*D2
 70
    65
 10
0.0
 20
0.0
  0
LINE
  8
1
 62
7
  6
CONTINUOUS
 10
8000.000000
 20
1290.000000
 11
8000.000000
 21
2490.000000
  0
LINE
  8
1
 62
7
  6
CONTINUOUS
 10
8020.000000
 20
1290.000000
 11
7441.108008
 21
1290.000000
  0
LINE
  8
1
 62
7
  6
CONTINUOUS
 10
8020.000000
 20
2490.000000
 11
7314.889019
 21
2490.000000
  0
LINE
  8
1
 62
7
  6
CONTINUOUS
 10
8000.000000
 20
1290.000000
 11
7989.647238
 21
1328.637033
  0
LINE
  8
1
 62
7
  6
CONTINUOUS
 10
8000.000000
 20
1290.000000
 11
8010.352762
 21
1328.637033
  0
LINE
  8
1
 62
7
  6
CONTINUOUS
 10
7989.647238
 20
1328.637033
 11
8010.352762
 21
1328.637033
  0
LINE
  8
1
 62
7
  6
CONTINUOUS
 10
8000.000000
 20
1299.659258
 11
7994.823619
 21
1318.977775
  0
LINE
  8
1
 62
7
  6
CONTINUOUS
 10
8000.000000
 20
1299.659258
 11
8005.176381
 21
1318.977775
  0
LINE
  8
1
 62
7
  6
CONTINUOUS
 10
7994.823619
 20
1318.977775
 11
8005.176381
 21
1318.977775
  0
LINE
  8
1
 62
7
  6
CONTINUOUS
 10
8000.000000
 20
2490.000000
 11
8010.352762
 21
2451.362967
  0
LINE
  8
1
 62
7
  6
CONTINUOUS
 10
8000.000000
 20
2490.000000
 11
7989.647238
 21
2451.362967
  0
LINE
  8
1
 62
7
  6
CONTINUOUS
 10
8010.352762
 20
2451.362967
 11
7989.647238
 21
2451.362967
  0
LINE
  8
1
 62
7
  6
CONTINUOUS
 10
8000.000000
 20
2480.340742
 11
8005.176381
 21
2461.022225
  0
LINE
  8
1
 62
7
  6
CONTINUOUS
 10
8000.000000
 20
2480.340742
 11
7994.823619
 21
2461.022225
  0
LINE
  8
1
 62
7
  6
CONTINUOUS
 10
8005.176381
 20
2461.022225
 11
7994.823619
 21
2461.022225
  0
TEXT
  8
1
 62
7
  6
CONTINUOUS
 10
8000.000000
 20
1810.000000
 40
80.000000
 41
0.500000
  1
1200
  7
KANJI
 50
90.000000
 51
30.000000
  0
ENDBLK
  0
ENDSEC
  0
SECTION
  2
ENTITIES
  0
LINE
  8
1
 62
7
  6
CONTINUOUS
 10
9722.593203
 20
330.685503
 11
9722.593203
 21
475.511125
  0
LINE
  8
1
 62
7
  6
CONTINUOUS
 10
9688.896980
 20
169.046108
 11
9688.896980
 21
0.000000
  0
LINE
  8
1
 62
7
  6
CONTINUOUS
 10
9183.879051
 20
330.684472
 11
9183.879051
 21
475.510094
  0
LINE
  8
1
 62
7
  6
CONTINUOUS
 10
9372.366382
 20
330.684816
 11
9372.366382
 21
475.510438
  0
TEXT
  8
1
 62
7
  6
CONTINUOUS
 10
10586.653338
 20
374.109117
 40
50.291217
 41
1.666667
  1
殿
  7
KANJI
 50
0.000000
 51
0.000000
  0
LINE
  8
1
 62
7
  6
CONTINUOUS
 10
9773.420034
 20
0.000000
 11
9773.420034
 21
169.046108
  0
LINE
  8
1
 62
7
  6
CONTINUOUS
 10
6998.261654
 20
3532.539587
 11
6998.261654
 21
3433.056250
  0
LINE
  8
1
 62
7
  6
CONTINUOUS
 10
8423.563477
 20
786.611465
 11
8573.961133
 21
786.611465
  0
LINE
  8
1
 62
7
  6
CONTINUOUS
 10
8776.047998
 20
0.000000
 11
8776.047998
 21
475.511125
  0
LINE
  8
1
 62
7
  6
CONTINUOUS
 10
8860.571052
 20
330.683881
 11
8860.571052
 21
168.200802
  0
LINE
  8
1
 62
7
  6
CONTINUOUS
 10
8955.670434
 20
330.684055
 11
8955.670434
 21
475.509677
  0
LINE
  8
1
 62
7
  6
CONTINUOUS
 10
6148.308008
 20
2274.397093
 11
6168.308008
 21
2274.397093
  0
LINE
  8
1
 62
7
  6
CONTINUOUS
 10
7293.908008
 20
2274.397093
 11
7273.908008
 21
2274.397093
  0
LINE
  8
1
 62
7
  6
CONTINUOUS
 10
7293.908008
 20
2232.197093
 11
7293.908008
 21
2247.197093
  0
LINE
  8
1
 62
7
  6
CONTINUOUS
 10
7273.908008
 20
2232.197093
 11
7293.908008
 21
2232.197093
  0
LINE
  8
1
 62
7
  6
CONTINUOUS
 10
7273.908008
 20
2247.197093
 11
7273.908008
 21
2232.197093
  0
LINE
  8
1
 62
7
  6
CONTINUOUS
 10
7293.908008
 20
2247.197093
 11
7273.908008
 21
2247.197093
  0
LINE
  8
1
 62
7
  6
CONTINUOUS
 10
6112.304362
 20
3532.539587
 11
6998.261654
 21
3532.539587
  0
LINE
  8
1
 62
7
  6
CONTINUOUS
 10
6998.261654
 20
3433.056250
 11
6112.304362
 21
3433.056250
  0
LINE
  8
1
 62
7
  6
CONTINUOUS
 10
6112.304362
 20
3433.056250
 11
6112.304362
 21
3532.539587
  0
LINE
  8
1
 62
7
  6
CONTINUOUS
 10
5748.308008
 20
2247.197093
 11
5768.308008
 21
2247.197093
  0
LINE
  8
1
 62
7
  6
CONTINUOUS
 10
5768.308008
 20
2232.197093
 11
5748.308008
 21
2232.197093
  0
LINE
  8
1
 62
7
  6
CONTINUOUS
 10
5748.308008
 20
2232.197093
 11
5748.308008
 21
2247.197093
  0
LINE
  8
1
 62
7
  6
CONTINUOUS
 10
6893.908008
 20
2274.397093
 11
6873.908008
 21
2274.397093
  0
LINE
  8
1
 62
7
  6
CONTINUOUS
 10
6893.908008
 20
2232.197093
 11
6893.908008
 21
2247.197093
  0
LINE
  8
1
 62
7
  6
CONTINUOUS
 10
6873.908008
 20
2232.197093
 11
6893.908008
 21
2232.197093
  0
LINE
  8
1
 62
7
  6
CONTINUOUS
 10
6873.908008
 20
2247.197093
 11
6873.908008
 21
2232.197093
  0
LINE
  8
1
 62
7
  6
CONTINUOUS
 10
6893.908008
 20
2247.197093
 11
6873.908008
 21
2247.197093
  0
LINE
  8
1
 62
7
  6
CONTINUOUS
 10
6511.108008
 20
2232.197093
 11
6511.108008
 21
2247.197093
  0
LINE
  8
1
 62
7
  6
CONTINUOUS
 10
6531.108008
 20
2232.197093
 11
6511.108008
 21
2232.197093
  0
LINE
  8
1
 62
7
  6
CONTINUOUS
 10
6531.108008
 20
2247.197093
 11
6531.108008
 21
2232.197093
  0
LINE
  8
1
 62
7
  6
CONTINUOUS
 10
6511.108008
 20
2247.197093
 11
6531.108008
 21
2247.197093
  0
LINE
  8
1
 62
7
  6
CONTINUOUS
 10
6148.308008
 20
2247.197093
 11
6168.308008
 21
2247.197093
  0
LINE
  8
1
 62
7
  6
CONTINUOUS
 10
6168.308008
 20
2247.197093
 11
6168.308008
 21
2232.197093
  0
LINE
  8
1
 62
7
  6
CONTINUOUS
 10
6168.308008
 20
2232.197093
 11
6148.308008
 21
2232.197093
  0
LINE
  8
1
 62
7
  6
CONTINUOUS
 10
6148.308008
 20
2232.197093
 11
6148.308008
 21
2247.197093
  0
LINE
  8
1
 62
7
  6
CONTINUOUS
 10
6740.178516
 20
958.809894
 11
6724.178516
 21
958.809894
  0
LINE
  8
1
 62
7
  6
CONTINUOUS
 10
6168.308008
 20
1484.397093
 11
6148.308008
 21
1484.397093
  0
LINE
  8
1
 62
7
  6
CONTINUOUS
 10
6168.308008
 20
1469.397093
 11
6168.308008
 21
1484.397093
  0
LINE
  8
1
 62
7
  6
CONTINUOUS
 10
6148.308008
 20
1469.397093
 11
6168.308008
 21
1469.397093
  0
LINE
  8
1
 62
7
  6
CONTINUOUS
 10
6511.108008
 20
1484.397093
 11
6511.108008
 21
1469.397093
  0
LINE
  8
1
 62
7
  6
CONTINUOUS
 10
6531.108008
 20
1484.397093
 11
6511.108008
 21
1484.397093
  0
LINE
  8
1
 62
7
  6
CONTINUOUS
 10
6531.108008
 20
1469.397093
 11
6531.108008
 21
1484.397093
  0
LINE
  8
1
 62
7
  6
CONTINUOUS
 10
6511.108008
 20
1469.397093
 11
6531.108008
 21
1469.397093
  0
LINE
  8
1
 62
7
  6
CONTINUOUS
 10
6148.308008
 20
1484.397093
 11
6148.308008
 21
1469.397093
  0
LINE
  8
1
 62
7
  6
CONTINUOUS
 10
6893.908008
 20
1469.397093
 11
6873.908008
 21
1469.397093
  0
LINE
  8
1
 62
7
  6
CONTINUOUS
 10
6873.908008
 20
1469.397093
 11
6873.908008
 21
1484.397093
  0
LINE
  8
1
 62
7
  6
CONTINUOUS
 10
6873.908008
 20
1484.397093
 11
6893.908008
 21
1484.397093
  0
LINE
  8
1
 62
7
  6
CONTINUOUS
 10
6893.908008
 20
1484.397093
 11
6893.908008
 21
1469.397093
  0
LINE
  8
1
 62
7
  6
CONTINUOUS
 10
7273.908008
 20
1469.397093
 11
7273.908008
 21
1484.397093
  0
LINE
  8
1
 62
7
  6
CONTINUOUS
 10
7273.908008
 20
1484.397093
 11
7293.908008
 21
1484.397093
  0
LINE
  8
1
 62
7
  6
CONTINUOUS
 10
7293.908008
 20
1484.397093
 11
7293.908008
 21
1469.397093
  0
LINE
  8
1
 62
7
  6
CONTINUOUS
 10
7393.908008
 20
1289.397093
 11
7421.108008
 21
1289.397093
  0
LINE
  8
1
 62
7
  6
CONTINUOUS
 10
7293.908008
 20
1469.397093
 11
7273.908008
 21
1469.397093
  0
LINE
  8
1
 62
7
  6
CONTINUOUS
 10
5768.308008
 20
2247.197093
 11
5768.308008
 21
2232.197093
  0
LINE
  8
1
 62
7
  6
CONTINUOUS
 10
5748.308008
 20
2274.397093
 11
5768.308008
 21
2274.397093
  0
LINE
  8
1
 62
7
  6
CONTINUOUS
 10
5621.108008
 20
1289.397093
 11
5648.308008
 21
1289.397093
  0
LINE
  8
1
 62
7
  6
CONTINUOUS
 10
5748.308008
 20
1484.397093
 11
5748.308008
 21
1469.397093
  0
LINE
  8
1
 62
7
  6
CONTINUOUS
 10
5768.308008
 20
1484.397093
 11
5748.308008
 21
1484.397093
  0
LINE
  8
1
 62
7
  6
CONTINUOUS
 10
5768.308008
 20
1469.397093
 11
5768.308008
 21
1484.397093
  0
LINE
  8
1
 62
7
  6
CONTINUOUS
 10
5748.308008
 20
1469.397093
 11
5768.308008
 21
1469.397093
  0
LINE
  8
1
 62
7
  6
CONTINUOUS
 10
8771.619466
 20
782.124739
 11
10261.672070
 21
782.124739
  0
LINE
  8
1
 62
7
  6
CONTINUOUS
 10
8771.619466
 20
641.156777
 11
10186.662695
 21
641.156777
  0
LINE
  8
1
 62
7
  6
CONTINUOUS
 10
10669.138409
 20
330.686939
 11
8776.047998
 21
330.683727
  0
LINE
  8
1
 62
7
  6
CONTINUOUS
 10
10669.138409
 20
169.046108
 11
8776.047998
 21
169.046108
  0
LINE
  8
1
 62
7
  6
CONTINUOUS
 10
8776.047998
 20
475.511125
 11
10669.138409
 21
475.511125
  0
LINE
  8
1
 62
7
  6
CONTINUOUS
 10
5655.808008
 20
1476.897093
 11
7386.408008
 21
1476.897093
  0
LINE
  8
1
 62
7
  6
CONTINUOUS
 10
5648.308008
 20
1442.197093
 11
7393.908008
 21
1442.197093
  0
LINE
  8
1
 62
7
  6
CONTINUOUS
 10
5648.308008
 20
1469.397093
 11
7393.908008
 21
1469.397093
  0
LINE
  8
1
 62
7
  6
CONTINUOUS
 10
7386.408008
 20
2234.697093
 11
5655.808008
 21
2234.697093
  0
LINE
  8
1
 62
7
  6
CONTINUOUS
 10
7386.408008
 20
2239.697093
 11
5655.808008
 21
2239.697093
  0
LINE
  8
1
 62
7
  6
CONTINUOUS
 10
5660.808008
 20
2234.697093
 11
7381.408008
 21
2234.697093
  0
LINE
  8
1
 62
7
  6
CONTINUOUS
 10
5648.308008
 20
2274.397093
 11
7393.908008
 21
2274.397093
  0
LINE
  8
1
 62
7
  6
CONTINUOUS
 10
5648.308008
 20
2247.197093
 11
7393.908008
 21
2247.197093
  0
LINE
  8
1
 62
7
  6
CONTINUOUS
 10
10669.138409
 20
0.000000
 11
10669.138409
 21
3680.621051
  0
LINE
  8
1
 62
7
  6
CONTINUOUS
 10
7381.408008
 20
1481.897093
 11
5660.808008
 21
1481.897093
  0
LINE
  8
1
 62
7
  6
CONTINUOUS
 10
5655.808008
 20
1481.897093
 11
7386.408008
 21
1481.897093
  0
LINE
  8
1
 62
7
  6
CONTINUOUS
 10
5152.308008
 20
0.000000
 11
10669.138409
 21
0.000000
  0
LINE
  8
1
 62
7
  6
CONTINUOUS
 10
10669.138409
 20
3680.621051
 11
5152.308008
 21
3680.621051
  0
LINE
  8
128
 62
7
  6
CONTINUOUS
 10
7293.355151
 20
1481.897093
 11
7381.408008
 21
1569.949947
  0
LINE
  8
128
 62
7
  6
CONTINUOUS
 10
7122.355149
 20
1481.897093
 11
7381.408008
 21
1740.949945
  0
LINE
  8
128
 62
7
  6
CONTINUOUS
 10
6951.355147
 20
1481.897093
 11
7381.408008
 21
1911.949943
  0
LINE
  8
128
 62
7
  6
CONTINUOUS
 10
6780.355144
 20
1481.897093
 11
7381.408008
 21
2082.949940
  0
LINE
  8
128
 62
7
  6
CONTINUOUS
 10
6609.355142
 20
1481.897093
 11
7362.155162
 21
2234.697093
  0
LINE
  8
128
 62
7
  6
CONTINUOUS
 10
6438.355140
 20
1481.897093
 11
7191.155160
 21
2234.697093
  0
LINE
  8
128
 62
7
  6
CONTINUOUS
 10
6267.355138
 20
1481.897093
 11
7020.155158
 21
2234.697093
  0
LINE
  8
128
 62
7
  6
CONTINUOUS
 10
6096.355135
 20
1481.897093
 11
6849.155155
 21
2234.697093
  0
LINE
  8
128
 62
7
  6
CONTINUOUS
 10
5925.355133
 20
1481.897093
 11
6678.155153
 21
2234.697093
  0
LINE
  8
128
 62
7
  6
CONTINUOUS
 10
5754.355131
 20
1481.897093
 11
6507.155151
 21
2234.697093
  0
LINE
  8
128
 62
7
  6
CONTINUOUS
 10
5660.808008
 20
1559.349970
 11
6336.155149
 21
2234.697093
  0
LINE
  8
128
 62
7
  6
CONTINUOUS
 10
5660.808008
 20
1730.349968
 11
6165.155146
 21
2234.697093
  0
LINE
  8
128
 62
7
  6
CONTINUOUS
 10
5660.808008
 20
1901.349966
 11
5994.155144
 21
2234.697093
  0
LINE
  8
128
 62
7
  6
CONTINUOUS
 10
5660.808008
 20
2072.349964
 11
5823.155142
 21
2234.697093
  0
LINE
  8
1
 62
7
  6
CONTINUOUS
 10
5152.308008
 20
3680.621051
 11
5152.308008
 21
0.000000
  0
LINE
  8
1
 62
7
  6
CONTINUOUS
 10
5663.308008
 20
2182.896572
 11
5648.308008
 21
2182.896572
  0
LINE
  8
1
 62
7
  6
CONTINUOUS
 10
5663.308008
 20
2162.896572
 11
5663.308008
 21
2182.896572
  0
LINE
  8
1
 62
7
  6
CONTINUOUS
 10
5648.308008
 20
2162.896572
 11
5663.308008
 21
2162.896572
  0
LINE
  8
1
 62
7
  6
CONTINUOUS
 10
5648.308008
 20
2182.896572
 11
5648.308008
 21
2162.896572
  0
LINE
  8
1
 62
7
  6
CONTINUOUS
 10
5648.308008
 20
1533.697614
 11
5648.308008
 21
1553.697614
  0
LINE
  8
1
 62
7
  6
CONTINUOUS
 10
5648.308008
 20
1553.697614
 11
5663.308008
 21
1553.697614
  0
LINE
  8
1
 62
7
  6
CONTINUOUS
 10
5663.308008
 20
1553.697614
 11
5663.308008
 21
1533.697614
  0
LINE
  8
1
 62
7
  6
CONTINUOUS
 10
5663.308008
 20
1533.697614
 11
5648.308008
 21
1533.697614
  0
LINE
  8
1
 62
7
  6
CONTINUOUS
 10
5663.308008
 20
1848.297093
 11
5648.308008
 21
1848.297093
  0
LINE
  8
1
 62
7
  6
CONTINUOUS
 10
5663.308008
 20
1868.297093
 11
5663.308008
 21
1848.297093
  0
LINE
  8
1
 62
7
  6
CONTINUOUS
 10
5648.308008
 20
1868.297093
 11
5663.308008
 21
1868.297093
  0
LINE
  8
1
 62
7
  6
CONTINUOUS
 10
5648.308008
 20
1848.297093
 11
5648.308008
 21
1868.297093
  0
LINE
  8
1
 62
7
  6
CONTINUOUS
 10
5660.808008
 20
1481.897093
 11
5660.808008
 21
2234.697093
  0
LINE
  8
1
 62
7
  6
CONTINUOUS
 10
5660.808008
 20
2234.697093
 11
5660.808008
 21
1481.897093
  0
LINE
  8
1
 62
7
  6
CONTINUOUS
 10
5655.808008
 20
2239.697093
 11
5655.808008
 21
1476.897093
  0
LINE
  8
1
 62
7
  6
CONTINUOUS
 10
7378.908008
 20
2182.896572
 11
7393.908008
 21
2182.896572
  0
LINE
  8
1
 62
7
  6
CONTINUOUS
 10
7378.908008
 20
2162.896572
 11
7378.908008
 21
2182.896572
  0
LINE
  8
1
 62
7
  6
CONTINUOUS
 10
7393.908008
 20
2162.896572
 11
7378.908008
 21
2162.896572
  0
LINE
  8
1
 62
7
  6
CONTINUOUS
 10
7393.908008
 20
2182.896572
 11
7393.908008
 21
2162.896572
  0
LINE
  8
1
 62
7
  6
CONTINUOUS
 10
7393.908008
 20
1533.697614
 11
7393.908008
 21
1553.697614
  0
LINE
  8
1
 62
7
  6
CONTINUOUS
 10
7393.908008
 20
1553.697614
 11
7378.908008
 21
1553.697614
  0
LINE
  8
1
 62
7
  6
CONTINUOUS
 10
7378.908008
 20
1553.697614
 11
7378.908008
 21
1533.697614
  0
LINE
  8
1
 62
7
  6
CONTINUOUS
 10
7378.908008
 20
1533.697614
 11
7393.908008
 21
1533.697614
  0
LINE
  8
1
 62
7
  6
CONTINUOUS
 10
7378.908008
 20
1848.297093
 11
7393.908008
 21
1848.297093
  0
LINE
  8
1
 62
7
  6
CONTINUOUS
 10
7378.908008
 20
1868.297093
 11
7378.908008
 21
1848.297093
  0
LINE
  8
1
 62
7
  6
CONTINUOUS
 10
7393.908008
 20
1868.297093
 11
7378.908008
 21
1868.297093
  0
LINE
  8
1
 62
7
  6
CONTINUOUS
 10
7393.908008
 20
1848.297093
 11
7393.908008
 21
1868.297093
  0
LINE
  8
1
 62
7
  6
CONTINUOUS
 10
7381.408008
 20
2234.697093
 11
7381.408008
 21
1481.897093
  0
LINE
  8
1
 62
7
  6
CONTINUOUS
 10
7381.408008
 20
1481.897093
 11
7381.408008
 21
2234.697093
  0
LINE
  8
1
 62
7
  6
CONTINUOUS
 10
7386.408008
 20
1476.897093
 11
7386.408008
 21
2239.697093
  0
LINE
  8
1
 62
7
  6
CONTINUOUS
 10
5648.308008
 20
2362.800000
 11
5648.308008
 21
1289.397093
  0
ARC
  8
1
 62
7
  6
CONTINUOUS
 10
5748.308008
 20
2362.800000
 40
100.000000
 50
90.000000
 51
180.000000
  0
LINE
  8
1
 62
7
  6
CONTINUOUS
 10
5621.108008
 20
2390.000000
 11
5621.108008
 21
1289.397093
  0
ARC
  8
1
 62
7
  6
CONTINUOUS
 10
5721.108008
 20
2390.000000
 40
100.000000
 50
90.000000
 51
180.000000
  0
LINE
  8
1
 62
7
  6
CONTINUOUS
 10
7393.908008
 20
1289.397093
 11
7393.908008
 21
2362.800000
  0
LINE
  8
1
 62
7
  6
CONTINUOUS
 10
5748.308008
 20
2462.800000
 11
7293.908008
 21
2462.800000
  0
ARC
  8
1
 62
7
  6
CONTINUOUS
 10
7293.908008
 20
2362.800000
 40
100.000000
 50
0.000000
 51
90.000000
  0
LINE
  8
1
 62
7
  6
CONTINUOUS
 10
7421.108008
 20
2390.000000
 11
7421.108008
 21
1289.397093
  0
LINE
  8
1
 62
7
  6
CONTINUOUS
 10
7321.108008
 20
2490.000000
 11
5721.108008
 21
2490.000000
  0
ARC
  8
1
 62
7
  6
CONTINUOUS
 10
7321.108008
 20
2390.000000
 40
100.000000
 50
0.000000
 51
90.000000
  0
DIMENSION
  8
1
 62
7
  6
CONTINUOUS
  2
*D1
 10
5621.108008
 20
1060.000000
 11
6521.108008
 21
1060.000000
 70
     0
  1
1800
 13
5621.108008
 23
1269.397093
 14
7421.108008
 24
1270.000000
 50
0.000000
  0
DIMENSION
  8
1
 62
7
  6
CONTINUOUS
  2
*D2
 10
8000.000000
 20
1290.000000
 11
8000.000000
 21
1890.000000
 70
     0
  1
1200
 13
7441.108008
 23
1290.000000
 14
7314.889019
 24
2490.000000
 50
90.000000
  0
TEXT
  8
1
 62
7
  6
CONTINUOUS
 10
6096.749011
 20
3444.528695
 40
80.960000
 41
0.823452
  1
ミニフェンスバリケード
  7
KANJI
 50
0.000000
 51
0.000000
  0
TEXT
  8
1
 62
7
  6
CONTINUOUS
 10
8421.205059
 20
796.963796
 40
62.970000
 41
0.820497
  1
注記
  7
KANJI
 50
0.000000
 51
0.000000
  0
TEXT
  8
1
 62
7
  6
CONTINUOUS
 10
8769.580697
 20
788.641283
 40
62.970000
 41
0.721790
  1
パイプは亜鉛引き鋼管　φ27.2×1.6ｔ Z27
  7
KANJI
 50
0.000000
 51
0.000000
  0
TEXT
  8
1
 62
7
  6
CONTINUOUS
 10
8766.703857
 20
649.048449
 40
62.970000
 41
0.721471
  1
ネットは亜鉛菱形金網　56×2.3t  G2
  7
KANJI
 50
0.000000
 51
0.000000
  0
TEXT
  8
1
 62
7
  6
CONTINUOUS
 10
8883.986262
 20
211.766189
 40
79.710000
 41
0.825911
  1
ＮＫミニフェンスバリケード
  7
KANJI
 50
0.000000
 51
0.000000
  0
TEXT
  8
1
 62
7
  6
CONTINUOUS
 10
8814.318182
 20
35.731915
 40
85.850000
 41
0.825083
  1
日本機電株式会社
  7
KANJI
 50
0.000000
 51
0.000000
  0
TEXT
  8
1
 62
7
  6
CONTINUOUS
 10
8792.119662
 20
363.088595
 40
55.900000
 41
0.819917
  1
尺度
  7
KANJI
 50
0.000000
 51
0.000000
  0
TEXT
  8
1
 62
7
  6
CONTINUOUS
 10
8993.264993
 20
371.751327
 40
58.700000
 41
0.468484
  1
1/20
  7
KANJI
 50
0.000000
 51
0.000000
  0
TEXT
  8
1
 62
7
  6
CONTINUOUS
 10
9182.162270
 20
379.580212
 40
51.110000
 41
0.831540
  1
作成日
  7
KANJI
 50
0.000000
 51
0.000000
  0
TEXT
  8
1
 62
7
  6
CONTINUOUS
 10
9380.190653
 20
376.955662
 40
56.470000
 41
0.538955
  1
2000.12.12
  7
KANJI
 50
0.000000
 51
0.000000
  0
TEXT
  8
1
 62
7
  6
CONTINUOUS
 10
8779.726050
 20
258.043755
 40
58.260000
 41
0.829614
  1
名
  7
KANJI
 50
0.000000
 51
0.000000
  0
TEXT
  8
1
 62
7
  6
CONTINUOUS
 10
8780.909035
 20
157.982947
 40
58.260000
 41
0.829614
  1
称
  7
KANJI
 50
0.000000
 51
0.000000
  0
TEXT
  8
1
 62
7
  6
CONTINUOUS
 10
9793.961356
 20
43.433163
 40
78.870000
 41
0.824141
  1
００４１００２
  7
KANJI
 50
0.000000
 51
0.000000
  0
TEXT
  8
1
 62
7
  6
CONTINUOUS
 10
9704.430266
 20
97.401708
 40
44.390000
 41
0.826012
  1
図
  7
KANJI
 50
0.000000
 51
0.000000
  0
TEXT
  8
1
 62
7
  6
CONTINUOUS
 10
9707.809889
 20
32.401435
 40
44.390000
 41
0.826012
  1
番
  7
KANJI
 50
0.000000
 51
0.000000
  0
ENDSEC
  0
EOF
