  0
SECTION
  2
HEADER
  9
$ACADVER
  1
AC1014
  9
$ACADMAINTVER
 70
         0
  9
$DWGCODEPAGE
  3
ANSI_932
  9
$INSBASE
 10
0.0
 20
0.0
 30
0.0
  9
$EXTMIN
 10
1.0000000000E+20
 20
1.0000000000E+20
 30
1.0000000000E+20
  9
$EXTMAX
 10
-1.0000000000E+20
 20
-1.0000000000E+20
 30
-1.0000000000E+20
  9
$LIMMIN
 10
0.0
 20
0.0
  9
$LIMMAX
 10
0.0
 20
0.0
  9
$ORTHOMODE
 70
         0
  9
$REGENMODE
 70
         1
  9
$FILLMODE
 70
         1
  9
$QTEXTMODE
 70
         0
  9
$MIRRTEXT
 70
         1
  9
$DRAGMODE
 70
         2
  9
$LTSCALE
 40
1.0
  9
$OSMODE
 70
         0
  9
$ATTMODE
 70
         1
  9
$TEXTSIZE
 40
0.2
  9
$TRACEWID
 40
0.05
  9
$TEXTSTYLE
  7
STANDARD
  9
$CLAYER
  8
0
  9
$CELTYPE
  6
CONTINUOUS
  9
$CECOLOR
 62
       256
  9
$CELTSCALE
 40
1.0
  9
$DELOBJ
 70
         1
  9
$DISPSILH
 70
         0
  9
$DIMSCALE
 40
1.0
  9
$DIMASZ
 40
0.18
  9
$DIMEXO
 40
0.0625
  9
$DIMDLI
 40
0.38
  9
$DIMRND
 40
0.0
  9
$DIMDLE
 40
0.0
  9
$DIMEXE
 40
0.18
  9
$DIMTP
 40
0.0
  9
$DIMTM
 40
0.0
  9
$DIMTXT
 40
0.18
  9
$DIMCEN
 40
0.09
  9
$DIMTSZ
 40
0.0
  9
$DIMTOL
 70
         0
  9
$DIMLIM
 70
         0
  9
$DIMTIH
 70
         1
  9
$DIMTOH
 70
         1
  9
$DIMSE1
 70
         0
  9
$DIMSE2
 70
         0
  9
$DIMTAD
 70
         0
  9
$DIMZIN
 70
         0
  9
$DIMBLK
  1

  9
$DIMASO
 70
         1
  9
$DIMSHO
 70
         1
  9
$DIMPOST
  1

  9
$DIMAPOST
  1

  9
$DIMALT
 70
         0
  9
$DIMALTD
 70
         2
  9
$DIMALTF
 40
25.4
  9
$DIMLFAC
 40
1.0
  9
$DIMTOFL
 70
         0
  9
$DIMTVP
 40
0.0
  9
$DIMTIX
 70
         0
  9
$DIMSOXD
 70
         0
  9
$DIMSAH
 70
         0
  9
$DIMBLK1
  1

  9
$DIMBLK2
  1

  9
$DIMSTYLE
  2
STANDARD
  9
$DIMCLRD
 70
         0
  9
$DIMCLRE
 70
         0
  9
$DIMCLRT
 70
         0
  9
$DIMTFAC
 40
1.0
  9
$DIMGAP
 40
0.09
  9
$DIMJUST
 70
         0
  9
$DIMSD1
 70
         0
  9
$DIMSD2
 70
         0
  9
$DIMTOLJ
 70
         1
  9
$DIMTZIN
 70
         0
  9
$DIMALTZ
 70
         0
  9
$DIMALTTZ
 70
         0
  9
$DIMFIT
 70
         3
  9
$DIMUPT
 70
         0
  9
$DIMUNIT
 70
         2
  9
$DIMDEC
 70
         4
  9
$DIMTDEC
 70
         4
  9
$DIMALTU
 70
         2
  9
$DIMALTTD
 70
         2
  9
$DIMTXSTY
  7
STANDARD
  9
$DIMAUNIT
 70
         0
  9
$LUNITS
 70
         2
  9
$LUPREC
 70
         4
  9
$SKETCHINC
 40
0.1
  9
$FILLETRAD
 40
0.0
  9
$AUNITS
 70
         0
  9
$AUPREC
 70
         0
  9
$MENU
  1
acad
  9
$ELEVATION
 40
0.0
  9
$PELEVATION
 40
0.0
  9
$THICKNESS
 40
0.0
  9
$LIMCHECK
 70
         0
  9
$BLIPMODE
 70
         1
  9
$CHAMFERA
 40
0.0
  9
$CHAMFERB
 40
0.0
  9
$CHAMFERC
 40
0.0
  9
$CHAMFERD
 40
0.0
  9
$SKPOLY
 70
         0
  9
$TDCREATE
 40
0.000000000
  9
$TDUPDATE
 40
0.000000000
  9
$TDINDWG
 40
0.0000000000
  9
$TDUSRTIMER
 40
0.0000000000
  9
$USRTIMER
 70
         1
  9
$ANGBASE
 50
0.0
  9
$ANGDIR
 70
         0
  9
$PDMODE
 70
         3
  9
$PDSIZE
 40
-1.0
  9
$PLINEWID
 40
0.0
  9
$COORDS
 70
         0
  9
$SPLFRAME
 70
         0
  9
$SPLINETYPE
 70
         6
  9
$SPLINESEGS
 70
         8
  9
$ATTDIA
 70
         0
  9
$ATTREQ
 70
         1
  9
$HANDLING
 70
         1
  9
$HANDSEED
  5
441
  9
$SURFTAB1
 70
         6
  9
$SURFTAB2
 70
         6
  9
$SURFTYPE
 70
         6
  9
$SURFU
 70
         6
  9
$SURFV
 70
         6
  9
$UCSNAME
  2

  9
$UCSORG
 10
0.0
 20
0.0
 30
0.0
  9
$UCSXDIR
 10
1.0
 20
0.0
 30
0.0
  9
$UCSYDIR
 10
0.0
 20
1.0
 30
0.0
  9
$PUCSNAME
  2

  9
$PUCSORG
 10
0.0
 20
0.0
 30
0.0
  9
$PUCSXDIR
 10
1.0
 20
0.0
 30
0.0
  9
$PUCSYDIR
 10
0.0
 20
1.0
 30
0.0
  9
$USERI1
 70
         0
  9
$USERI2
 70
         0
  9
$USERI3
 70
         0
  9
$USERI4
 70
         0
  9
$USERI5
 70
         0
  9
$USERR1
 40
0.0
  9
$USERR2
 40
0.0
  9
$USERR3
 40
0.0
  9
$USERR4
 40
0.0
  9
$USERR5
 40
0.0
  9
$WORLDVIEW
 70
         1
  9
$SHADEDGE
 70
         3
  9
$SHADEDIF
 70
        70
  9
$TILEMODE
 70
         1
  9
$MAXACTVP
 70
        16
  9
$PINSBASE
 10
0.0
 20
0.0
 30
0.0
  9
$PLIMCHECK
 70
         0
  9
$PEXTMIN
 10
1.0000000000E+20
 20
1.0000000000E+20
 30
1.0000000000E+20
  9
$PEXTMAX
 10
-1.0000000000E+20
 20
-1.0000000000E+20
 30
-1.0000000000E+20
  9
$PLIMMIN
 10
0.0
 20
0.0
  9
$PLIMMAX
 10
12.0
 20
9.0
  9
$UNITMODE
 70
         0
  9
$VISRETAIN
 70
         0
  9
$PLINEGEN
 70
         1
  9
$PSLTSCALE
 70
         0
  9
$TREEDEPTH
 70
      3020
  9
$PICKSTYLE
 70
         1
  9
$CMLSTYLE
  2
STANDARD
  9
$CMLJUST
 70
         0
  9
$CMLSCALE
 40
1.0
  9
$PROXYGRAPHICS
 70
         0
  9
$MEASUREMENT
 70
         0
  0
ENDSEC
  0
SECTION
  2
CLASSES
  0
CLASS
  1
LWPOLYLINE
  2
AcDbPolyline
  3
"AutoCAD"
 90
        0
280
         0
281
         1
  0
CLASS
  1
IMAGE
  2
AcDbRasterImage
  3
ISM
 90
      127
280
         0
281
         1
  0
CLASS
  1
OLE2FRAME
  2
AcDbOle2Frame
  3
""
 90
        0
280
         0
281
         1
  0
CLASS
  1
HATCH
  2
AcDbHatch
  3
"ACAD_SEDONA"
 90
        0
280
         0
281
         1
  0
CLASS
  1
DICTIONARYVAR
  2
AcDbDictionaryVar
  3
"AutoCAD"
 90
        0
280
         0
281
         0
  0
CLASS
  1
RASTERVARIABLES
  2
AcDbRasterVariables
  3
ISM
 90
        0
280
         0
281
         0
  0
CLASS
  1
IMAGEDEF
  2
AcDbRasterImageDef
  3
ISM
 90
        0
280
         0
281
         0
  0
CLASS
  1
IMAGEDEF_REACTOR
  2
AcDbRasterImageDefReactor
  3
ISM
 90
        1
280
         0
281
         0
  0
CLASS
  1
IDBUFFER
  2
AcDbIdBuffer
  3
"Acad"
 90
        0
280
         0
281
         0
  0
CLASS
  1
SPATIAL_FILTER
  2
AcDbSpatialFilter
  3
"Acad"
 90
        0
280
         0
281
         0
  0
CLASS
  1
XRECORD
  2
AcDbXrecord
  3
"<Built In>"
 90
        0
280
         0
281
         0
  0
CLASS
  1
SORTENTSTABLE
  2
AcDbSortentsTable
  3
"AutoCAD"
 90
        0
280
         0
281
         0
  0
CLASS
  1
LAYER_INDEX
  2
AcDbLayerIndex
  3
"Acad"
 90
        0
280
         0
281
         0
  0
CLASS
  1
SPATIAL_INDEX
  2
AcDbSpatialIndex
  3
"Acad"
 90
        0
280
         0
281
         0
  0
CLASS
  1
OBJECT_PTR
  2
CAseDLPNTableRecord
  3
"ASE-LPNTableRecord"
 90
        1
280
         0
281
         0
  0
CLASS
  1
LAYOUT
  2
AcDbLayout
  3
"AutoCAD 2000"
 90
        1
280
         0
281
         0
  0
CLASS
  1
PLOTSETTINGS
  2
AcDbPlotSettings
  3
"AutoCAD 2000"
 90
        1
280
         0
281
         0
  0
CLASS
  1
ACDBDICTIONARYWDFLT
  2
AcDbDictionaryWithDefault
  3
"AutoCAD 2000"
 90
        1
280
         0
281
         0
  0
CLASS
  1
ACDBPLACEHOLDER
  2
AcDbPlaceHolder
  3
"AutoCAD 2000"
 90
        1
280
         0
281
         0
  0
CLASS
  1
VBA_PROJECT
  2
AcDbVbaProject
  3
"acadvba"
 90
        1
280
         0
281
         0
  0
CLASS
  1
WIPEOUT
  2
AcDbWipeout
  3
WipeOut|AutoCAD Express Tool|expresstools@autodesk.com
 90
      127
280
         0
281
         1
  0
CLASS
  1
WIPEOUTVARIABLES
  2
AcDbWipeoutVariables
  3
WipeOut|AutoCAD Express Tool|expresstools@autodesk.com
 90
        0
280
         0
281
         0
  0
CLASS
  1
RTEXT
  2
RText
  3
RText|AutoCAD Express Tool|expresstools@autodesk.com
 90
        0
280
         0
281
         1
  0
CLASS
  1
ARCALIGNEDTEXT
  2
AcDbArcAlignedText
  3
ATEXT|AutoCAD Express Tool|expresstools@autodesk.com
 90
        0
280
         0
281
         1
  0
ENDSEC
  0
SECTION
  2
TABLES
  0
TABLE
  2
VPORT
  5
7
100
AcDbSymbolTable
 70
         1
  0
VPORT
  5
15
100
AcDbSymbolTableRecord
100
AcDbViewportTableRecord
  2
*ACTIVE
 70
         0
 10
0.0
 20
0.0
 11
1.0
 21
1.0
 12
6.591288
 22
4.579184
 13
0.0
 23
0.0
 14
1.0
 24
1.0
 15
0.0
 25
0.0
 16
0.0
 26
0.0
 36
1.0
 17
0.0
 27
0.0
 37
0.0
 40
9.158369
 41
0.688564
 42
50.0
 43
0.0
 44
0.0
 50
0.0
 51
0.0
 71
         0
 72
       100
 73
         1
 74
         1
 75
         0
 76
         0
 77
         0
 78
         0
  0
ENDTAB
  0
TABLE
  2
LTYPE
  5
4
100
AcDbSymbolTable
 70
        13
  0
LTYPE
  5
11
100
AcDbSymbolTableRecord
100
AcDbLinetypeTableRecord
  2
BYBLOCK
 70
        64
  3

 72
        65
 73
         0
 40
0.0
  0
LTYPE
  5
12
100
AcDbSymbolTableRecord
100
AcDbLinetypeTableRecord
  2
BYLAYER
 70
        64
  3

 72
        65
 73
         0
 40
0.0
  0
LTYPE
  5
13
100
AcDbSymbolTableRecord
100
AcDbLinetypeTableRecord
  2
CONTINUOUS
 70
        64
  3
Solid line
 72
        65
 73
         0
 40
0.0
  0
LTYPE
  5
1D
100
AcDbSymbolTableRecord
100
AcDbLinetypeTableRecord
  2
DOT
 70
        64
  3
. . . . . . . . 
 72
        65
 73
         2
 40
1.0
 49
0.0
 74
         0
 49
-1.0
 74
         0
  0
LTYPE
  5
1E
100
AcDbSymbolTableRecord
100
AcDbLinetypeTableRecord
  2
DASHED
 70
        64
  3
___  ___  ___  ___  
 72
        65
 73
         2
 40
4.0
 49
3.0
 74
         0
 49
-1.0
 74
         0
  0
LTYPE
  5
1F
100
AcDbSymbolTableRecord
100
AcDbLinetypeTableRecord
  2
HIDDEN
 70
        64
  3
__ __ __ __ 
 72
        65
 73
         2
 40
3.0
 49
2.0
 74
         0
 49
-1.0
 74
         0
  0
LTYPE
  5
20
100
AcDbSymbolTableRecord
100
AcDbLinetypeTableRecord
  2
STITCH
 70
        64
  3
_ _ _ _ 
 72
        65
 73
         2
 40
2.0
 49
1.0
 74
         0
 49
-1.0
 74
         0
  0
LTYPE
  5
21
100
AcDbSymbolTableRecord
100
AcDbLinetypeTableRecord
  2
CENTER
 70
        64
  3
______  __  ______  __  
 72
        65
 73
         4
 40
43.0
 49
40.0
 74
         0
 49
-1.0
 74
         0
 49
1.0
 74
         0
 49
-1.0
 74
         0
  0
LTYPE
  5
22
100
AcDbSymbolTableRecord
100
AcDbLinetypeTableRecord
  2
DASHDOT
 70
        64
  3
____ . ____ . 
 72
        65
 73
         4
 40
32.0
 49
30.0
 74
         0
 49
-1.0
 74
         0
 49
0.0
 74
         0
 49
-1.0
 74
         0
  0
LTYPE
  5
23
100
AcDbSymbolTableRecord
100
AcDbLinetypeTableRecord
  2
BORDER
 70
        64
  3
__ . __ . 
 72
        65
 73
         4
 40
22.0
 49
20.0
 74
         0
 49
-1.0
 74
         0
 49
0.0
 74
         0
 49
-1.0
 74
         0
  0
LTYPE
  5
24
100
AcDbSymbolTableRecord
100
AcDbLinetypeTableRecord
  2
CUTTING
 70
        64
  3
________   ___   ___   
 72
        65
 73
         6
 40
45.0
 49
40.0
 74
         0
 49
-1.0
 74
         0
 49
1.0
 74
         0
 49
-1.0
 74
         0
 49
1.0
 74
         0
 49
-1.0
 74
         0
  0
LTYPE
  5
25
100
AcDbSymbolTableRecord
100
AcDbLinetypeTableRecord
  2
PHANTOM
 70
        64
  3
______  __  __  
 72
        65
 73
         6
 40
35.0
 49
30.0
 74
         0
 49
-1.0
 74
         0
 49
1.0
 74
         0
 49
-1.0
 74
         0
 49
1.0
 74
         0
 49
-1.0
 74
         0
  0
LTYPE
  5
26
100
AcDbSymbolTableRecord
100
AcDbLinetypeTableRecord
  2
DIVIDE
 70
        64
  3
____ . . ____ . . 
 72
        65
 73
         6
 40
23.0
 49
20.0
 74
         0
 49
-1.0
 74
         0
 49
0.0
 74
         0
 49
-1.0
 74
         0
 49
0.0
 74
         0
 49
-1.0
 74
         0
  0
ENDTAB
  0
TABLE
  2
LAYER
  5
2
100
AcDbSymbolTable
 70
         3
  0
LAYER
  5
14
100
AcDbSymbolTableRecord
100
AcDbLayerTableRecord
  2
0
 70
         0
 62
         7
  6
CONTINUOUS
  0
LAYER
  5
27
100
AcDbSymbolTableRecord
100
AcDbLayerTableRecord
  2
ﾚｲﾔｰ1
 70
         0
 62
         7
  6
CONTINUOUS
  0
LAYER
  5
3A
100
AcDbSymbolTableRecord
100
AcDbLayerTableRecord
  2
寸法線
 70
         0
 62
         7
  6
CONTINUOUS
  0
ENDTAB
  0
TABLE
  2
STYLE
  5
3
100
AcDbSymbolTable
 70
         1
  0
STYLE
  5
17
100
AcDbSymbolTableRecord
100
AcDbTextStyleTableRecord
  2
STANDARD
 70
         0
 40
0.0
 41
1.0
 50
0.0
 71
         0
 42
0.0
  3
txt
  4
extfont
  0
ENDTAB
  0
TABLE
  2
VIEW
  5
5
100
AcDbSymbolTable
 70
         0
  0
ENDTAB
  0
TABLE
  2
UCS
  5
6
100
AcDbSymbolTable
 70
         0
  0
ENDTAB
  0
TABLE
  2
APPID
  5
8
100
AcDbSymbolTable
 70
         1
  0
APPID
  5
16
100
AcDbSymbolTableRecord
100
AcDbRegAppTableRecord
  2
ACAD
 70
         0
  0
ENDTAB
  0
TABLE
  2
DIMSTYLE
  5
9
100
AcDbSymbolTable
 70
         2
  0
DIMSTYLE
105
18
100
AcDbSymbolTableRecord
100
AcDbDimStyleTableRecord
  2
STANDARD
 70
         0
  3

  4

  5

  6

  7

 40
1.0
 41
0.18
 42
0.0625
 43
0.38
 44
0.18
 45
0.0
 46
0.0
 47
0.0
 48
0.0
 71
         0
 72
         0
 73
         1
 74
         1
 75
         0
 76
         0
 77
         0
 78
         0
140
0.18
141
0.09
142
0.0
143
25.4
144
1.0
145
0.0
146
1.0
147
0.09
170
         0
171
         2
172
         0
173
         0
174
         0
175
         0
176
         0
177
         0
178
         0
270
         2
271
         4
272
         4
273
         2
274
         2
275
         0
280
         0
281
         0
282
         0
283
         1
284
         0
285
         0
286
         0
287
         0
288
         0
340
17
  0
DIMSTYLE
105
29
100
AcDbSymbolTableRecord
100
AcDbDimStyleTableRecord
  2
VELDIM0
 70
         0
  3

  4

  5

  6

  7

 40
1.0
 41
15.0
 42
0.0625
 43
0.38
 44
30.0
 45
0.0
 46
75.0
 47
0.0
 48
0.0
 71
         0
 72
         0
 73
         0
 74
         0
 75
         0
 76
         0
 77
         0
 78
         8
140
62.970835495
141
0.09
142
0.0
143
25.4
144
1.0
145
0.0
146
1.0
147
0.09
170
         0
171
         2
172
         0
173
         0
174
         0
175
         0
176
         0
177
         0
178
         0
270
         2
271
         3
272
         4
273
         2
274
         2
275
         0
280
         0
281
         0
282
         0
283
         1
284
         0
285
         0
286
         0
287
         3
288
         0
340
17
  0
ENDTAB
  0
TABLE
  2
BLOCK_RECORD
  5
1
100
AcDbSymbolTable
 70
        41
  0
BLOCK_RECORD
  5
A
100
AcDbSymbolTableRecord
100
AcDbBlockTableRecord
  2
*MODEL_SPACE
  0
BLOCK_RECORD
  5
B
100
AcDbSymbolTableRecord
100
AcDbBlockTableRecord
  2
*PAPER_SPACE
  0
BLOCK_RECORD
  5
2A
100
AcDbSymbolTableRecord
100
AcDbBlockTableRecord
  2
*D0
  0
BLOCK_RECORD
  5
3E
100
AcDbSymbolTableRecord
100
AcDbBlockTableRecord
  2
*D1
  0
BLOCK_RECORD
  5
92
100
AcDbSymbolTableRecord
100
AcDbBlockTableRecord
  2
*D2
  0
BLOCK_RECORD
  5
BD
100
AcDbSymbolTableRecord
100
AcDbBlockTableRecord
  2
*D3
  0
BLOCK_RECORD
  5
F1
100
AcDbSymbolTableRecord
100
AcDbBlockTableRecord
  2
*D4
  0
BLOCK_RECORD
  5
11E
100
AcDbSymbolTableRecord
100
AcDbBlockTableRecord
  2
*D5
  0
BLOCK_RECORD
  5
144
100
AcDbSymbolTableRecord
100
AcDbBlockTableRecord
  2
CLUMP0
  0
BLOCK_RECORD
  5
15C
100
AcDbSymbolTableRecord
100
AcDbBlockTableRecord
  2
*D7
  0
BLOCK_RECORD
  5
16D
100
AcDbSymbolTableRecord
100
AcDbBlockTableRecord
  2
CLUMP1
  0
BLOCK_RECORD
  5
181
100
AcDbSymbolTableRecord
100
AcDbBlockTableRecord
  2
*D9
  0
BLOCK_RECORD
  5
198
100
AcDbSymbolTableRecord
100
AcDbBlockTableRecord
  2
*D10
  0
BLOCK_RECORD
  5
1AB
100
AcDbSymbolTableRecord
100
AcDbBlockTableRecord
  2
CLUMP2
  0
BLOCK_RECORD
  5
1C0
100
AcDbSymbolTableRecord
100
AcDbBlockTableRecord
  2
*D12
  0
BLOCK_RECORD
  5
1D2
100
AcDbSymbolTableRecord
100
AcDbBlockTableRecord
  2
CLUMP3
  0
BLOCK_RECORD
  5
1E9
100
AcDbSymbolTableRecord
100
AcDbBlockTableRecord
  2
*D14
  0
BLOCK_RECORD
  5
226
100
AcDbSymbolTableRecord
100
AcDbBlockTableRecord
  2
CLUMP4
  0
BLOCK_RECORD
  5
236
100
AcDbSymbolTableRecord
100
AcDbBlockTableRecord
  2
*D16
  0
BLOCK_RECORD
  5
248
100
AcDbSymbolTableRecord
100
AcDbBlockTableRecord
  2
*D17
  0
BLOCK_RECORD
  5
26F
100
AcDbSymbolTableRecord
100
AcDbBlockTableRecord
  2
CLUMP5
  0
BLOCK_RECORD
  5
280
100
AcDbSymbolTableRecord
100
AcDbBlockTableRecord
  2
CLUMP6
  0
BLOCK_RECORD
  5
294
100
AcDbSymbolTableRecord
100
AcDbBlockTableRecord
  2
CLUMP7
  0
BLOCK_RECORD
  5
2AA
100
AcDbSymbolTableRecord
100
AcDbBlockTableRecord
  2
CLUMP8
  0
BLOCK_RECORD
  5
2BC
100
AcDbSymbolTableRecord
100
AcDbBlockTableRecord
  2
*D22
  0
BLOCK_RECORD
  5
2CD
100
AcDbSymbolTableRecord
100
AcDbBlockTableRecord
  2
*D23
  0
BLOCK_RECORD
  5
2ED
100
AcDbSymbolTableRecord
100
AcDbBlockTableRecord
  2
*D24
  0
BLOCK_RECORD
  5
307
100
AcDbSymbolTableRecord
100
AcDbBlockTableRecord
  2
CLUMP9
  0
BLOCK_RECORD
  5
319
100
AcDbSymbolTableRecord
100
AcDbBlockTableRecord
  2
*D26
  0
BLOCK_RECORD
  5
32A
100
AcDbSymbolTableRecord
100
AcDbBlockTableRecord
  2
CLUMP10
  0
BLOCK_RECORD
  5
33E
100
AcDbSymbolTableRecord
100
AcDbBlockTableRecord
  2
CLUMP11
  0
BLOCK_RECORD
  5
34F
100
AcDbSymbolTableRecord
100
AcDbBlockTableRecord
  2
*D29
  0
BLOCK_RECORD
  5
376
100
AcDbSymbolTableRecord
100
AcDbBlockTableRecord
  2
CLUMP12
  0
BLOCK_RECORD
  5
38B
100
AcDbSymbolTableRecord
100
AcDbBlockTableRecord
  2
*D31
  0
BLOCK_RECORD
  5
39C
100
AcDbSymbolTableRecord
100
AcDbBlockTableRecord
  2
*D32
  0
BLOCK_RECORD
  5
3B0
100
AcDbSymbolTableRecord
100
AcDbBlockTableRecord
  2
CLUMP13
  0
BLOCK_RECORD
  5
3C6
100
AcDbSymbolTableRecord
100
AcDbBlockTableRecord
  2
*D34
  0
BLOCK_RECORD
  5
3DB
100
AcDbSymbolTableRecord
100
AcDbBlockTableRecord
  2
CLUMP14
  0
BLOCK_RECORD
  5
3F2
100
AcDbSymbolTableRecord
100
AcDbBlockTableRecord
  2
CLUMP15
  0
BLOCK_RECORD
  5
408
100
AcDbSymbolTableRecord
100
AcDbBlockTableRecord
  2
CLUMP16
  0
BLOCK_RECORD
  5
413
100
AcDbSymbolTableRecord
100
AcDbBlockTableRecord
  2
CLUMP17
  0
BLOCK_RECORD
  5
424
100
AcDbSymbolTableRecord
100
AcDbBlockTableRecord
  2
CLUMP18
  0
BLOCK_RECORD
  5
42F
100
AcDbSymbolTableRecord
100
AcDbBlockTableRecord
  2
CLUMP19
  0
ENDTAB
  0
ENDSEC
  0
SECTION
  2
BLOCKS
  0
BLOCK
  5
D
100
AcDbEntity
  8
0
100
AcDbBlockBegin
  2
*MODEL_SPACE
 70
         0
 10
0.0
 20
0.0
 30
0.0
  3
*MODEL_SPACE
  1

  0
ENDBLK
  5
E
100
AcDbEntity
  8
0
100
AcDbBlockEnd
  0
BLOCK
  5
F
100
AcDbEntity
 67
         1
  8
0
100
AcDbBlockBegin
  2
*PAPER_SPACE
 70
         0
 10
0.0
 20
0.0
 30
0.0
  3
*PAPER_SPACE
  1

  0
ENDBLK
  5
10
100
AcDbEntity
 67
         1
  8
0
100
AcDbBlockEnd
  0
BLOCK
  5
2B
100
AcDbEntity
  8
0
100
AcDbBlockBegin
  2
*D0
 70
         1
 10
0.0
 20
0.0
 30
0.0
  3

  1

  0
TEXT
  5
2C
100
AcDbEntity
  8
0
 62
         0
100
AcDbText
 10
4509.2156230927
 20
3301.4729172298
 30
0.0
 40
62.970835495
  1
865
100
AcDbText
  0
LINE
  5
2D
100
AcDbEntity
  8
0
 62
         0
100
AcDbLine
 10
4997.578125
 20
3025.5470928737
 30
0.0
 11
4997.578125
 21
3305.3604168484
 31
0.0
  0
LINE
  5
2E
100
AcDbEntity
  8
0
 62
         0
100
AcDbLine
 10
4131.978125
 20
3025.5470928737
 30
0.0
 11
4131.978125
 21
3305.3604168484
 31
0.0
  0
LINE
  5
2F
100
AcDbEntity
  8
0
 62
         0
100
AcDbLine
 10
4997.578125
 20
3275.3604168484
 30
0.0
 11
4657.3822948456
 21
3275.3604168484
 31
0.0
  0
LINE
  5
30
100
AcDbEntity
  8
0
 62
         0
100
AcDbLine
 10
4131.978125
 20
3275.3604168484
 30
0.0
 11
4657.3822948456
 21
3275.3604168484
 31
0.0
  0
LINE
  5
31
100
AcDbEntity
  8
0
 62
         0
100
AcDbLine
 10
4997.578125
 20
3275.3604168484
 30
0.0
 11
4472.1739551544
 21
3275.3604168484
 31
0.0
  0
LINE
  5
32
100
AcDbEntity
  8
0
 62
         0
100
AcDbLine
 10
4131.978125
 20
3275.3604168484
 30
0.0
 11
4472.1739551544
 21
3275.3604168484
 31
0.0
  0
LINE
  5
33
100
AcDbEntity
  8
0
 62
         0
100
AcDbLine
 10
4131.978125
 20
3275.3604168484
 30
0.0
 11
4206.978125
 21
3275.3604168484
 31
0.0
  0
LINE
  5
34
100
AcDbEntity
  8
0
 62
         0
100
AcDbLine
 10
4146.978125
 20
3282.3740424701
 30
0.0
 11
4131.978125
 21
3275.3604168484
 31
0.0
  0
LINE
  5
35
100
AcDbEntity
  8
0
 62
         0
100
AcDbLine
 10
4131.978125
 20
3275.3604168484
 30
0.0
 11
4146.978125
 21
3268.3467912266
 31
0.0
  0
LINE
  5
36
100
AcDbEntity
  8
0
 62
         0
100
AcDbLine
 10
4997.578125
 20
3275.3604168484
 30
0.0
 11
4922.578125
 21
3275.3604168484
 31
0.0
  0
LINE
  5
37
100
AcDbEntity
  8
0
 62
         0
100
AcDbLine
 10
4982.578125
 20
3268.3467912266
 30
0.0
 11
4997.578125
 21
3275.3604168484
 31
0.0
  0
LINE
  5
38
100
AcDbEntity
  8
0
 62
         0
100
AcDbLine
 10
4997.578125
 20
3275.3604168484
 30
0.0
 11
4982.578125
 21
3282.3740424701
 31
0.0
  0
ENDBLK
  5
39
100
AcDbEntity
  8
0
100
AcDbBlockEnd
  0
BLOCK
  5
3F
100
AcDbEntity
  8
0
100
AcDbBlockBegin
  2
*D1
 70
         1
 10
0.0
 20
0.0
 30
0.0
  3

  1

  0
TEXT
  5
40
100
AcDbEntity
  8
0
 62
         0
100
AcDbText
 10
4900.0531211853
 20
3302.1924027035
 30
0.0
 40
62.970835495
  1
%%c27.2
100
AcDbText
  0
LINE
  5
41
100
AcDbEntity
  8
0
 62
         0
100
AcDbLine
 10
5024.778125
 20
3062.7470928737
 30
0.0
 11
5024.778125
 21
3306.079902322
 31
0.0
  0
LINE
  5
42
100
AcDbEntity
  8
0
 62
         0
100
AcDbLine
 10
4997.578125
 20
3062.7470928737
 30
0.0
 11
4997.578125
 21
3306.079902322
 31
0.0
  0
LINE
  5
43
100
AcDbEntity
  8
0
 62
         0
100
AcDbLine
 10
5024.778125
 20
3276.079902322
 30
0.0
 11
5159.3447967529
 21
3276.079902322
 31
0.0
  0
LINE
  5
44
100
AcDbEntity
  8
0
 62
         0
100
AcDbLine
 10
4997.578125
 20
3276.079902322
 30
0.0
 11
5159.3447967529
 21
3276.079902322
 31
0.0
  0
LINE
  5
45
100
AcDbEntity
  8
0
 62
         0
100
AcDbLine
 10
5024.778125
 20
3276.079902322
 30
0.0
 11
4863.0114532471
 21
3276.079902322
 31
0.0
  0
LINE
  5
46
100
AcDbEntity
  8
0
 62
         0
100
AcDbLine
 10
4997.578125
 20
3276.079902322
 30
0.0
 11
4863.0114532471
 21
3276.079902322
 31
0.0
  0
LINE
  5
47
100
AcDbEntity
  8
0
 62
         0
100
AcDbLine
 10
4997.578125
 20
3276.079902322
 30
0.0
 11
4922.578125
 21
3276.079902322
 31
0.0
  0
LINE
  5
48
100
AcDbEntity
  8
0
 62
         0
100
AcDbLine
 10
4982.578125
 20
3269.0662767002
 30
0.0
 11
4997.578125
 21
3276.079902322
 31
0.0
  0
LINE
  5
49
100
AcDbEntity
  8
0
 62
         0
100
AcDbLine
 10
4997.578125
 20
3276.079902322
 30
0.0
 11
4982.578125
 21
3283.0935279438
 31
0.0
  0
LINE
  5
4A
100
AcDbEntity
  8
0
 62
         0
100
AcDbLine
 10
5024.778125
 20
3276.079902322
 30
0.0
 11
5099.778125
 21
3276.079902322
 31
0.0
  0
LINE
  5
4B
100
AcDbEntity
  8
0
 62
         0
100
AcDbLine
 10
5039.778125
 20
3283.0935279438
 30
0.0
 11
5024.778125
 21
3276.079902322
 31
0.0
  0
LINE
  5
4C
100
AcDbEntity
  8
0
 62
         0
100
AcDbLine
 10
5024.778125
 20
3276.079902322
 30
0.0
 11
5039.778125
 21
3269.0662767002
 31
0.0
  0
ENDBLK
  5
4D
100
AcDbEntity
  8
0
100
AcDbBlockEnd
  0
BLOCK
  5
93
100
AcDbEntity
  8
0
100
AcDbBlockBegin
  2
*D2
 70
         1
 10
0.0
 20
0.0
 30
0.0
  3

  1

  0
TEXT
  5
94
100
AcDbEntity
  8
0
 62
         0
100
AcDbText
 10
3127.2531211853
 20
3302.1924027035
 30
0.0
 40
62.970835495
  1
%%c27.2
100
AcDbText
  0
LINE
  5
95
100
AcDbEntity
  8
0
 62
         0
100
AcDbLine
 10
3251.978125
 20
3062.7470928737
 30
0.0
 11
3251.978125
 21
3306.079902322
 31
0.0
  0
LINE
  5
96
100
AcDbEntity
  8
0
 62
         0
100
AcDbLine
 10
3224.778125
 20
3062.7470928737
 30
0.0
 11
3224.778125
 21
3306.079902322
 31
0.0
  0
LINE
  5
97
100
AcDbEntity
  8
0
 62
         0
100
AcDbLine
 10
3251.978125
 20
3276.079902322
 30
0.0
 11
3386.5447967529
 21
3276.079902322
 31
0.0
  0
LINE
  5
98
100
AcDbEntity
  8
0
 62
         0
100
AcDbLine
 10
3224.778125
 20
3276.079902322
 30
0.0
 11
3386.5447967529
 21
3276.079902322
 31
0.0
  0
LINE
  5
99
100
AcDbEntity
  8
0
 62
         0
100
AcDbLine
 10
3251.978125
 20
3276.079902322
 30
0.0
 11
3090.2114532471
 21
3276.079902322
 31
0.0
  0
LINE
  5
9A
100
AcDbEntity
  8
0
 62
         0
100
AcDbLine
 10
3224.778125
 20
3276.079902322
 30
0.0
 11
3090.2114532471
 21
3276.079902322
 31
0.0
  0
LINE
  5
9B
100
AcDbEntity
  8
0
 62
         0
100
AcDbLine
 10
3224.778125
 20
3276.079902322
 30
0.0
 11
3149.778125
 21
3276.079902322
 31
0.0
  0
LINE
  5
9C
100
AcDbEntity
  8
0
 62
         0
100
AcDbLine
 10
3209.778125
 20
3269.0662767002
 30
0.0
 11
3224.778125
 21
3276.079902322
 31
0.0
  0
LINE
  5
9D
100
AcDbEntity
  8
0
 62
         0
100
AcDbLine
 10
3224.778125
 20
3276.079902322
 30
0.0
 11
3209.778125
 21
3283.0935279438
 31
0.0
  0
LINE
  5
9E
100
AcDbEntity
  8
0
 62
         0
100
AcDbLine
 10
3251.978125
 20
3276.079902322
 30
0.0
 11
3326.978125
 21
3276.079902322
 31
0.0
  0
LINE
  5
9F
100
AcDbEntity
  8
0
 62
         0
100
AcDbLine
 10
3266.978125
 20
3283.0935279438
 30
0.0
 11
3251.978125
 21
3276.079902322
 31
0.0
  0
LINE
  5
A0
100
AcDbEntity
  8
0
 62
         0
100
AcDbLine
 10
3251.978125
 20
3276.079902322
 30
0.0
 11
3266.978125
 21
3269.0662767002
 31
0.0
  0
ENDBLK
  5
A1
100
AcDbEntity
  8
0
100
AcDbBlockEnd
  0
BLOCK
  5
BE
100
AcDbEntity
  8
0
100
AcDbBlockBegin
  2
*D3
 70
         1
 10
0.0
 20
0.0
 30
0.0
  3

  1

  0
TEXT
  5
BF
100
AcDbEntity
  8
0
 62
         0
100
AcDbText
 10
3075.8656246185
 20
2123.022089059
 30
0.0
 40
62.970835495
  1
%%c27.2
 50
90.0
100
AcDbText
  0
LINE
  5
C0
100
AcDbEntity
  8
0
 62
         0
100
AcDbLine
 10
3251.978125
 20
2247.7470928737
 30
0.0
 11
3071.978125
 21
2247.7470928737
 31
0.0
  0
LINE
  5
C1
100
AcDbEntity
  8
0
 62
         0
100
AcDbLine
 10
3251.978125
 20
2220.5470928737
 30
0.0
 11
3071.978125
 21
2220.5470928737
 31
0.0
  0
LINE
  5
C2
100
AcDbEntity
  8
0
 62
         0
100
AcDbLine
 10
3101.978125
 20
2247.7470928737
 30
0.0
 11
3101.978125
 21
2382.3137646267
 31
0.0
  0
LINE
  5
C3
100
AcDbEntity
  8
0
 62
         0
100
AcDbLine
 10
3101.978125
 20
2220.5470928737
 30
0.0
 11
3101.978125
 21
2382.3137646267
 31
0.0
  0
LINE
  5
C4
100
AcDbEntity
  8
0
 62
         0
100
AcDbLine
 10
3101.978125
 20
2247.7470928737
 30
0.0
 11
3101.978125
 21
2085.9804211208
 31
0.0
  0
LINE
  5
C5
100
AcDbEntity
  8
0
 62
         0
100
AcDbLine
 10
3101.978125
 20
2220.5470928737
 30
0.0
 11
3101.978125
 21
2085.9804211208
 31
0.0
  0
LINE
  5
C6
100
AcDbEntity
  8
0
 62
         0
100
AcDbLine
 10
3101.978125
 20
2220.5470928737
 30
0.0
 11
3101.978125
 21
2145.5470928737
 31
0.0
  0
LINE
  5
C7
100
AcDbEntity
  8
0
 62
         0
100
AcDbLine
 10
3108.9917506218
 20
2205.5470928737
 30
0.0
 11
3101.978125
 21
2220.5470928737
 31
0.0
  0
LINE
  5
C8
100
AcDbEntity
  8
0
 62
         0
100
AcDbLine
 10
3101.978125
 20
2220.5470928737
 30
0.0
 11
3094.9644993782
 21
2205.5470928737
 31
0.0
  0
LINE
  5
C9
100
AcDbEntity
  8
0
 62
         0
100
AcDbLine
 10
3101.978125
 20
2247.7470928737
 30
0.0
 11
3101.978125
 21
2322.7470928737
 31
0.0
  0
LINE
  5
CA
100
AcDbEntity
  8
0
 62
         0
100
AcDbLine
 10
3094.9644993782
 20
2262.7470928737
 30
0.0
 11
3101.978125
 21
2247.7470928737
 31
0.0
  0
LINE
  5
CB
100
AcDbEntity
  8
0
 62
         0
100
AcDbLine
 10
3101.978125
 20
2247.7470928737
 30
0.0
 11
3108.9917506218
 21
2262.7470928737
 31
0.0
  0
ENDBLK
  5
CC
100
AcDbEntity
  8
0
100
AcDbBlockEnd
  0
BLOCK
  5
F2
100
AcDbEntity
  8
0
100
AcDbBlockBegin
  2
*D4
 70
         1
 10
0.0
 20
0.0
 30
0.0
  3

  1

  0
TEXT
  5
F3
100
AcDbEntity
  8
0
 62
         0
100
AcDbText
 10
3375.8656246185
 20
1283.5845909664
 30
0.0
 40
62.970835495
  1
153
 50
90.0
100
AcDbText
  0
LINE
  5
F4
100
AcDbEntity
  8
0
 62
         0
100
AcDbLine
 10
3251.978125
 20
1262.7470928737
 30
0.0
 11
3431.978125
 21
1262.7470928737
 31
0.0
  0
LINE
  5
F5
100
AcDbEntity
  8
0
 62
         0
100
AcDbLine
 10
3251.978125
 20
1415.5470928737
 30
0.0
 11
3431.978125
 21
1415.5470928737
 31
0.0
  0
LINE
  5
F6
100
AcDbEntity
  8
0
 62
         0
100
AcDbLine
 10
3401.978125
 20
1262.7470928737
 30
0.0
 11
3401.978125
 21
1431.7512627193
 31
0.0
  0
LINE
  5
F7
100
AcDbEntity
  8
0
 62
         0
100
AcDbLine
 10
3401.978125
 20
1415.5470928737
 30
0.0
 11
3401.978125
 21
1431.7512627193
 31
0.0
  0
LINE
  5
F8
100
AcDbEntity
  8
0
 62
         0
100
AcDbLine
 10
3401.978125
 20
1262.7470928737
 30
0.0
 11
3401.978125
 21
1246.5429230282
 31
0.0
  0
LINE
  5
F9
100
AcDbEntity
  8
0
 62
         0
100
AcDbLine
 10
3401.978125
 20
1415.5470928737
 30
0.0
 11
3401.978125
 21
1246.5429230282
 31
0.0
  0
LINE
  5
FA
100
AcDbEntity
  8
0
 62
         0
100
AcDbLine
 10
3401.978125
 20
1415.5470928737
 30
0.0
 11
3401.978125
 21
1490.5470928737
 31
0.0
  0
LINE
  5
FB
100
AcDbEntity
  8
0
 62
         0
100
AcDbLine
 10
3394.9644993782
 20
1430.5470928737
 30
0.0
 11
3401.978125
 21
1415.5470928737
 31
0.0
  0
LINE
  5
FC
100
AcDbEntity
  8
0
 62
         0
100
AcDbLine
 10
3401.978125
 20
1415.5470928737
 30
0.0
 11
3408.9917506218
 21
1430.5470928737
 31
0.0
  0
LINE
  5
FD
100
AcDbEntity
  8
0
 62
         0
100
AcDbLine
 10
3401.978125
 20
1262.7470928737
 30
0.0
 11
3401.978125
 21
1187.7470928737
 31
0.0
  0
LINE
  5
FE
100
AcDbEntity
  8
0
 62
         0
100
AcDbLine
 10
3408.9917506218
 20
1247.7470928737
 30
0.0
 11
3401.978125
 21
1262.7470928737
 31
0.0
  0
LINE
  5
FF
100
AcDbEntity
  8
0
 62
         0
100
AcDbLine
 10
3401.978125
 20
1262.7470928737
 30
0.0
 11
3394.9644993782
 21
1247.7470928737
 31
0.0
  0
ENDBLK
  5
100
100
AcDbEntity
  8
0
100
AcDbBlockEnd
  0
BLOCK
  5
11F
100
AcDbEntity
  8
0
100
AcDbBlockBegin
  2
*D5
 70
         1
 10
0.0
 20
0.0
 30
0.0
  3

  1

  0
TEXT
  5
120
100
AcDbEntity
  8
0
 62
         0
100
AcDbText
 10
2313.2749961853
 20
3238.8595932552
 30
0.0
 40
62.970835495
  1
%%c27.2
100
AcDbText
  0
LINE
  5
121
100
AcDbEntity
  8
0
 62
         0
100
AcDbLine
 10
2438.0
 20
3062.7470928737
 30
0.0
 11
2438.0
 21
3242.7470928737
 31
0.0
  0
LINE
  5
122
100
AcDbEntity
  8
0
 62
         0
100
AcDbLine
 10
2410.8
 20
3062.7470928737
 30
0.0
 11
2410.8
 21
3242.7470928737
 31
0.0
  0
LINE
  5
123
100
AcDbEntity
  8
0
 62
         0
100
AcDbLine
 10
2438.0
 20
3212.7470928737
 30
0.0
 11
2572.5666717529
 21
3212.7470928737
 31
0.0
  0
LINE
  5
124
100
AcDbEntity
  8
0
 62
         0
100
AcDbLine
 10
2410.8
 20
3212.7470928737
 30
0.0
 11
2572.5666717529
 21
3212.7470928737
 31
0.0
  0
LINE
  5
125
100
AcDbEntity
  8
0
 62
         0
100
AcDbLine
 10
2438.0
 20
3212.7470928737
 30
0.0
 11
2276.2333282471
 21
3212.7470928737
 31
0.0
  0
LINE
  5
126
100
AcDbEntity
  8
0
 62
         0
100
AcDbLine
 10
2410.8
 20
3212.7470928737
 30
0.0
 11
2276.2333282471
 21
3212.7470928737
 31
0.0
  0
LINE
  5
127
100
AcDbEntity
  8
0
 62
         0
100
AcDbLine
 10
2410.8
 20
3212.7470928737
 30
0.0
 11
2335.8
 21
3212.7470928737
 31
0.0
  0
LINE
  5
128
100
AcDbEntity
  8
0
 62
         0
100
AcDbLine
 10
2395.8
 20
3205.7334672519
 30
0.0
 11
2410.8
 21
3212.7470928737
 31
0.0
  0
LINE
  5
129
100
AcDbEntity
  8
0
 62
         0
100
AcDbLine
 10
2410.8
 20
3212.7470928737
 30
0.0
 11
2395.8
 21
3219.7607184955
 31
0.0
  0
LINE
  5
12A
100
AcDbEntity
  8
0
 62
         0
100
AcDbLine
 10
2438.0
 20
3212.7470928737
 30
0.0
 11
2513.0
 21
3212.7470928737
 31
0.0
  0
LINE
  5
12B
100
AcDbEntity
  8
0
 62
         0
100
AcDbLine
 10
2453.0
 20
3219.7607184955
 30
0.0
 11
2438.0
 21
3212.7470928737
 31
0.0
  0
LINE
  5
12C
100
AcDbEntity
  8
0
 62
         0
100
AcDbLine
 10
2438.0
 20
3212.7470928737
 30
0.0
 11
2453.0
 21
3205.7334672519
 31
0.0
  0
ENDBLK
  5
12D
100
AcDbEntity
  8
0
100
AcDbBlockEnd
  0
BLOCK
  5
146
100
AcDbEntity
  8
0
100
AcDbBlockBegin
  2
CLUMP0
 70
         0
 10
0.0
 20
0.0
 30
0.0
  3

  1

  0
LINE
  5
147
100
AcDbEntity
  8
ﾚｲﾔｰ1
 62
         2
100
AcDbLine
 10
1528.0
 20
2262.7470928737
 30
0.0
 11
1528.0
 21
2247.7470928737
 31
0.0
  0
LINE
  5
148
100
AcDbEntity
  8
ﾚｲﾔｰ1
 62
         2
100
AcDbLine
 10
1548.0
 20
2262.7470928737
 30
0.0
 11
1528.0
 21
2262.7470928737
 31
0.0
  0
LINE
  5
149
100
AcDbEntity
  8
ﾚｲﾔｰ1
 62
         2
100
AcDbLine
 10
1548.0
 20
2247.7470928737
 30
0.0
 11
1548.0
 21
2262.7470928737
 31
0.0
  0
LINE
  5
14A
100
AcDbEntity
  8
ﾚｲﾔｰ1
 62
         2
100
AcDbLine
 10
1528.0
 20
2247.7470928737
 30
0.0
 11
1548.0
 21
2247.7470928737
 31
0.0
  0
ENDBLK
  5
14B
100
AcDbEntity
  8
0
100
AcDbBlockEnd
  0
BLOCK
  5
15D
100
AcDbEntity
  8
0
100
AcDbBlockBegin
  2
*D7
 70
         1
 10
0.0
 20
0.0
 30
0.0
  3

  1

  0
TEXT
  5
15E
100
AcDbEntity
  8
0
 62
         0
100
AcDbText
 10
1756.7039056142
 20
3050.4333302089
 30
0.0
 40
62.970835495
  1
%%c27.2
 50
90.0
100
AcDbText
  0
LINE
  5
15F
100
AcDbEntity
  8
0
 62
         0
100
AcDbLine
 10
1735.9520833333
 20
3025.5470928737
 30
0.0
 11
1812.8164059957
 21
3025.5470928737
 31
0.0
  0
LINE
  5
160
100
AcDbEntity
  8
0
 62
         0
100
AcDbLine
 10
1735.9520833333
 20
3052.7470928737
 30
0.0
 11
1812.8164059957
 21
3052.7470928737
 31
0.0
  0
LINE
  5
161
100
AcDbEntity
  8
0
 62
         0
100
AcDbLine
 10
1782.8164059957
 20
3025.5470928737
 30
0.0
 11
1782.8164059957
 21
3309.7250057766
 31
0.0
  0
LINE
  5
162
100
AcDbEntity
  8
0
 62
         0
100
AcDbLine
 10
1782.8164059957
 20
3052.7470928737
 30
0.0
 11
1782.8164059957
 21
3309.7250057766
 31
0.0
  0
LINE
  5
163
100
AcDbEntity
  8
0
 62
         0
100
AcDbLine
 10
1782.8164059957
 20
3025.5470928737
 30
0.0
 11
1782.8164059957
 21
3013.3916622707
 31
0.0
  0
LINE
  5
164
100
AcDbEntity
  8
0
 62
         0
100
AcDbLine
 10
1782.8164059957
 20
3052.7470928737
 30
0.0
 11
1782.8164059957
 21
3013.3916622707
 31
0.0
  0
LINE
  5
165
100
AcDbEntity
  8
0
 62
         0
100
AcDbLine
 10
1782.8164059957
 20
3052.7470928737
 30
0.0
 11
1782.8164059957
 21
3127.7470928737
 31
0.0
  0
LINE
  5
166
100
AcDbEntity
  8
0
 62
         0
100
AcDbLine
 10
1775.8027803739
 20
3067.7470928737
 30
0.0
 11
1782.8164059957
 21
3052.7470928737
 31
0.0
  0
LINE
  5
167
100
AcDbEntity
  8
0
 62
         0
100
AcDbLine
 10
1782.8164059957
 20
3052.7470928737
 30
0.0
 11
1789.8300316175
 21
3067.7470928737
 31
0.0
  0
LINE
  5
168
100
AcDbEntity
  8
0
 62
         0
100
AcDbLine
 10
1782.8164059957
 20
3025.5470928737
 30
0.0
 11
1782.8164059957
 21
2950.5470928737
 31
0.0
  0
LINE
  5
169
100
AcDbEntity
  8
0
 62
         0
100
AcDbLine
 10
1789.8300316175
 20
3010.5470928737
 30
0.0
 11
1782.8164059957
 21
3025.5470928737
 31
0.0
  0
LINE
  5
16A
100
AcDbEntity
  8
0
 62
         0
100
AcDbLine
 10
1782.8164059957
 20
3025.5470928737
 30
0.0
 11
1775.8027803739
 21
3010.5470928737
 31
0.0
  0
ENDBLK
  5
16B
100
AcDbEntity
  8
0
100
AcDbBlockEnd
  0
BLOCK
  5
16F
100
AcDbEntity
  8
0
100
AcDbBlockBegin
  2
CLUMP1
 70
         0
 10
0.0
 20
0.0
 30
0.0
  3

  1

  0
LINE
  5
170
100
AcDbEntity
  8
ﾚｲﾔｰ1
 62
         2
100
AcDbLine
 10
1528.0
 20
3010.5470928737
 30
0.0
 11
1528.0
 21
3025.5470928737
 31
0.0
  0
LINE
  5
171
100
AcDbEntity
  8
ﾚｲﾔｰ1
 62
         2
100
AcDbLine
 10
1548.0
 20
3010.5470928737
 30
0.0
 11
1528.0
 21
3010.5470928737
 31
0.0
  0
LINE
  5
172
100
AcDbEntity
  8
ﾚｲﾔｰ1
 62
         2
100
AcDbLine
 10
1548.0
 20
3025.5470928737
 30
0.0
 11
1548.0
 21
3010.5470928737
 31
0.0
  0
LINE
  5
173
100
AcDbEntity
  8
ﾚｲﾔｰ1
 62
         2
100
AcDbLine
 10
1528.0
 20
3025.5470928737
 30
0.0
 11
1548.0
 21
3025.5470928737
 31
0.0
  0
ENDBLK
  5
174
100
AcDbEntity
  8
0
100
AcDbBlockEnd
  0
BLOCK
  5
182
100
AcDbEntity
  8
0
100
AcDbBlockBegin
  2
*D9
 70
         1
 10
0.0
 20
0.0
 30
0.0
  3

  1

  0
TEXT
  5
183
100
AcDbEntity
  8
0
 62
         0
100
AcDbText
 10
540.4749961853
 20
3238.8595932552
 30
0.0
 40
62.970835495
  1
%%c27.2
100
AcDbText
  0
LINE
  5
184
100
AcDbEntity
  8
0
 62
         0
100
AcDbLine
 10
665.2
 20
3062.7470928737
 30
0.0
 11
665.2
 21
3242.7470928737
 31
0.0
  0
LINE
  5
185
100
AcDbEntity
  8
0
 62
         0
100
AcDbLine
 10
638.0
 20
3062.7470928737
 30
0.0
 11
638.0
 21
3242.7470928737
 31
0.0
  0
LINE
  5
186
100
AcDbEntity
  8
0
 62
         0
100
AcDbLine
 10
665.2
 20
3212.7470928737
 30
0.0
 11
799.7666717529
 21
3212.7470928737
 31
0.0
  0
LINE
  5
187
100
AcDbEntity
  8
0
 62
         0
100
AcDbLine
 10
638.0
 20
3212.7470928737
 30
0.0
 11
799.7666717529
 21
3212.7470928737
 31
0.0
  0
LINE
  5
188
100
AcDbEntity
  8
0
 62
         0
100
AcDbLine
 10
665.2
 20
3212.7470928737
 30
0.0
 11
503.4333282471
 21
3212.7470928737
 31
0.0
  0
LINE
  5
189
100
AcDbEntity
  8
0
 62
         0
100
AcDbLine
 10
638.0
 20
3212.7470928737
 30
0.0
 11
503.4333282471
 21
3212.7470928737
 31
0.0
  0
LINE
  5
18A
100
AcDbEntity
  8
0
 62
         0
100
AcDbLine
 10
638.0
 20
3212.7470928737
 30
0.0
 11
563.0
 21
3212.7470928737
 31
0.0
  0
LINE
  5
18B
100
AcDbEntity
  8
0
 62
         0
100
AcDbLine
 10
623.0
 20
3205.7334672519
 30
0.0
 11
638.0
 21
3212.7470928737
 31
0.0
  0
LINE
  5
18C
100
AcDbEntity
  8
0
 62
         0
100
AcDbLine
 10
638.0
 20
3212.7470928737
 30
0.0
 11
623.0
 21
3219.7607184955
 31
0.0
  0
LINE
  5
18D
100
AcDbEntity
  8
0
 62
         0
100
AcDbLine
 10
665.2
 20
3212.7470928737
 30
0.0
 11
740.2
 21
3212.7470928737
 31
0.0
  0
LINE
  5
18E
100
AcDbEntity
  8
0
 62
         0
100
AcDbLine
 10
680.2
 20
3219.7607184955
 30
0.0
 11
665.2
 21
3212.7470928737
 31
0.0
  0
LINE
  5
18F
100
AcDbEntity
  8
0
 62
         0
100
AcDbLine
 10
665.2
 20
3212.7470928737
 30
0.0
 11
680.2
 21
3205.7334672519
 31
0.0
  0
ENDBLK
  5
190
100
AcDbEntity
  8
0
100
AcDbBlockEnd
  0
BLOCK
  5
199
100
AcDbEntity
  8
0
100
AcDbBlockBegin
  2
*D10
 70
         1
 10
0.0
 20
0.0
 30
0.0
  3

  1

  0
TEXT
  5
19A
100
AcDbEntity
  8
0
 62
         0
100
AcDbText
 10
1742.2841142019
 20
2260.9497334072
 30
0.0
 40
62.970835495
  1
%%c27.2
 50
90.0
100
AcDbText
  0
LINE
  5
19B
100
AcDbEntity
  8
0
 62
         0
100
AcDbLine
 10
1768.3966145833
 20
2247.7470928737
 30
0.0
 11
1768.3966145833
 21
2247.7470928737
 31
0.0
  0
LINE
  5
19C
100
AcDbEntity
  8
0
 62
         0
100
AcDbLine
 10
1768.3966145833
 20
2220.5470928737
 30
0.0
 11
1768.3966145833
 21
2220.5470928737
 31
0.0
  0
LINE
  5
19D
100
AcDbEntity
  8
0
 62
         0
100
AcDbLine
 10
1768.3966145833
 20
2247.7470928737
 30
0.0
 11
1768.3966145833
 21
2520.2414089748
 31
0.0
  0
LINE
  5
19E
100
AcDbEntity
  8
0
 62
         0
100
AcDbLine
 10
1768.3966145833
 20
2220.5470928737
 30
0.0
 11
1768.3966145833
 21
2520.2414089748
 31
0.0
  0
LINE
  5
19F
100
AcDbEntity
  8
0
 62
         0
100
AcDbLine
 10
1768.3966145833
 20
2247.7470928737
 30
0.0
 11
1768.3966145833
 21
2223.9080654689
 31
0.0
  0
LINE
  5
1A0
100
AcDbEntity
  8
0
 62
         0
100
AcDbLine
 10
1768.3966145833
 20
2220.5470928737
 30
0.0
 11
1768.3966145833
 21
2223.9080654689
 31
0.0
  0
LINE
  5
1A1
100
AcDbEntity
  8
0
 62
         0
100
AcDbLine
 10
1768.3966145833
 20
2220.5470928737
 30
0.0
 11
1768.3966145833
 21
2145.5470928737
 31
0.0
  0
LINE
  5
1A2
100
AcDbEntity
  8
0
 62
         0
100
AcDbLine
 10
1775.4102402051
 20
2205.5470928737
 30
0.0
 11
1768.3966145833
 21
2220.5470928737
 31
0.0
  0
LINE
  5
1A3
100
AcDbEntity
  8
0
 62
         0
100
AcDbLine
 10
1768.3966145833
 20
2220.5470928737
 30
0.0
 11
1761.3829889615
 21
2205.5470928737
 31
0.0
  0
LINE
  5
1A4
100
AcDbEntity
  8
0
 62
         0
100
AcDbLine
 10
1768.3966145833
 20
2247.7470928737
 30
0.0
 11
1768.3966145833
 21
2322.7470928737
 31
0.0
  0
LINE
  5
1A5
100
AcDbEntity
  8
0
 62
         0
100
AcDbLine
 10
1761.3829889615
 20
2262.7470928737
 30
0.0
 11
1768.3966145833
 21
2247.7470928737
 31
0.0
  0
LINE
  5
1A6
100
AcDbEntity
  8
0
 62
         0
100
AcDbLine
 10
1768.3966145833
 20
2247.7470928737
 30
0.0
 11
1775.4102402051
 21
2262.7470928737
 31
0.0
  0
ENDBLK
  5
1A7
100
AcDbEntity
  8
0
100
AcDbBlockEnd
  0
BLOCK
  5
1AD
100
AcDbEntity
  8
0
100
AcDbBlockBegin
  2
CLUMP2
 70
         0
 10
0.0
 20
0.0
 30
0.0
  3

  1

  0
LINE
  5
1AE
100
AcDbEntity
  8
ﾚｲﾔｰ1
 62
         2
100
AcDbLine
 10
1528.0
 20
2205.5470928737
 30
0.0
 11
1528.0
 21
2220.5470928737
 31
0.0
  0
LINE
  5
1AF
100
AcDbEntity
  8
ﾚｲﾔｰ1
 62
         2
100
AcDbLine
 10
1548.0
 20
2205.5470928737
 30
0.0
 11
1528.0
 21
2205.5470928737
 31
0.0
  0
LINE
  5
1B0
100
AcDbEntity
  8
ﾚｲﾔｰ1
 62
         2
100
AcDbLine
 10
1548.0
 20
2220.5470928737
 30
0.0
 11
1548.0
 21
2205.5470928737
 31
0.0
  0
LINE
  5
1B1
100
AcDbEntity
  8
ﾚｲﾔｰ1
 62
         2
100
AcDbLine
 10
1528.0
 20
2220.5470928737
 30
0.0
 11
1548.0
 21
2220.5470928737
 31
0.0
  0
ENDBLK
  5
1B2
100
AcDbEntity
  8
0
100
AcDbBlockEnd
  0
BLOCK
  5
1C1
100
AcDbEntity
  8
0
100
AcDbBlockBegin
  2
*D12
 70
         1
 10
0.0
 20
0.0
 30
0.0
  3

  1

  0
TEXT
  5
1C2
100
AcDbEntity
  8
0
 62
         0
100
AcDbText
 10
1738.6791637421
 20
1204.6999973842
 30
0.0
 40
62.970835495
  1
%%c27.2
 50
90.0
100
AcDbText
  0
LINE
  5
1C3
100
AcDbEntity
  8
0
 62
         0
100
AcDbLine
 10
1836.890625
 20
1415.5470928737
 30
0.0
 11
1734.7916641235
 21
1415.5470928737
 31
0.0
  0
LINE
  5
1C4
100
AcDbEntity
  8
0
 62
         0
100
AcDbLine
 10
1836.890625
 20
1442.7470928737
 30
0.0
 11
1734.7916641235
 21
1442.7470928737
 31
0.0
  0
LINE
  5
1C5
100
AcDbEntity
  8
0
 62
         0
100
AcDbLine
 10
1764.7916641235
 20
1415.5470928737
 30
0.0
 11
1764.7916641235
 21
1463.9916729519
 31
0.0
  0
LINE
  5
1C6
100
AcDbEntity
  8
0
 62
         0
100
AcDbLine
 10
1764.7916641235
 20
1442.7470928737
 30
0.0
 11
1764.7916641235
 21
1463.9916729519
 31
0.0
  0
LINE
  5
1C7
100
AcDbEntity
  8
0
 62
         0
100
AcDbLine
 10
1764.7916641235
 20
1415.5470928737
 30
0.0
 11
1764.7916641235
 21
1167.658329446
 31
0.0
  0
LINE
  5
1C8
100
AcDbEntity
  8
0
 62
         0
100
AcDbLine
 10
1764.7916641235
 20
1442.7470928737
 30
0.0
 11
1764.7916641235
 21
1167.658329446
 31
0.0
  0
LINE
  5
1C9
100
AcDbEntity
  8
0
 62
         0
100
AcDbLine
 10
1764.7916641235
 20
1442.7470928737
 30
0.0
 11
1764.7916641235
 21
1517.7470928737
 31
0.0
  0
LINE
  5
1CA
100
AcDbEntity
  8
0
 62
         0
100
AcDbLine
 10
1757.7780385017
 20
1457.7470928737
 30
0.0
 11
1764.7916641235
 21
1442.7470928737
 31
0.0
  0
LINE
  5
1CB
100
AcDbEntity
  8
0
 62
         0
100
AcDbLine
 10
1764.7916641235
 20
1442.7470928737
 30
0.0
 11
1771.8052897453
 21
1457.7470928737
 31
0.0
  0
LINE
  5
1CC
100
AcDbEntity
  8
0
 62
         0
100
AcDbLine
 10
1764.7916641235
 20
1415.5470928737
 30
0.0
 11
1764.7916641235
 21
1340.5470928737
 31
0.0
  0
LINE
  5
1CD
100
AcDbEntity
  8
0
 62
         0
100
AcDbLine
 10
1771.8052897453
 20
1400.5470928737
 30
0.0
 11
1764.7916641235
 21
1415.5470928737
 31
0.0
  0
LINE
  5
1CE
100
AcDbEntity
  8
0
 62
         0
100
AcDbLine
 10
1764.7916641235
 20
1415.5470928737
 30
0.0
 11
1757.7780385017
 21
1400.5470928737
 31
0.0
  0
ENDBLK
  5
1CF
100
AcDbEntity
  8
0
100
AcDbBlockEnd
  0
BLOCK
  5
1D4
100
AcDbEntity
  8
0
100
AcDbBlockBegin
  2
CLUMP3
 70
         0
 10
0.0
 20
0.0
 30
0.0
  3

  1

  0
LINE
  5
1D5
100
AcDbEntity
  8
ﾚｲﾔｰ1
 62
         2
100
AcDbLine
 10
1528.0
 20
1457.7470928737
 30
0.0
 11
1528.0
 21
1442.7470928737
 31
0.0
  0
LINE
  5
1D6
100
AcDbEntity
  8
ﾚｲﾔｰ1
 62
         2
100
AcDbLine
 10
1548.0
 20
1457.7470928737
 30
0.0
 11
1528.0
 21
1457.7470928737
 31
0.0
  0
LINE
  5
1D7
100
AcDbEntity
  8
ﾚｲﾔｰ1
 62
         2
100
AcDbLine
 10
1548.0
 20
1442.7470928737
 30
0.0
 11
1548.0
 21
1457.7470928737
 31
0.0
  0
LINE
  5
1D8
100
AcDbEntity
  8
ﾚｲﾔｰ1
 62
         2
100
AcDbLine
 10
1528.0
 20
1442.7470928737
 30
0.0
 11
1548.0
 21
1442.7470928737
 31
0.0
  0
ENDBLK
  5
1D9
100
AcDbEntity
  8
0
100
AcDbBlockEnd
  0
BLOCK
  5
1EA
100
AcDbEntity
  8
0
100
AcDbBlockBegin
  2
*D14
 70
         1
 10
0.0
 20
0.0
 30
0.0
  3

  1

  0
TEXT
  5
1EB
100
AcDbEntity
  8
0
 62
         0
100
AcDbText
 10
1803.2583320618
 20
354.0781230927
 30
0.0
 40
62.970835495
  1
55
100
AcDbText
  0
LINE
  5
1EC
100
AcDbEntity
  8
0
 62
         0
100
AcDbLine
 10
1977.8
 20
253.5739562988
 30
0.0
 11
1977.8
 21
357.9656227112
 31
0.0
  0
LINE
  5
1ED
100
AcDbEntity
  8
0
 62
         0
100
AcDbLine
 10
1702.8
 20
268.5739562988
 30
0.0
 11
1702.8
 21
357.9656227112
 31
0.0
  0
LINE
  5
1EE
100
AcDbEntity
  8
0
 62
         0
100
AcDbLine
 10
1977.8
 20
327.9656227112
 30
0.0
 11
1914.3833358765
 21
327.9656227112
 31
0.0
  0
LINE
  5
1EF
100
AcDbEntity
  8
0
 62
         0
100
AcDbLine
 10
1702.8
 20
327.9656227112
 30
0.0
 11
1914.3833358765
 21
327.9656227112
 31
0.0
  0
LINE
  5
1F0
100
AcDbEntity
  8
0
 62
         0
100
AcDbLine
 10
1977.8
 20
327.9656227112
 30
0.0
 11
1766.2166641235
 21
327.9656227112
 31
0.0
  0
LINE
  5
1F1
100
AcDbEntity
  8
0
 62
         0
100
AcDbLine
 10
1702.8
 20
327.9656227112
 30
0.0
 11
1766.2166641235
 21
327.9656227112
 31
0.0
  0
LINE
  5
1F2
100
AcDbEntity
  8
0
 62
         0
100
AcDbLine
 10
1702.8
 20
327.9656227112
 30
0.0
 11
1777.8
 21
327.9656227112
 31
0.0
  0
LINE
  5
1F3
100
AcDbEntity
  8
0
 62
         0
100
AcDbLine
 10
1717.8
 20
334.979248333
 30
0.0
 11
1702.8
 21
327.9656227112
 31
0.0
  0
LINE
  5
1F4
100
AcDbEntity
  8
0
 62
         0
100
AcDbLine
 10
1702.8
 20
327.9656227112
 30
0.0
 11
1717.8
 21
320.9519970894
 31
0.0
  0
LINE
  5
1F5
100
AcDbEntity
  8
0
 62
         0
100
AcDbLine
 10
1977.8
 20
327.9656227112
 30
0.0
 11
1902.8
 21
327.9656227112
 31
0.0
  0
LINE
  5
1F6
100
AcDbEntity
  8
0
 62
         0
100
AcDbLine
 10
1962.8
 20
320.9519970894
 30
0.0
 11
1977.8
 21
327.9656227112
 31
0.0
  0
LINE
  5
1F7
100
AcDbEntity
  8
0
 62
         0
100
AcDbLine
 10
1977.8
 20
327.9656227112
 30
0.0
 11
1962.8
 21
334.979248333
 31
0.0
  0
ENDBLK
  5
1F8
100
AcDbEntity
  8
0
100
AcDbBlockEnd
  0
BLOCK
  5
228
100
AcDbEntity
  8
0
100
AcDbBlockBegin
  2
CLUMP4
 70
         0
 10
0.0
 20
0.0
 30
0.0
  3

  1

  0
LINE
  5
229
100
AcDbEntity
  8
ﾚｲﾔｰ1
 62
         2
100
AcDbLine
 10
1151.111328125
 20
631.1598937988
 30
0.0
 11
1056.111328125
 21
631.1598937988
 31
0.0
  0
LINE
  5
22A
100
AcDbEntity
  8
ﾚｲﾔｰ1
  6
BORDER
 62
         3
100
AcDbLine
 10
1103.611328125
 20
568.7346008301
 30
0.0
 11
1103.611328125
 21
493.5851867676
 31
0.0
  0
LINE
  5
22B
100
AcDbEntity
  8
ﾚｲﾔｰ1
  6
BORDER
 62
         3
100
AcDbLine
 10
1069.1288859049
 20
531.1598937988
 30
0.0
 11
1138.093770345
 21
531.1598937988
 31
0.0
  0
CIRCLE
  5
22C
100
AcDbEntity
  8
ﾚｲﾔｰ1
100
AcDbCircle
 10
1103.611328125
 20
531.1598937988
 30
0.0
 40
25.0
210
0.0
220
0.0
230
1.0
  0
ARC
  5
22D
100
AcDbEntity
  8
ﾚｲﾔｰ1
100
AcDbCircle
 10
-1103.611328125
 20
569.9362983217
 30
0.0
 40
88.7764045228
210
0.0
220
0.0
230
-1.0
100
AcDbArc
 50
237.6525565006
 51
302.3474434994
  0
LINE
  5
22E
100
AcDbEntity
  8
ﾚｲﾔｰ1
 62
         2
100
AcDbLine
 10
1151.111328125
 20
631.1598937988
 30
0.0
 11
1151.111328125
 21
494.9362983217
 31
0.0
  0
LINE
  5
22F
100
AcDbEntity
  8
ﾚｲﾔｰ1
 62
         2
100
AcDbLine
 10
1056.111328125
 20
631.1598937988
 30
0.0
 11
1056.111328125
 21
494.9362983217
 31
0.0
  0
ENDBLK
  5
230
100
AcDbEntity
  8
0
100
AcDbBlockEnd
  0
BLOCK
  5
237
100
AcDbEntity
  8
0
100
AcDbBlockBegin
  2
*D16
 70
         1
 10
0.0
 20
0.0
 30
0.0
  3

  1

  0
TEXT
  5
238
100
AcDbEntity
  8
0
 62
         0
100
AcDbText
 10
789.0874996185
 20
1283.5845909664
 30
0.0
 40
62.970835495
  1
153
 50
90.0
100
AcDbText
  0
LINE
  5
239
100
AcDbEntity
  8
0
 62
         0
100
AcDbLine
 10
665.2
 20
1262.7470928737
 30
0.0
 11
845.2
 21
1262.7470928737
 31
0.0
  0
LINE
  5
23A
100
AcDbEntity
  8
0
 62
         0
100
AcDbLine
 10
665.2
 20
1415.5470928737
 30
0.0
 11
845.2
 21
1415.5470928737
 31
0.0
  0
LINE
  5
23B
100
AcDbEntity
  8
0
 62
         0
100
AcDbLine
 10
815.2
 20
1262.7470928737
 30
0.0
 11
815.2
 21
1431.7512627193
 31
0.0
  0
LINE
  5
23C
100
AcDbEntity
  8
0
 62
         0
100
AcDbLine
 10
815.2
 20
1415.5470928737
 30
0.0
 11
815.2
 21
1431.7512627193
 31
0.0
  0
LINE
  5
23D
100
AcDbEntity
  8
0
 62
         0
100
AcDbLine
 10
815.2
 20
1262.7470928737
 30
0.0
 11
815.2
 21
1246.5429230282
 31
0.0
  0
LINE
  5
23E
100
AcDbEntity
  8
0
 62
         0
100
AcDbLine
 10
815.2
 20
1415.5470928737
 30
0.0
 11
815.2
 21
1246.5429230282
 31
0.0
  0
LINE
  5
23F
100
AcDbEntity
  8
0
 62
         0
100
AcDbLine
 10
815.2
 20
1415.5470928737
 30
0.0
 11
815.2
 21
1490.5470928737
 31
0.0
  0
LINE
  5
240
100
AcDbEntity
  8
0
 62
         0
100
AcDbLine
 10
808.1863743782
 20
1430.5470928737
 30
0.0
 11
815.2
 21
1415.5470928737
 31
0.0
  0
LINE
  5
241
100
AcDbEntity
  8
0
 62
         0
100
AcDbLine
 10
815.2
 20
1415.5470928737
 30
0.0
 11
822.2136256218
 21
1430.5470928737
 31
0.0
  0
LINE
  5
242
100
AcDbEntity
  8
0
 62
         0
100
AcDbLine
 10
815.2
 20
1262.7470928737
 30
0.0
 11
815.2
 21
1187.7470928737
 31
0.0
  0
LINE
  5
243
100
AcDbEntity
  8
0
 62
         0
100
AcDbLine
 10
822.2136256218
 20
1247.7470928737
 30
0.0
 11
815.2
 21
1262.7470928737
 31
0.0
  0
LINE
  5
244
100
AcDbEntity
  8
0
 62
         0
100
AcDbLine
 10
815.2
 20
1262.7470928737
 30
0.0
 11
808.1863743782
 21
1247.7470928737
 31
0.0
  0
ENDBLK
  5
245
100
AcDbEntity
  8
0
100
AcDbBlockEnd
  0
BLOCK
  5
249
100
AcDbEntity
  8
0
100
AcDbBlockBegin
  2
*D17
 70
         1
 10
0.0
 20
0.0
 30
0.0
  3

  1

  0
TEXT
  5
24A
100
AcDbEntity
  8
0
 62
         0
100
AcDbText
 10
2154.6974025726
 20
184.0322883606
 30
0.0
 40
62.970835495
  1
19
 50
90.0
100
AcDbText
  0
LINE
  5
24B
100
AcDbEntity
  8
0
 62
         0
100
AcDbLine
 10
1962.8
 20
173.5739562988
 30
0.0
 11
2210.8099029541
 21
173.5739562988
 31
0.0
  0
LINE
  5
24C
100
AcDbEntity
  8
0
 62
         0
100
AcDbLine
 10
1962.8
 20
268.5739562988
 30
0.0
 11
2210.8099029541
 21
268.5739562988
 31
0.0
  0
LINE
  5
24D
100
AcDbEntity
  8
0
 62
         0
100
AcDbLine
 10
2180.8099029541
 20
173.5739562988
 30
0.0
 11
2180.8099029541
 21
295.1572921753
 31
0.0
  0
LINE
  5
24E
100
AcDbEntity
  8
0
 62
         0
100
AcDbLine
 10
2180.8099029541
 20
268.5739562988
 30
0.0
 11
2180.8099029541
 21
295.1572921753
 31
0.0
  0
LINE
  5
24F
100
AcDbEntity
  8
0
 62
         0
100
AcDbLine
 10
2180.8099029541
 20
173.5739562988
 30
0.0
 11
2180.8099029541
 21
146.9906204224
 31
0.0
  0
LINE
  5
250
100
AcDbEntity
  8
0
 62
         0
100
AcDbLine
 10
2180.8099029541
 20
268.5739562988
 30
0.0
 11
2180.8099029541
 21
146.9906204224
 31
0.0
  0
LINE
  5
251
100
AcDbEntity
  8
0
 62
         0
100
AcDbLine
 10
2180.8099029541
 20
268.5739562988
 30
0.0
 11
2180.8099029541
 21
343.5739562988
 31
0.0
  0
LINE
  5
252
100
AcDbEntity
  8
0
 62
         0
100
AcDbLine
 10
2173.7962773323
 20
283.5739562988
 30
0.0
 11
2180.8099029541
 21
268.5739562988
 31
0.0
  0
LINE
  5
253
100
AcDbEntity
  8
0
 62
         0
100
AcDbLine
 10
2180.8099029541
 20
268.5739562988
 30
0.0
 11
2187.8235285759
 21
283.5739562988
 31
0.0
  0
LINE
  5
254
100
AcDbEntity
  8
0
 62
         0
100
AcDbLine
 10
2180.8099029541
 20
173.5739562988
 30
0.0
 11
2180.8099029541
 21
98.5739562988
 31
0.0
  0
LINE
  5
255
100
AcDbEntity
  8
0
 62
         0
100
AcDbLine
 10
2187.8235285759
 20
158.5739562988
 30
0.0
 11
2180.8099029541
 21
173.5739562988
 31
0.0
  0
LINE
  5
256
100
AcDbEntity
  8
0
 62
         0
100
AcDbLine
 10
2180.8099029541
 20
173.5739562988
 30
0.0
 11
2173.7962773323
 21
158.5739562988
 31
0.0
  0
ENDBLK
  5
257
100
AcDbEntity
  8
0
100
AcDbBlockEnd
  0
BLOCK
  5
271
100
AcDbEntity
  8
0
100
AcDbBlockBegin
  2
CLUMP5
 70
         0
 10
0.0
 20
0.0
 30
0.0
  3

  1

  0
LINE
  5
272
100
AcDbEntity
  8
ﾚｲﾔｰ1
 62
         2
100
AcDbLine
 10
680.2
 20
2961.2465720404
 30
0.0
 11
665.2
 21
2961.2465720404
 31
0.0
  0
LINE
  5
273
100
AcDbEntity
  8
ﾚｲﾔｰ1
 62
         2
100
AcDbLine
 10
680.2
 20
2941.2465720404
 30
0.0
 11
680.2
 21
2961.2465720404
 31
0.0
  0
LINE
  5
274
100
AcDbEntity
  8
ﾚｲﾔｰ1
 62
         2
100
AcDbLine
 10
665.2
 20
2941.2465720404
 30
0.0
 11
680.2
 21
2941.2465720404
 31
0.0
  0
LINE
  5
275
100
AcDbEntity
  8
ﾚｲﾔｰ1
 62
         2
100
AcDbLine
 10
665.2
 20
2961.2465720404
 30
0.0
 11
665.2
 21
2941.2465720404
 31
0.0
  0
LINE
  5
276
100
AcDbEntity
  8
ﾚｲﾔｰ1
 62
         2
100
AcDbLine
 10
665.2
 20
2312.0476137071
 30
0.0
 11
665.2
 21
2332.0476137071
 31
0.0
  0
LINE
  5
277
100
AcDbEntity
  8
ﾚｲﾔｰ1
 62
         2
100
AcDbLine
 10
665.2
 20
2332.0476137071
 30
0.0
 11
680.2
 21
2332.0476137071
 31
0.0
  0
LINE
  5
278
100
AcDbEntity
  8
ﾚｲﾔｰ1
 62
         2
100
AcDbLine
 10
680.2
 20
2332.0476137071
 30
0.0
 11
680.2
 21
2312.0476137071
 31
0.0
  0
LINE
  5
279
100
AcDbEntity
  8
ﾚｲﾔｰ1
 62
         2
100
AcDbLine
 10
680.2
 20
2312.0476137071
 30
0.0
 11
665.2
 21
2312.0476137071
 31
0.0
  0
LINE
  5
27A
100
AcDbEntity
  8
ﾚｲﾔｰ1
 62
         2
100
AcDbLine
 10
680.2
 20
2626.6470928737
 30
0.0
 11
665.2
 21
2626.6470928737
 31
0.0
  0
LINE
  5
27B
100
AcDbEntity
  8
ﾚｲﾔｰ1
 62
         2
100
AcDbLine
 10
680.2
 20
2646.6470928737
 30
0.0
 11
680.2
 21
2626.6470928737
 31
0.0
  0
LINE
  5
27C
100
AcDbEntity
  8
ﾚｲﾔｰ1
 62
         2
100
AcDbLine
 10
665.2
 20
2646.6470928737
 30
0.0
 11
680.2
 21
2646.6470928737
 31
0.0
  0
LINE
  5
27D
100
AcDbEntity
  8
ﾚｲﾔｰ1
 62
         2
100
AcDbLine
 10
665.2
 20
2626.6470928737
 30
0.0
 11
665.2
 21
2646.6470928737
 31
0.0
  0
ENDBLK
  5
27E
100
AcDbEntity
  8
0
100
AcDbBlockEnd
  0
BLOCK
  5
282
100
AcDbEntity
  8
0
100
AcDbBlockBegin
  2
CLUMP6
 70
         0
 10
0.0
 20
0.0
 30
0.0
  3

  1

  0
LINE
  5
283
100
AcDbEntity
  8
ﾚｲﾔｰ1
 62
         2
100
AcDbLine
 10
2395.8
 20
2961.2465720404
 30
0.0
 11
2410.8
 21
2961.2465720404
 31
0.0
  0
LINE
  5
284
100
AcDbEntity
  8
ﾚｲﾔｰ1
 62
         2
100
AcDbLine
 10
2395.8
 20
2941.2465720404
 30
0.0
 11
2395.8
 21
2961.2465720404
 31
0.0
  0
LINE
  5
285
100
AcDbEntity
  8
ﾚｲﾔｰ1
 62
         2
100
AcDbLine
 10
2410.8
 20
2941.2465720404
 30
0.0
 11
2395.8
 21
2941.2465720404
 31
0.0
  0
LINE
  5
286
100
AcDbEntity
  8
ﾚｲﾔｰ1
 62
         2
100
AcDbLine
 10
2410.8
 20
2961.2465720404
 30
0.0
 11
2410.8
 21
2941.2465720404
 31
0.0
  0
LINE
  5
287
100
AcDbEntity
  8
ﾚｲﾔｰ1
 62
         2
100
AcDbLine
 10
2410.8
 20
2312.0476137071
 30
0.0
 11
2410.8
 21
2332.0476137071
 31
0.0
  0
LINE
  5
288
100
AcDbEntity
  8
ﾚｲﾔｰ1
 62
         2
100
AcDbLine
 10
2410.8
 20
2332.0476137071
 30
0.0
 11
2395.8
 21
2332.0476137071
 31
0.0
  0
LINE
  5
289
100
AcDbEntity
  8
ﾚｲﾔｰ1
 62
         2
100
AcDbLine
 10
2395.8
 20
2332.0476137071
 30
0.0
 11
2395.8
 21
2312.0476137071
 31
0.0
  0
LINE
  5
28A
100
AcDbEntity
  8
ﾚｲﾔｰ1
 62
         2
100
AcDbLine
 10
2395.8
 20
2312.0476137071
 30
0.0
 11
2410.8
 21
2312.0476137071
 31
0.0
  0
LINE
  5
28B
100
AcDbEntity
  8
ﾚｲﾔｰ1
 62
         2
100
AcDbLine
 10
2395.8
 20
2626.6470928737
 30
0.0
 11
2410.8
 21
2626.6470928737
 31
0.0
  0
LINE
  5
28C
100
AcDbEntity
  8
ﾚｲﾔｰ1
 62
         2
100
AcDbLine
 10
2395.8
 20
2646.6470928737
 30
0.0
 11
2395.8
 21
2626.6470928737
 31
0.0
  0
LINE
  5
28D
100
AcDbEntity
  8
ﾚｲﾔｰ1
 62
         2
100
AcDbLine
 10
2410.8
 20
2646.6470928737
 30
0.0
 11
2395.8
 21
2646.6470928737
 31
0.0
  0
LINE
  5
28E
100
AcDbEntity
  8
ﾚｲﾔｰ1
 62
         2
100
AcDbLine
 10
2410.8
 20
2626.6470928737
 30
0.0
 11
2410.8
 21
2646.6470928737
 31
0.0
  0
ENDBLK
  5
28F
100
AcDbEntity
  8
0
100
AcDbBlockEnd
  0
BLOCK
  5
296
100
AcDbEntity
  8
0
100
AcDbBlockBegin
  2
CLUMP7
 70
         0
 10
0.0
 20
0.0
 30
0.0
  3

  1

  0
LINE
  5
297
100
AcDbEntity
  8
ﾚｲﾔｰ1
 62
         2
100
AcDbLine
 10
3266.978125
 20
2961.2465720404
 30
0.0
 11
3251.978125
 21
2961.2465720404
 31
0.0
  0
LINE
  5
298
100
AcDbEntity
  8
ﾚｲﾔｰ1
 62
         2
100
AcDbLine
 10
3266.978125
 20
2941.2465720404
 30
0.0
 11
3266.978125
 21
2961.2465720404
 31
0.0
  0
LINE
  5
299
100
AcDbEntity
  8
ﾚｲﾔｰ1
 62
         2
100
AcDbLine
 10
3251.978125
 20
2941.2465720404
 30
0.0
 11
3266.978125
 21
2941.2465720404
 31
0.0
  0
LINE
  5
29A
100
AcDbEntity
  8
ﾚｲﾔｰ1
 62
         2
100
AcDbLine
 10
3251.978125
 20
2961.2465720404
 30
0.0
 11
3251.978125
 21
2941.2465720404
 31
0.0
  0
LINE
  5
29B
100
AcDbEntity
  8
ﾚｲﾔｰ1
 62
         2
100
AcDbLine
 10
3251.978125
 20
2312.0476137071
 30
0.0
 11
3251.978125
 21
2332.0476137071
 31
0.0
  0
LINE
  5
29C
100
AcDbEntity
  8
ﾚｲﾔｰ1
 62
         2
100
AcDbLine
 10
3251.978125
 20
2332.0476137071
 30
0.0
 11
3266.978125
 21
2332.0476137071
 31
0.0
  0
LINE
  5
29D
100
AcDbEntity
  8
ﾚｲﾔｰ1
 62
         2
100
AcDbLine
 10
3266.978125
 20
2332.0476137071
 30
0.0
 11
3266.978125
 21
2312.0476137071
 31
0.0
  0
LINE
  5
29E
100
AcDbEntity
  8
ﾚｲﾔｰ1
 62
         2
100
AcDbLine
 10
3266.978125
 20
2312.0476137071
 30
0.0
 11
3251.978125
 21
2312.0476137071
 31
0.0
  0
LINE
  5
29F
100
AcDbEntity
  8
ﾚｲﾔｰ1
 62
         2
100
AcDbLine
 10
3266.978125
 20
2626.6470928737
 30
0.0
 11
3251.978125
 21
2626.6470928737
 31
0.0
  0
LINE
  5
2A0
100
AcDbEntity
  8
ﾚｲﾔｰ1
 62
         2
100
AcDbLine
 10
3266.978125
 20
2646.6470928737
 30
0.0
 11
3266.978125
 21
2626.6470928737
 31
0.0
  0
LINE
  5
2A1
100
AcDbEntity
  8
ﾚｲﾔｰ1
 62
         2
100
AcDbLine
 10
3251.978125
 20
2646.6470928737
 30
0.0
 11
3266.978125
 21
2646.6470928737
 31
0.0
  0
LINE
  5
2A2
100
AcDbEntity
  8
ﾚｲﾔｰ1
 62
         2
100
AcDbLine
 10
3251.978125
 20
2626.6470928737
 30
0.0
 11
3251.978125
 21
2646.6470928737
 31
0.0
  0
ENDBLK
  5
2A3
100
AcDbEntity
  8
0
100
AcDbBlockEnd
  0
BLOCK
  5
2AC
100
AcDbEntity
  8
0
100
AcDbBlockBegin
  2
CLUMP8
 70
         0
 10
0.0
 20
0.0
 30
0.0
  3

  1

  0
LINE
  5
2AD
100
AcDbEntity
  8
ﾚｲﾔｰ1
 62
         2
100
AcDbLine
 10
4089.778125
 20
2961.2465720404
 30
0.0
 11
4104.778125
 21
2961.2465720404
 31
0.0
  0
LINE
  5
2AE
100
AcDbEntity
  8
ﾚｲﾔｰ1
 62
         2
100
AcDbLine
 10
4089.778125
 20
2941.2465720404
 30
0.0
 11
4089.778125
 21
2961.2465720404
 31
0.0
  0
LINE
  5
2AF
100
AcDbEntity
  8
ﾚｲﾔｰ1
 62
         2
100
AcDbLine
 10
4104.778125
 20
2941.2465720404
 30
0.0
 11
4089.778125
 21
2941.2465720404
 31
0.0
  0
LINE
  5
2B0
100
AcDbEntity
  8
ﾚｲﾔｰ1
 62
         2
100
AcDbLine
 10
4104.778125
 20
2961.2465720404
 30
0.0
 11
4104.778125
 21
2941.2465720404
 31
0.0
  0
LINE
  5
2B1
100
AcDbEntity
  8
ﾚｲﾔｰ1
 62
         2
100
AcDbLine
 10
4104.778125
 20
2312.0476137071
 30
0.0
 11
4104.778125
 21
2332.0476137071
 31
0.0
  0
LINE
  5
2B2
100
AcDbEntity
  8
ﾚｲﾔｰ1
 62
         2
100
AcDbLine
 10
4104.778125
 20
2332.0476137071
 30
0.0
 11
4089.778125
 21
2332.0476137071
 31
0.0
  0
LINE
  5
2B3
100
AcDbEntity
  8
ﾚｲﾔｰ1
 62
         2
100
AcDbLine
 10
4089.778125
 20
2332.0476137071
 30
0.0
 11
4089.778125
 21
2312.0476137071
 31
0.0
  0
LINE
  5
2B4
100
AcDbEntity
  8
ﾚｲﾔｰ1
 62
         2
100
AcDbLine
 10
4089.778125
 20
2312.0476137071
 30
0.0
 11
4104.778125
 21
2312.0476137071
 31
0.0
  0
LINE
  5
2B5
100
AcDbEntity
  8
ﾚｲﾔｰ1
 62
         2
100
AcDbLine
 10
4089.778125
 20
2626.6470928737
 30
0.0
 11
4104.778125
 21
2626.6470928737
 31
0.0
  0
LINE
  5
2B6
100
AcDbEntity
  8
ﾚｲﾔｰ1
 62
         2
100
AcDbLine
 10
4089.778125
 20
2646.6470928737
 30
0.0
 11
4089.778125
 21
2626.6470928737
 31
0.0
  0
LINE
  5
2B7
100
AcDbEntity
  8
ﾚｲﾔｰ1
 62
         2
100
AcDbLine
 10
4104.778125
 20
2646.6470928737
 30
0.0
 11
4089.778125
 21
2646.6470928737
 31
0.0
  0
LINE
  5
2B8
100
AcDbEntity
  8
ﾚｲﾔｰ1
 62
         2
100
AcDbLine
 10
4104.778125
 20
2626.6470928737
 30
0.0
 11
4104.778125
 21
2646.6470928737
 31
0.0
  0
ENDBLK
  5
2B9
100
AcDbEntity
  8
0
100
AcDbBlockEnd
  0
BLOCK
  5
2BD
100
AcDbEntity
  8
0
100
AcDbBlockBegin
  2
*D22
 70
         1
 10
0.0
 20
0.0
 30
0.0
  3

  1

  0
TEXT
  5
2BE
100
AcDbEntity
  8
0
 62
         0
100
AcDbText
 10
721.6804123649
 20
511.6182258606
 30
0.0
 40
62.970835495
  1
33
 50
90.0
100
AcDbText
  0
LINE
  5
2BF
100
AcDbEntity
  8
0
 62
         0
100
AcDbLine
 10
897.7929127464
 20
631.1598937988
 30
0.0
 11
717.7929127464
 21
631.1598937988
 31
0.0
  0
LINE
  5
2C0
100
AcDbEntity
  8
0
 62
         0
100
AcDbLine
 10
1016.111328125
 20
466.1598937988
 30
0.0
 11
717.7929127464
 21
466.1598937988
 31
0.0
  0
LINE
  5
2C1
100
AcDbEntity
  8
0
 62
         0
100
AcDbLine
 10
747.7929127464
 20
631.1598937988
 30
0.0
 11
747.7929127464
 21
622.7432296753
 31
0.0
  0
LINE
  5
2C2
100
AcDbEntity
  8
0
 62
         0
100
AcDbLine
 10
747.7929127464
 20
466.1598937988
 30
0.0
 11
747.7929127464
 21
622.7432296753
 31
0.0
  0
LINE
  5
2C3
100
AcDbEntity
  8
0
 62
         0
100
AcDbLine
 10
747.7929127464
 20
631.1598937988
 30
0.0
 11
747.7929127464
 21
474.5765579224
 31
0.0
  0
LINE
  5
2C4
100
AcDbEntity
  8
0
 62
         0
100
AcDbLine
 10
747.7929127464
 20
466.1598937988
 30
0.0
 11
747.7929127464
 21
474.5765579224
 31
0.0
  0
LINE
  5
2C5
100
AcDbEntity
  8
0
 62
         0
100
AcDbLine
 10
747.7929127464
 20
466.1598937988
 30
0.0
 11
747.7929127464
 21
391.1598937988
 31
0.0
  0
LINE
  5
2C6
100
AcDbEntity
  8
0
 62
         0
100
AcDbLine
 10
754.8065383682
 20
451.1598937988
 30
0.0
 11
747.7929127464
 21
466.1598937988
 31
0.0
  0
LINE
  5
2C7
100
AcDbEntity
  8
0
 62
         0
100
AcDbLine
 10
747.7929127464
 20
466.1598937988
 30
0.0
 11
740.7792871246
 21
451.1598937988
 31
0.0
  0
LINE
  5
2C8
100
AcDbEntity
  8
0
 62
         0
100
AcDbLine
 10
747.7929127464
 20
631.1598937988
 30
0.0
 11
747.7929127464
 21
706.1598937988
 31
0.0
  0
LINE
  5
2C9
100
AcDbEntity
  8
0
 62
         0
100
AcDbLine
 10
740.7792871246
 20
646.1598937988
 30
0.0
 11
747.7929127464
 21
631.1598937988
 31
0.0
  0
LINE
  5
2CA
100
AcDbEntity
  8
0
 62
         0
100
AcDbLine
 10
747.7929127464
 20
631.1598937988
 30
0.0
 11
754.8065383682
 21
646.1598937988
 31
0.0
  0
ENDBLK
  5
2CB
100
AcDbEntity
  8
0
100
AcDbBlockEnd
  0
BLOCK
  5
2CE
100
AcDbEntity
  8
0
100
AcDbBlockBegin
  2
*D23
 70
         1
 10
0.0
 20
0.0
 30
0.0
  3

  1

  0
TEXT
  5
2CF
100
AcDbEntity
  8
0
 62
         0
100
AcDbText
 10
721.6804123649
 20
625.0765579224
 30
0.0
 40
62.970835495
  1
27.2
 50
90.0
100
AcDbText
  0
LINE
  5
2D0
100
AcDbEntity
  8
0
 62
         0
100
AcDbLine
 10
940.2015148969
 20
767.1598937988
 30
0.0
 11
717.7929127464
 21
767.1598937988
 31
0.0
  0
LINE
  5
2D1
100
AcDbEntity
  8
0
 62
         0
100
AcDbLine
 10
897.7929127464
 20
631.1598937988
 30
0.0
 11
717.7929127464
 21
631.1598937988
 31
0.0
  0
LINE
  5
2D2
100
AcDbEntity
  8
0
 62
         0
100
AcDbLine
 10
747.7929127464
 20
767.1598937988
 30
0.0
 11
747.7929127464
 21
810.2848976135
 31
0.0
  0
LINE
  5
2D3
100
AcDbEntity
  8
0
 62
         0
100
AcDbLine
 10
747.7929127464
 20
631.1598937988
 30
0.0
 11
747.7929127464
 21
810.2848976135
 31
0.0
  0
LINE
  5
2D4
100
AcDbEntity
  8
0
 62
         0
100
AcDbLine
 10
747.7929127464
 20
767.1598937988
 30
0.0
 11
747.7929127464
 21
588.0348899841
 31
0.0
  0
LINE
  5
2D5
100
AcDbEntity
  8
0
 62
         0
100
AcDbLine
 10
747.7929127464
 20
631.1598937988
 30
0.0
 11
747.7929127464
 21
588.0348899841
 31
0.0
  0
LINE
  5
2D6
100
AcDbEntity
  8
0
 62
         0
100
AcDbLine
 10
747.7929127464
 20
631.1598937988
 30
0.0
 11
747.7929127464
 21
556.1598937988
 31
0.0
  0
LINE
  5
2D7
100
AcDbEntity
  8
0
 62
         0
100
AcDbLine
 10
754.8065383682
 20
616.1598937988
 30
0.0
 11
747.7929127464
 21
631.1598937988
 31
0.0
  0
LINE
  5
2D8
100
AcDbEntity
  8
0
 62
         0
100
AcDbLine
 10
747.7929127464
 20
631.1598937988
 30
0.0
 11
740.7792871246
 21
616.1598937988
 31
0.0
  0
LINE
  5
2D9
100
AcDbEntity
  8
0
 62
         0
100
AcDbLine
 10
747.7929127464
 20
767.1598937988
 30
0.0
 11
747.7929127464
 21
842.1598937988
 31
0.0
  0
LINE
  5
2DA
100
AcDbEntity
  8
0
 62
         0
100
AcDbLine
 10
740.7792871246
 20
782.1598937988
 30
0.0
 11
747.7929127464
 21
767.1598937988
 31
0.0
  0
LINE
  5
2DB
100
AcDbEntity
  8
0
 62
         0
100
AcDbLine
 10
747.7929127464
 20
767.1598937988
 30
0.0
 11
754.8065383682
 21
782.1598937988
 31
0.0
  0
ENDBLK
  5
2DC
100
AcDbEntity
  8
0
100
AcDbBlockEnd
  0
BLOCK
  5
2EE
100
AcDbEntity
  8
0
100
AcDbBlockBegin
  2
*D24
 70
         1
 10
0.0
 20
0.0
 30
0.0
  3

  1

  0
TEXT
  5
2EF
100
AcDbEntity
  8
0
 62
         0
100
AcDbText
 10
4050.6947891235
 20
1138.8595932552
 30
0.0
 40
62.970835495
  1
1800
100
AcDbText
  0
LINE
  5
2F0
100
AcDbEntity
  8
0
 62
         0
100
AcDbLine
 10
3224.778125
 20
1262.7470928737
 30
0.0
 11
3224.778125
 21
1082.7470928737
 31
0.0
  0
LINE
  5
2F1
100
AcDbEntity
  8
0
 62
         0
100
AcDbLine
 10
5024.778125
 20
1262.7470928737
 30
0.0
 11
5024.778125
 21
1082.7470928737
 31
0.0
  0
LINE
  5
2F2
100
AcDbEntity
  8
0
 62
         0
100
AcDbLine
 10
3224.778125
 20
1112.7470928737
 30
0.0
 11
4235.9031288147
 21
1112.7470928737
 31
0.0
  0
LINE
  5
2F3
100
AcDbEntity
  8
0
 62
         0
100
AcDbLine
 10
5024.778125
 20
1112.7470928737
 30
0.0
 11
4235.9031288147
 21
1112.7470928737
 31
0.0
  0
LINE
  5
2F4
100
AcDbEntity
  8
0
 62
         0
100
AcDbLine
 10
3224.778125
 20
1112.7470928737
 30
0.0
 11
4013.6531211853
 21
1112.7470928737
 31
0.0
  0
LINE
  5
2F5
100
AcDbEntity
  8
0
 62
         0
100
AcDbLine
 10
5024.778125
 20
1112.7470928737
 30
0.0
 11
4013.6531211853
 21
1112.7470928737
 31
0.0
  0
LINE
  5
2F6
100
AcDbEntity
  8
0
 62
         0
100
AcDbLine
 10
5024.778125
 20
1112.7470928737
 30
0.0
 11
4949.778125
 21
1112.7470928737
 31
0.0
  0
LINE
  5
2F7
100
AcDbEntity
  8
0
 62
         0
100
AcDbLine
 10
5009.778125
 20
1105.7334672519
 30
0.0
 11
5024.778125
 21
1112.7470928737
 31
0.0
  0
LINE
  5
2F8
100
AcDbEntity
  8
0
 62
         0
100
AcDbLine
 10
5024.778125
 20
1112.7470928737
 30
0.0
 11
5009.778125
 21
1119.7607184955
 31
0.0
  0
LINE
  5
2F9
100
AcDbEntity
  8
0
 62
         0
100
AcDbLine
 10
3224.778125
 20
1112.7470928737
 30
0.0
 11
3299.778125
 21
1112.7470928737
 31
0.0
  0
LINE
  5
2FA
100
AcDbEntity
  8
0
 62
         0
100
AcDbLine
 10
3239.778125
 20
1119.7607184955
 30
0.0
 11
3224.778125
 21
1112.7470928737
 31
0.0
  0
LINE
  5
2FB
100
AcDbEntity
  8
0
 62
         0
100
AcDbLine
 10
3224.778125
 20
1112.7470928737
 30
0.0
 11
3239.778125
 21
1105.7334672519
 31
0.0
  0
ENDBLK
  5
2FC
100
AcDbEntity
  8
0
100
AcDbBlockEnd
  0
BLOCK
  5
309
100
AcDbEntity
  8
0
100
AcDbBlockBegin
  2
CLUMP9
 70
         0
 10
0.0
 20
0.0
 30
0.0
  3

  1

  0
LINE
  5
30A
100
AcDbEntity
  8
ﾚｲﾔｰ1
 62
         2
100
AcDbLine
 10
1151.111328125
 20
767.1598937988
 30
0.0
 11
1056.111328125
 21
767.1598937988
 31
0.0
  0
LINE
  5
30B
100
AcDbEntity
  8
ﾚｲﾔｰ1
  6
BORDER
 62
         3
100
AcDbLine
 10
1103.611328125
 20
829.5851867676
 30
0.0
 11
1103.611328125
 21
904.7346008301
 31
0.0
  0
LINE
  5
30C
100
AcDbEntity
  8
ﾚｲﾔｰ1
  6
BORDER
 62
         3
100
AcDbLine
 10
1069.1288859049
 20
867.1598937988
 30
0.0
 11
1138.093770345
 21
867.1598937988
 31
0.0
  0
CIRCLE
  5
30D
100
AcDbEntity
  8
ﾚｲﾔｰ1
100
AcDbCircle
 10
-1103.611328125
 20
867.1598937988
 30
0.0
 40
25.0
210
0.0
220
0.0
230
-1.0
  0
ARC
  5
30E
100
AcDbEntity
  8
ﾚｲﾔｰ1
100
AcDbCircle
 10
1103.611328125
 20
828.383489276
 30
0.0
 40
88.7764045228
210
0.0
220
0.0
230
1.0
100
AcDbArc
 50
57.6525565006
 51
122.3474434994
  0
LINE
  5
30F
100
AcDbEntity
  8
ﾚｲﾔｰ1
 62
         2
100
AcDbLine
 10
1151.111328125
 20
767.1598937988
 30
0.0
 11
1151.111328125
 21
903.383489276
 31
0.0
  0
LINE
  5
310
100
AcDbEntity
  8
ﾚｲﾔｰ1
 62
         2
100
AcDbLine
 10
1056.111328125
 20
767.1598937988
 30
0.0
 11
1056.111328125
 21
903.383489276
 31
0.0
  0
ENDBLK
  5
311
100
AcDbEntity
  8
0
100
AcDbBlockEnd
  0
BLOCK
  5
31A
100
AcDbEntity
  8
0
100
AcDbBlockBegin
  2
*D26
 70
         1
 10
0.0
 20
0.0
 30
0.0
  3

  1

  0
TEXT
  5
31B
100
AcDbEntity
  8
0
 62
         0
100
AcDbText
 10
1463.9166641235
 20
1138.8595932552
 30
0.0
 40
62.970835495
  1
1800
100
AcDbText
  0
LINE
  5
31C
100
AcDbEntity
  8
0
 62
         0
100
AcDbLine
 10
638.0
 20
1262.7470928737
 30
0.0
 11
638.0
 21
1082.7470928737
 31
0.0
  0
LINE
  5
31D
100
AcDbEntity
  8
0
 62
         0
100
AcDbLine
 10
2438.0
 20
1262.7470928737
 30
0.0
 11
2438.0
 21
1082.7470928737
 31
0.0
  0
LINE
  5
31E
100
AcDbEntity
  8
0
 62
         0
100
AcDbLine
 10
638.0
 20
1112.7470928737
 30
0.0
 11
1649.1250038147
 21
1112.7470928737
 31
0.0
  0
LINE
  5
31F
100
AcDbEntity
  8
0
 62
         0
100
AcDbLine
 10
2438.0
 20
1112.7470928737
 30
0.0
 11
1649.1250038147
 21
1112.7470928737
 31
0.0
  0
LINE
  5
320
100
AcDbEntity
  8
0
 62
         0
100
AcDbLine
 10
638.0
 20
1112.7470928737
 30
0.0
 11
1426.8749961853
 21
1112.7470928737
 31
0.0
  0
LINE
  5
321
100
AcDbEntity
  8
0
 62
         0
100
AcDbLine
 10
2438.0
 20
1112.7470928737
 30
0.0
 11
1426.8749961853
 21
1112.7470928737
 31
0.0
  0
LINE
  5
322
100
AcDbEntity
  8
0
 62
         0
100
AcDbLine
 10
2438.0
 20
1112.7470928737
 30
0.0
 11
2363.0
 21
1112.7470928737
 31
0.0
  0
LINE
  5
323
100
AcDbEntity
  8
0
 62
         0
100
AcDbLine
 10
2423.0
 20
1105.7334672519
 30
0.0
 11
2438.0
 21
1112.7470928737
 31
0.0
  0
LINE
  5
324
100
AcDbEntity
  8
0
 62
         0
100
AcDbLine
 10
2438.0
 20
1112.7470928737
 30
0.0
 11
2423.0
 21
1119.7607184955
 31
0.0
  0
LINE
  5
325
100
AcDbEntity
  8
0
 62
         0
100
AcDbLine
 10
638.0
 20
1112.7470928737
 30
0.0
 11
713.0
 21
1112.7470928737
 31
0.0
  0
LINE
  5
326
100
AcDbEntity
  8
0
 62
         0
100
AcDbLine
 10
653.0
 20
1119.7607184955
 30
0.0
 11
638.0
 21
1112.7470928737
 31
0.0
  0
LINE
  5
327
100
AcDbEntity
  8
0
 62
         0
100
AcDbLine
 10
638.0
 20
1112.7470928737
 30
0.0
 11
653.0
 21
1105.7334672519
 31
0.0
  0
ENDBLK
  5
328
100
AcDbEntity
  8
0
100
AcDbBlockEnd
  0
BLOCK
  5
32C
100
AcDbEntity
  8
0
100
AcDbBlockBegin
  2
CLUMP10
 70
         0
 10
0.0
 20
0.0
 30
0.0
  3

  1

  0
CIRCLE
  5
32D
100
AcDbEntity
  8
ﾚｲﾔｰ1
100
AcDbCircle
 10
1103.611328125
 20
872.1598937988
 30
0.0
 40
32.5
210
0.0
220
0.0
230
1.0
  0
LINE
  5
32E
100
AcDbEntity
  8
ﾚｲﾔｰ1
  6
BORDER
 62
         3
100
AcDbLine
 10
1141.1860351563
 20
872.1598937988
 30
0.0
 11
1066.0366210937
 21
872.1598937988
 31
0.0
  0
LINE
  5
32F
100
AcDbEntity
  8
ﾚｲﾔｰ1
  6
BORDER
 62
         3
100
AcDbLine
 10
1103.611328125
 20
906.6423360189
 30
0.0
 11
1103.611328125
 21
837.6774515788
 31
0.0
  0
LINE
  5
330
100
AcDbEntity
  8
ﾚｲﾔｰ1
 62
         2
100
AcDbLine
 10
1001.111328125
 20
767.1598937988
 30
0.0
 11
1001.111328125
 21
917.1598937988
 31
0.0
  0
LINE
  5
331
100
AcDbEntity
  8
ﾚｲﾔｰ1
 62
         2
100
AcDbLine
 10
1051.111328125
 20
767.1598937988
 30
0.0
 11
1001.111328125
 21
767.1598937988
 31
0.0
  0
LINE
  5
332
100
AcDbEntity
  8
ﾚｲﾔｰ1
 62
         2
100
AcDbLine
 10
1051.111328125
 20
767.1598937988
 30
0.0
 11
1051.111328125
 21
812.1598937988
 31
0.0
  0
LINE
  5
333
100
AcDbEntity
  8
ﾚｲﾔｰ1
 62
         2
100
AcDbLine
 10
1136.111328125
 20
812.1598937988
 30
0.0
 11
1051.111328125
 21
812.1598937988
 31
0.0
  0
LINE
  5
334
100
AcDbEntity
  8
ﾚｲﾔｰ1
100
AcDbLine
 10
1016.111328125
 20
932.1598937988
 30
0.0
 11
1001.111328125
 21
917.1598937988
 31
0.0
  0
LINE
  5
335
100
AcDbEntity
  8
ﾚｲﾔｰ1
 62
         2
100
AcDbLine
 10
1136.111328125
 20
932.1598937988
 30
0.0
 11
1016.111328125
 21
932.1598937988
 31
0.0
  0
LINE
  5
336
100
AcDbEntity
  8
ﾚｲﾔｰ1
100
AcDbLine
 10
1151.111328125
 20
827.1598937988
 30
0.0
 11
1136.111328125
 21
812.1598937988
 31
0.0
  0
LINE
  5
337
100
AcDbEntity
  8
ﾚｲﾔｰ1
 62
         2
100
AcDbLine
 10
1151.111328125
 20
827.1598937988
 30
0.0
 11
1151.111328125
 21
917.1598937988
 31
0.0
  0
LINE
  5
338
100
AcDbEntity
  8
ﾚｲﾔｰ1
100
AcDbLine
 10
1151.111328125
 20
917.1598937988
 30
0.0
 11
1136.111328125
 21
932.1598937988
 31
0.0
  0
ENDBLK
  5
339
100
AcDbEntity
  8
0
100
AcDbBlockEnd
  0
BLOCK
  5
340
100
AcDbEntity
  8
0
100
AcDbBlockBegin
  2
CLUMP11
 70
         0
 10
0.0
 20
0.0
 30
0.0
  3

  1

  0
CIRCLE
  5
341
100
AcDbEntity
  8
ﾚｲﾔｰ1
100
AcDbCircle
 10
-1103.611328125
 20
526.1598937988
 30
0.0
 40
32.5
210
0.0
220
0.0
230
-1.0
  0
LINE
  5
342
100
AcDbEntity
  8
ﾚｲﾔｰ1
  6
BORDER
 62
         3
100
AcDbLine
 10
1141.1860351563
 20
526.1598937988
 30
0.0
 11
1066.0366210937
 21
526.1598937988
 31
0.0
  0
LINE
  5
343
100
AcDbEntity
  8
ﾚｲﾔｰ1
  6
BORDER
 62
         3
100
AcDbLine
 10
1103.611328125
 20
491.6774515788
 30
0.0
 11
1103.611328125
 21
560.6423360189
 31
0.0
  0
LINE
  5
344
100
AcDbEntity
  8
ﾚｲﾔｰ1
 62
         2
100
AcDbLine
 10
1001.111328125
 20
631.1598937988
 30
0.0
 11
1001.111328125
 21
481.1598937988
 31
0.0
  0
LINE
  5
345
100
AcDbEntity
  8
ﾚｲﾔｰ1
 62
         2
100
AcDbLine
 10
1051.111328125
 20
631.1598937988
 30
0.0
 11
1001.111328125
 21
631.1598937988
 31
0.0
  0
LINE
  5
346
100
AcDbEntity
  8
ﾚｲﾔｰ1
 62
         2
100
AcDbLine
 10
1051.111328125
 20
631.1598937988
 30
0.0
 11
1051.111328125
 21
586.1598937988
 31
0.0
  0
LINE
  5
347
100
AcDbEntity
  8
ﾚｲﾔｰ1
 62
         2
100
AcDbLine
 10
1136.111328125
 20
586.1598937988
 30
0.0
 11
1051.111328125
 21
586.1598937988
 31
0.0
  0
LINE
  5
348
100
AcDbEntity
  8
ﾚｲﾔｰ1
100
AcDbLine
 10
1016.111328125
 20
466.1598937988
 30
0.0
 11
1001.111328125
 21
481.1598937988
 31
0.0
  0
LINE
  5
349
100
AcDbEntity
  8
ﾚｲﾔｰ1
 62
         2
100
AcDbLine
 10
1136.111328125
 20
466.1598937988
 30
0.0
 11
1016.111328125
 21
466.1598937988
 31
0.0
  0
LINE
  5
34A
100
AcDbEntity
  8
ﾚｲﾔｰ1
100
AcDbLine
 10
1151.111328125
 20
571.1598937988
 30
0.0
 11
1136.111328125
 21
586.1598937988
 31
0.0
  0
LINE
  5
34B
100
AcDbEntity
  8
ﾚｲﾔｰ1
 62
         2
100
AcDbLine
 10
1151.111328125
 20
571.1598937988
 30
0.0
 11
1151.111328125
 21
481.1598937988
 31
0.0
  0
LINE
  5
34C
100
AcDbEntity
  8
ﾚｲﾔｰ1
100
AcDbLine
 10
1151.111328125
 20
481.1598937988
 30
0.0
 11
1136.111328125
 21
466.1598937988
 31
0.0
  0
ENDBLK
  5
34D
100
AcDbEntity
  8
0
100
AcDbBlockEnd
  0
BLOCK
  5
350
100
AcDbEntity
  8
0
100
AcDbBlockBegin
  2
*D29
 70
         1
 10
0.0
 20
0.0
 30
0.0
  3

  1

  0
TEXT
  5
351
100
AcDbEntity
  8
0
 62
         0
100
AcDbText
 10
1039.0696601868
 20
275.759759903
 30
0.0
 40
62.970835495
  1
30
100
AcDbText
  0
LINE
  5
352
100
AcDbEntity
  8
0
 62
         0
100
AcDbLine
 10
1001.111328125
 20
481.1598937988
 30
0.0
 11
1001.111328125
 21
219.6472595215
 31
0.0
  0
LINE
  5
353
100
AcDbEntity
  8
0
 62
         0
100
AcDbLine
 10
1151.111328125
 20
481.1598937988
 30
0.0
 11
1151.111328125
 21
219.6472595215
 31
0.0
  0
LINE
  5
354
100
AcDbEntity
  8
0
 62
         0
100
AcDbLine
 10
1001.111328125
 20
249.6472595215
 30
0.0
 11
1150.1946640015
 21
249.6472595215
 31
0.0
  0
LINE
  5
355
100
AcDbEntity
  8
0
 62
         0
100
AcDbLine
 10
1151.111328125
 20
249.6472595215
 30
0.0
 11
1150.1946640015
 21
249.6472595215
 31
0.0
  0
LINE
  5
356
100
AcDbEntity
  8
0
 62
         0
100
AcDbLine
 10
1001.111328125
 20
249.6472595215
 30
0.0
 11
1002.0279922485
 21
249.6472595215
 31
0.0
  0
LINE
  5
357
100
AcDbEntity
  8
0
 62
         0
100
AcDbLine
 10
1151.111328125
 20
249.6472595215
 30
0.0
 11
1002.0279922485
 21
249.6472595215
 31
0.0
  0
LINE
  5
358
100
AcDbEntity
  8
0
 62
         0
100
AcDbLine
 10
1151.111328125
 20
249.6472595215
 30
0.0
 11
1226.111328125
 21
249.6472595215
 31
0.0
  0
LINE
  5
359
100
AcDbEntity
  8
0
 62
         0
100
AcDbLine
 10
1166.111328125
 20
256.6608851433
 30
0.0
 11
1151.111328125
 21
249.6472595215
 31
0.0
  0
LINE
  5
35A
100
AcDbEntity
  8
0
 62
         0
100
AcDbLine
 10
1151.111328125
 20
249.6472595215
 30
0.0
 11
1166.111328125
 21
242.6336338997
 31
0.0
  0
LINE
  5
35B
100
AcDbEntity
  8
0
 62
         0
100
AcDbLine
 10
1001.111328125
 20
249.6472595215
 30
0.0
 11
926.111328125
 21
249.6472595215
 31
0.0
  0
LINE
  5
35C
100
AcDbEntity
  8
0
 62
         0
100
AcDbLine
 10
986.111328125
 20
242.6336338997
 30
0.0
 11
1001.111328125
 21
249.6472595215
 31
0.0
  0
LINE
  5
35D
100
AcDbEntity
  8
0
 62
         0
100
AcDbLine
 10
1001.111328125
 20
249.6472595215
 30
0.0
 11
986.111328125
 21
256.6608851433
 31
0.0
  0
ENDBLK
  5
35E
100
AcDbEntity
  8
0
100
AcDbBlockEnd
  0
BLOCK
  5
378
100
AcDbEntity
  8
0
100
AcDbBlockBegin
  2
CLUMP12
 70
         0
 10
0.0
 20
0.0
 30
0.0
  3

  1

  0
LINE
  5
379
100
AcDbEntity
  8
ﾚｲﾔｰ1
 62
         2
100
AcDbLine
 10
3266.978125
 20
2156.2465720404
 30
0.0
 11
3251.978125
 21
2156.2465720404
 31
0.0
  0
LINE
  5
37A
100
AcDbEntity
  8
ﾚｲﾔｰ1
 62
         2
100
AcDbLine
 10
3266.978125
 20
2136.2465720404
 30
0.0
 11
3266.978125
 21
2156.2465720404
 31
0.0
  0
LINE
  5
37B
100
AcDbEntity
  8
ﾚｲﾔｰ1
 62
         2
100
AcDbLine
 10
3251.978125
 20
2136.2465720404
 30
0.0
 11
3266.978125
 21
2136.2465720404
 31
0.0
  0
LINE
  5
37C
100
AcDbEntity
  8
ﾚｲﾔｰ1
 62
         2
100
AcDbLine
 10
3251.978125
 20
2156.2465720404
 30
0.0
 11
3251.978125
 21
2136.2465720404
 31
0.0
  0
LINE
  5
37D
100
AcDbEntity
  8
ﾚｲﾔｰ1
 62
         2
100
AcDbLine
 10
3251.978125
 20
1507.0476137071
 30
0.0
 11
3251.978125
 21
1527.0476137071
 31
0.0
  0
LINE
  5
37E
100
AcDbEntity
  8
ﾚｲﾔｰ1
 62
         2
100
AcDbLine
 10
3251.978125
 20
1527.0476137071
 30
0.0
 11
3266.978125
 21
1527.0476137071
 31
0.0
  0
LINE
  5
37F
100
AcDbEntity
  8
ﾚｲﾔｰ1
 62
         2
100
AcDbLine
 10
3266.978125
 20
1527.0476137071
 30
0.0
 11
3266.978125
 21
1507.0476137071
 31
0.0
  0
LINE
  5
380
100
AcDbEntity
  8
ﾚｲﾔｰ1
 62
         2
100
AcDbLine
 10
3266.978125
 20
1507.0476137071
 30
0.0
 11
3251.978125
 21
1507.0476137071
 31
0.0
  0
LINE
  5
381
100
AcDbEntity
  8
ﾚｲﾔｰ1
 62
         2
100
AcDbLine
 10
3266.978125
 20
1821.6470928737
 30
0.0
 11
3251.978125
 21
1821.6470928737
 31
0.0
  0
LINE
  5
382
100
AcDbEntity
  8
ﾚｲﾔｰ1
 62
         2
100
AcDbLine
 10
3266.978125
 20
1841.6470928737
 30
0.0
 11
3266.978125
 21
1821.6470928737
 31
0.0
  0
LINE
  5
383
100
AcDbEntity
  8
ﾚｲﾔｰ1
 62
         2
100
AcDbLine
 10
3251.978125
 20
1841.6470928737
 30
0.0
 11
3266.978125
 21
1841.6470928737
 31
0.0
  0
LINE
  5
384
100
AcDbEntity
  8
ﾚｲﾔｰ1
 62
         2
100
AcDbLine
 10
3251.978125
 20
1821.6470928737
 30
0.0
 11
3251.978125
 21
1841.6470928737
 31
0.0
  0
ENDBLK
  5
385
100
AcDbEntity
  8
0
100
AcDbBlockEnd
  0
BLOCK
  5
38C
100
AcDbEntity
  8
0
100
AcDbBlockBegin
  2
*D31
 70
         1
 10
0.0
 20
0.0
 30
0.0
  3

  1

  0
TEXT
  5
38D
100
AcDbEntity
  8
0
 62
         0
100
AcDbText
 10
5353.7869930267
 20
2088.6637569973
 30
0.0
 40
62.970835495
  1
1800
 50
90.0
100
AcDbText
  0
LINE
  5
38E
100
AcDbEntity
  8
0
 62
         0
100
AcDbLine
 10
5024.778125
 20
1262.7470928737
 30
0.0
 11
5409.8994934082
 21
1262.7470928737
 31
0.0
  0
LINE
  5
38F
100
AcDbEntity
  8
0
 62
         0
100
AcDbLine
 10
5024.778125
 20
3062.7470928737
 30
0.0
 11
5409.8994934082
 21
3062.7470928737
 31
0.0
  0
LINE
  5
390
100
AcDbEntity
  8
0
 62
         0
100
AcDbLine
 10
5379.8994934082
 20
1262.7470928737
 30
0.0
 11
5379.8994934082
 21
2273.8720966884
 31
0.0
  0
LINE
  5
391
100
AcDbEntity
  8
0
 62
         0
100
AcDbLine
 10
5379.8994934082
 20
3062.7470928737
 30
0.0
 11
5379.8994934082
 21
2273.8720966884
 31
0.0
  0
LINE
  5
392
100
AcDbEntity
  8
0
 62
         0
100
AcDbLine
 10
5379.8994934082
 20
1262.7470928737
 30
0.0
 11
5379.8994934082
 21
2051.622089059
 31
0.0
  0
LINE
  5
393
100
AcDbEntity
  8
0
 62
         0
100
AcDbLine
 10
5379.8994934082
 20
3062.7470928737
 30
0.0
 11
5379.8994934082
 21
2051.622089059
 31
0.0
  0
LINE
  5
394
100
AcDbEntity
  8
0
 62
         0
100
AcDbLine
 10
5379.8994934082
 20
3062.7470928737
 30
0.0
 11
5379.8994934082
 21
2987.7470928737
 31
0.0
  0
LINE
  5
395
100
AcDbEntity
  8
0
 62
         0
100
AcDbLine
 10
5386.91311903
 20
3047.7470928737
 30
0.0
 11
5379.8994934082
 21
3062.7470928737
 31
0.0
  0
LINE
  5
396
100
AcDbEntity
  8
0
 62
         0
100
AcDbLine
 10
5379.8994934082
 20
3062.7470928737
 30
0.0
 11
5372.8858677864
 21
3047.7470928737
 31
0.0
  0
LINE
  5
397
100
AcDbEntity
  8
0
 62
         0
100
AcDbLine
 10
5379.8994934082
 20
1262.7470928737
 30
0.0
 11
5379.8994934082
 21
1337.7470928737
 31
0.0
  0
LINE
  5
398
100
AcDbEntity
  8
0
 62
         0
100
AcDbLine
 10
5372.8858677864
 20
1277.7470928737
 30
0.0
 11
5379.8994934082
 21
1262.7470928737
 31
0.0
  0
LINE
  5
399
100
AcDbEntity
  8
0
 62
         0
100
AcDbLine
 10
5379.8994934082
 20
1262.7470928737
 30
0.0
 11
5386.91311903
 21
1277.7470928737
 31
0.0
  0
ENDBLK
  5
39A
100
AcDbEntity
  8
0
100
AcDbBlockEnd
  0
BLOCK
  5
39D
100
AcDbEntity
  8
0
100
AcDbBlockBegin
  2
*D32
 70
         1
 10
0.0
 20
0.0
 30
0.0
  3

  1

  0
TEXT
  5
39E
100
AcDbEntity
  8
0
 62
         0
100
AcDbText
 10
5197.1536434174
 20
2160.0637569973
 30
0.0
 40
62.970835495
  1
1580
 50
90.0
100
AcDbText
  0
LINE
  5
39F
100
AcDbEntity
  8
0
 62
         0
100
AcDbLine
 10
4997.578125
 20
1442.7470928737
 30
0.0
 11
5253.2661437988
 21
1442.7470928737
 31
0.0
  0
LINE
  5
3A0
100
AcDbEntity
  8
0
 62
         0
100
AcDbLine
 10
4997.578125
 20
3025.5470928737
 30
0.0
 11
5253.2661437988
 21
3025.5470928737
 31
0.0
  0
LINE
  5
3A1
100
AcDbEntity
  8
0
 62
         0
100
AcDbLine
 10
5223.2661437988
 20
1442.7470928737
 30
0.0
 11
5223.2661437988
 21
2345.2720966884
 31
0.0
  0
LINE
  5
3A2
100
AcDbEntity
  8
0
 62
         0
100
AcDbLine
 10
5223.2661437988
 20
3025.5470928737
 30
0.0
 11
5223.2661437988
 21
2345.2720966884
 31
0.0
  0
LINE
  5
3A3
100
AcDbEntity
  8
0
 62
         0
100
AcDbLine
 10
5223.2661437988
 20
1442.7470928737
 30
0.0
 11
5223.2661437988
 21
2123.022089059
 31
0.0
  0
LINE
  5
3A4
100
AcDbEntity
  8
0
 62
         0
100
AcDbLine
 10
5223.2661437988
 20
3025.5470928737
 30
0.0
 11
5223.2661437988
 21
2123.022089059
 31
0.0
  0
LINE
  5
3A5
100
AcDbEntity
  8
0
 62
         0
100
AcDbLine
 10
5223.2661437988
 20
3025.5470928737
 30
0.0
 11
5223.2661437988
 21
2950.5470928737
 31
0.0
  0
LINE
  5
3A6
100
AcDbEntity
  8
0
 62
         0
100
AcDbLine
 10
5230.2797694206
 20
3010.5470928737
 30
0.0
 11
5223.2661437988
 21
3025.5470928737
 31
0.0
  0
LINE
  5
3A7
100
AcDbEntity
  8
0
 62
         0
100
AcDbLine
 10
5223.2661437988
 20
3025.5470928737
 30
0.0
 11
5216.252518177
 21
3010.5470928737
 31
0.0
  0
LINE
  5
3A8
100
AcDbEntity
  8
0
 62
         0
100
AcDbLine
 10
5223.2661437988
 20
1442.7470928737
 30
0.0
 11
5223.2661437988
 21
1517.7470928737
 31
0.0
  0
LINE
  5
3A9
100
AcDbEntity
  8
0
 62
         0
100
AcDbLine
 10
5216.252518177
 20
1457.7470928737
 30
0.0
 11
5223.2661437988
 21
1442.7470928737
 31
0.0
  0
LINE
  5
3AA
100
AcDbEntity
  8
0
 62
         0
100
AcDbLine
 10
5223.2661437988
 20
1442.7470928737
 30
0.0
 11
5230.2797694206
 21
1457.7470928737
 31
0.0
  0
ENDBLK
  5
3AB
100
AcDbEntity
  8
0
100
AcDbBlockEnd
  0
BLOCK
  5
3B2
100
AcDbEntity
  8
0
100
AcDbBlockBegin
  2
CLUMP13
 70
         0
 10
0.0
 20
0.0
 30
0.0
  3

  1

  0
LINE
  5
3B3
100
AcDbEntity
  8
ﾚｲﾔｰ1
 62
         2
100
AcDbLine
 10
4089.778125
 20
2156.2465720404
 30
0.0
 11
4104.778125
 21
2156.2465720404
 31
0.0
  0
LINE
  5
3B4
100
AcDbEntity
  8
ﾚｲﾔｰ1
 62
         2
100
AcDbLine
 10
4089.778125
 20
2136.2465720404
 30
0.0
 11
4089.778125
 21
2156.2465720404
 31
0.0
  0
LINE
  5
3B5
100
AcDbEntity
  8
ﾚｲﾔｰ1
 62
         2
100
AcDbLine
 10
4104.778125
 20
2136.2465720404
 30
0.0
 11
4089.778125
 21
2136.2465720404
 31
0.0
  0
LINE
  5
3B6
100
AcDbEntity
  8
ﾚｲﾔｰ1
 62
         2
100
AcDbLine
 10
4104.778125
 20
2156.2465720404
 30
0.0
 11
4104.778125
 21
2136.2465720404
 31
0.0
  0
LINE
  5
3B7
100
AcDbEntity
  8
ﾚｲﾔｰ1
 62
         2
100
AcDbLine
 10
4104.778125
 20
1507.0476137071
 30
0.0
 11
4104.778125
 21
1527.0476137071
 31
0.0
  0
LINE
  5
3B8
100
AcDbEntity
  8
ﾚｲﾔｰ1
 62
         2
100
AcDbLine
 10
4104.778125
 20
1527.0476137071
 30
0.0
 11
4089.778125
 21
1527.0476137071
 31
0.0
  0
LINE
  5
3B9
100
AcDbEntity
  8
ﾚｲﾔｰ1
 62
         2
100
AcDbLine
 10
4089.778125
 20
1527.0476137071
 30
0.0
 11
4089.778125
 21
1507.0476137071
 31
0.0
  0
LINE
  5
3BA
100
AcDbEntity
  8
ﾚｲﾔｰ1
 62
         2
100
AcDbLine
 10
4089.778125
 20
1507.0476137071
 30
0.0
 11
4104.778125
 21
1507.0476137071
 31
0.0
  0
LINE
  5
3BB
100
AcDbEntity
  8
ﾚｲﾔｰ1
 62
         2
100
AcDbLine
 10
4089.778125
 20
1821.6470928737
 30
0.0
 11
4104.778125
 21
1821.6470928737
 31
0.0
  0
LINE
  5
3BC
100
AcDbEntity
  8
ﾚｲﾔｰ1
 62
         2
100
AcDbLine
 10
4089.778125
 20
1841.6470928737
 30
0.0
 11
4089.778125
 21
1821.6470928737
 31
0.0
  0
LINE
  5
3BD
100
AcDbEntity
  8
ﾚｲﾔｰ1
 62
         2
100
AcDbLine
 10
4104.778125
 20
1841.6470928737
 30
0.0
 11
4089.778125
 21
1841.6470928737
 31
0.0
  0
LINE
  5
3BE
100
AcDbEntity
  8
ﾚｲﾔｰ1
 62
         2
100
AcDbLine
 10
4104.778125
 20
1821.6470928737
 30
0.0
 11
4104.778125
 21
1841.6470928737
 31
0.0
  0
ENDBLK
  5
3BF
100
AcDbEntity
  8
0
100
AcDbBlockEnd
  0
BLOCK
  5
3C7
100
AcDbEntity
  8
0
100
AcDbBlockBegin
  2
*D34
 70
         1
 10
0.0
 20
0.0
 30
0.0
  3

  1

  0
TEXT
  5
3C8
100
AcDbEntity
  8
0
 62
         0
100
AcDbText
 10
2561.8874996185
 20
2088.6637569973
 30
0.0
 40
62.970835495
  1
1800
 50
90.0
100
AcDbText
  0
LINE
  5
3C9
100
AcDbEntity
  8
0
 62
         0
100
AcDbLine
 10
2438.0
 20
1262.7470928737
 30
0.0
 11
2618.0
 21
1262.7470928737
 31
0.0
  0
LINE
  5
3CA
100
AcDbEntity
  8
0
 62
         0
100
AcDbLine
 10
2438.0
 20
3062.7470928737
 30
0.0
 11
2618.0
 21
3062.7470928737
 31
0.0
  0
LINE
  5
3CB
100
AcDbEntity
  8
0
 62
         0
100
AcDbLine
 10
2588.0
 20
1262.7470928737
 30
0.0
 11
2588.0
 21
2273.8720966884
 31
0.0
  0
LINE
  5
3CC
100
AcDbEntity
  8
0
 62
         0
100
AcDbLine
 10
2588.0
 20
3062.7470928737
 30
0.0
 11
2588.0
 21
2273.8720966884
 31
0.0
  0
LINE
  5
3CD
100
AcDbEntity
  8
0
 62
         0
100
AcDbLine
 10
2588.0
 20
1262.7470928737
 30
0.0
 11
2588.0
 21
2051.622089059
 31
0.0
  0
LINE
  5
3CE
100
AcDbEntity
  8
0
 62
         0
100
AcDbLine
 10
2588.0
 20
3062.7470928737
 30
0.0
 11
2588.0
 21
2051.622089059
 31
0.0
  0
LINE
  5
3CF
100
AcDbEntity
  8
0
 62
         0
100
AcDbLine
 10
2588.0
 20
3062.7470928737
 30
0.0
 11
2588.0
 21
2987.7470928737
 31
0.0
  0
LINE
  5
3D0
100
AcDbEntity
  8
0
 62
         0
100
AcDbLine
 10
2595.0136256218
 20
3047.7470928737
 30
0.0
 11
2588.0
 21
3062.7470928737
 31
0.0
  0
LINE
  5
3D1
100
AcDbEntity
  8
0
 62
         0
100
AcDbLine
 10
2588.0
 20
3062.7470928737
 30
0.0
 11
2580.9863743782
 21
3047.7470928737
 31
0.0
  0
LINE
  5
3D2
100
AcDbEntity
  8
0
 62
         0
100
AcDbLine
 10
2588.0
 20
1262.7470928737
 30
0.0
 11
2588.0
 21
1337.7470928737
 31
0.0
  0
LINE
  5
3D3
100
AcDbEntity
  8
0
 62
         0
100
AcDbLine
 10
2580.9863743782
 20
1277.7470928737
 30
0.0
 11
2588.0
 21
1262.7470928737
 31
0.0
  0
LINE
  5
3D4
100
AcDbEntity
  8
0
 62
         0
100
AcDbLine
 10
2588.0
 20
1262.7470928737
 30
0.0
 11
2595.0136256218
 21
1277.7470928737
 31
0.0
  0
ENDBLK
  5
3D5
100
AcDbEntity
  8
0
100
AcDbBlockEnd
  0
BLOCK
  5
3DD
100
AcDbEntity
  8
0
100
AcDbBlockBegin
  2
CLUMP14
 70
         0
 10
0.0
 20
0.0
 30
0.0
  3

  1

  0
LINE
  5
3DE
100
AcDbEntity
  8
ﾚｲﾔｰ1
 62
         2
100
AcDbLine
 10
680.2
 20
2156.2465720404
 30
0.0
 11
665.2
 21
2156.2465720404
 31
0.0
  0
LINE
  5
3DF
100
AcDbEntity
  8
ﾚｲﾔｰ1
 62
         2
100
AcDbLine
 10
680.2
 20
2136.2465720404
 30
0.0
 11
680.2
 21
2156.2465720404
 31
0.0
  0
LINE
  5
3E0
100
AcDbEntity
  8
ﾚｲﾔｰ1
 62
         2
100
AcDbLine
 10
665.2
 20
2136.2465720404
 30
0.0
 11
680.2
 21
2136.2465720404
 31
0.0
  0
LINE
  5
3E1
100
AcDbEntity
  8
ﾚｲﾔｰ1
 62
         2
100
AcDbLine
 10
665.2
 20
2156.2465720404
 30
0.0
 11
665.2
 21
2136.2465720404
 31
0.0
  0
LINE
  5
3E2
100
AcDbEntity
  8
ﾚｲﾔｰ1
 62
         2
100
AcDbLine
 10
665.2
 20
1507.0476137071
 30
0.0
 11
665.2
 21
1527.0476137071
 31
0.0
  0
LINE
  5
3E3
100
AcDbEntity
  8
ﾚｲﾔｰ1
 62
         2
100
AcDbLine
 10
665.2
 20
1527.0476137071
 30
0.0
 11
680.2
 21
1527.0476137071
 31
0.0
  0
LINE
  5
3E4
100
AcDbEntity
  8
ﾚｲﾔｰ1
 62
         2
100
AcDbLine
 10
680.2
 20
1527.0476137071
 30
0.0
 11
680.2
 21
1507.0476137071
 31
0.0
  0
LINE
  5
3E5
100
AcDbEntity
  8
ﾚｲﾔｰ1
 62
         2
100
AcDbLine
 10
680.2
 20
1507.0476137071
 30
0.0
 11
665.2
 21
1507.0476137071
 31
0.0
  0
LINE
  5
3E6
100
AcDbEntity
  8
ﾚｲﾔｰ1
 62
         2
100
AcDbLine
 10
680.2
 20
1821.6470928737
 30
0.0
 11
665.2
 21
1821.6470928737
 31
0.0
  0
LINE
  5
3E7
100
AcDbEntity
  8
ﾚｲﾔｰ1
 62
         2
100
AcDbLine
 10
680.2
 20
1841.6470928737
 30
0.0
 11
680.2
 21
1821.6470928737
 31
0.0
  0
LINE
  5
3E8
100
AcDbEntity
  8
ﾚｲﾔｰ1
 62
         2
100
AcDbLine
 10
665.2
 20
1841.6470928737
 30
0.0
 11
680.2
 21
1841.6470928737
 31
0.0
  0
LINE
  5
3E9
100
AcDbEntity
  8
ﾚｲﾔｰ1
 62
         2
100
AcDbLine
 10
665.2
 20
1821.6470928737
 30
0.0
 11
665.2
 21
1841.6470928737
 31
0.0
  0
ENDBLK
  5
3EA
100
AcDbEntity
  8
0
100
AcDbBlockEnd
  0
BLOCK
  5
3F4
100
AcDbEntity
  8
0
100
AcDbBlockBegin
  2
CLUMP15
 70
         0
 10
0.0
 20
0.0
 30
0.0
  3

  1

  0
LINE
  5
3F5
100
AcDbEntity
  8
ﾚｲﾔｰ1
 62
         2
100
AcDbLine
 10
2395.8
 20
2156.2465720404
 30
0.0
 11
2410.8
 21
2156.2465720404
 31
0.0
  0
LINE
  5
3F6
100
AcDbEntity
  8
ﾚｲﾔｰ1
 62
         2
100
AcDbLine
 10
2395.8
 20
2136.2465720404
 30
0.0
 11
2395.8
 21
2156.2465720404
 31
0.0
  0
LINE
  5
3F7
100
AcDbEntity
  8
ﾚｲﾔｰ1
 62
         2
100
AcDbLine
 10
2410.8
 20
2136.2465720404
 30
0.0
 11
2395.8
 21
2136.2465720404
 31
0.0
  0
LINE
  5
3F8
100
AcDbEntity
  8
ﾚｲﾔｰ1
 62
         2
100
AcDbLine
 10
2410.8
 20
2156.2465720404
 30
0.0
 11
2410.8
 21
2136.2465720404
 31
0.0
  0
LINE
  5
3F9
100
AcDbEntity
  8
ﾚｲﾔｰ1
 62
         2
100
AcDbLine
 10
2410.8
 20
1507.0476137071
 30
0.0
 11
2410.8
 21
1527.0476137071
 31
0.0
  0
LINE
  5
3FA
100
AcDbEntity
  8
ﾚｲﾔｰ1
 62
         2
100
AcDbLine
 10
2410.8
 20
1527.0476137071
 30
0.0
 11
2395.8
 21
1527.0476137071
 31
0.0
  0
LINE
  5
3FB
100
AcDbEntity
  8
ﾚｲﾔｰ1
 62
         2
100
AcDbLine
 10
2395.8
 20
1527.0476137071
 30
0.0
 11
2395.8
 21
1507.0476137071
 31
0.0
  0
LINE
  5
3FC
100
AcDbEntity
  8
ﾚｲﾔｰ1
 62
         2
100
AcDbLine
 10
2395.8
 20
1507.0476137071
 30
0.0
 11
2410.8
 21
1507.0476137071
 31
0.0
  0
LINE
  5
3FD
100
AcDbEntity
  8
ﾚｲﾔｰ1
 62
         2
100
AcDbLine
 10
2395.8
 20
1821.6470928737
 30
0.0
 11
2410.8
 21
1821.6470928737
 31
0.0
  0
LINE
  5
3FE
100
AcDbEntity
  8
ﾚｲﾔｰ1
 62
         2
100
AcDbLine
 10
2395.8
 20
1841.6470928737
 30
0.0
 11
2395.8
 21
1821.6470928737
 31
0.0
  0
LINE
  5
3FF
100
AcDbEntity
  8
ﾚｲﾔｰ1
 62
         2
100
AcDbLine
 10
2410.8
 20
1841.6470928737
 30
0.0
 11
2395.8
 21
1841.6470928737
 31
0.0
  0
LINE
  5
400
100
AcDbEntity
  8
ﾚｲﾔｰ1
 62
         2
100
AcDbLine
 10
2410.8
 20
1821.6470928737
 30
0.0
 11
2410.8
 21
1841.6470928737
 31
0.0
  0
ENDBLK
  5
401
100
AcDbEntity
  8
0
100
AcDbBlockEnd
  0
BLOCK
  5
40A
100
AcDbEntity
  8
0
100
AcDbBlockBegin
  2
CLUMP16
 70
         0
 10
0.0
 20
0.0
 30
0.0
  3

  1

  0
LINE
  5
40B
100
AcDbEntity
  8
ﾚｲﾔｰ1
 62
         2
100
AcDbLine
 10
4188.3080078125
 20
2829.3470928737
 30
0.0
 11
4188.3080078125
 21
2809.3470928737
 31
0.0
  0
LINE
  5
40C
100
AcDbEntity
  8
ﾚｲﾔｰ1
 62
         2
100
AcDbLine
 10
4188.3080078125
 20
2809.3470928737
 30
0.0
 11
4203.3080078125
 21
2809.3470928737
 31
0.0
  0
LINE
  5
40D
100
AcDbEntity
  8
ﾚｲﾔｰ1
 62
         2
100
AcDbLine
 10
4203.3080078125
 20
2809.3470928737
 30
0.0
 11
4203.3080078125
 21
2829.3470928737
 31
0.0
  0
LINE
  5
40E
100
AcDbEntity
  8
ﾚｲﾔｰ1
 62
         2
100
AcDbLine
 10
4203.3080078125
 20
2829.3470928737
 30
0.0
 11
4188.3080078125
 21
2829.3470928737
 31
0.0
  0
LINE
  5
40F
100
AcDbEntity
  8
ﾚｲﾔｰ1
 62
         2
100
AcDbLine
 10
4203.3080078125
 20
2529.3470928737
 30
0.0
 11
4188.3080078125
 21
2529.3470928737
 31
0.0
  0
LINE
  5
410
100
AcDbEntity
  8
ﾚｲﾔｰ1
 62
         2
100
AcDbLine
 10
4203.3080078125
 20
2509.3470928737
 30
0.0
 11
4203.3080078125
 21
2529.3470928737
 31
0.0
  0
LINE
  5
411
100
AcDbEntity
  8
ﾚｲﾔｰ1
 62
         2
100
AcDbLine
 10
4188.3080078125
 20
2509.3470928737
 30
0.0
 11
4203.3080078125
 21
2509.3470928737
 31
0.0
  0
LINE
  5
412
100
AcDbEntity
  8
ﾚｲﾔｰ1
 62
         2
100
AcDbLine
 10
4188.3080078125
 20
2529.3470928737
 30
0.0
 11
4188.3080078125
 21
2509.3470928737
 31
0.0
  0
INSERT
  5
414
100
AcDbEntity
  8
0
100
AcDbBlockReference
  2
CLUMP17
 10
0.0
 20
0.0
 30
0.0
  0
LINE
  5
41B
100
AcDbEntity
  8
ﾚｲﾔｰ1
 62
         2
100
AcDbLine
 10
4188.3080078125
 20
1943.7470928737
 30
0.0
 11
4188.3080078125
 21
1963.7470928737
 31
0.0
  0
LINE
  5
41C
100
AcDbEntity
  8
ﾚｲﾔｰ1
 62
         2
100
AcDbLine
 10
4188.3080078125
 20
1963.7470928737
 30
0.0
 11
4203.3080078125
 21
1963.7470928737
 31
0.0
  0
LINE
  5
41D
100
AcDbEntity
  8
ﾚｲﾔｰ1
 62
         2
100
AcDbLine
 10
4203.3080078125
 20
1963.7470928737
 30
0.0
 11
4203.3080078125
 21
1943.7470928737
 31
0.0
  0
LINE
  5
41E
100
AcDbEntity
  8
ﾚｲﾔｰ1
 62
         2
100
AcDbLine
 10
4203.3080078125
 20
1943.7470928737
 30
0.0
 11
4188.3080078125
 21
1943.7470928737
 31
0.0
  0
LINE
  5
41F
100
AcDbEntity
  8
ﾚｲﾔｰ1
 62
         2
100
AcDbLine
 10
4203.3080078125
 20
1643.7470928737
 30
0.0
 11
4188.3080078125
 21
1643.7470928737
 31
0.0
  0
LINE
  5
420
100
AcDbEntity
  8
ﾚｲﾔｰ1
 62
         2
100
AcDbLine
 10
4203.3080078125
 20
1663.7470928737
 30
0.0
 11
4203.3080078125
 21
1643.7470928737
 31
0.0
  0
LINE
  5
421
100
AcDbEntity
  8
ﾚｲﾔｰ1
 62
         2
100
AcDbLine
 10
4188.3080078125
 20
1663.7470928737
 30
0.0
 11
4203.3080078125
 21
1663.7470928737
 31
0.0
  0
LINE
  5
422
100
AcDbEntity
  8
ﾚｲﾔｰ1
 62
         2
100
AcDbLine
 10
4188.3080078125
 20
1643.7470928737
 30
0.0
 11
4188.3080078125
 21
1663.7470928737
 31
0.0
  0
ENDBLK
  5
423
100
AcDbEntity
  8
0
100
AcDbBlockEnd
  0
BLOCK
  5
415
100
AcDbEntity
  8
0
100
AcDbBlockBegin
  2
CLUMP17
 70
         0
 10
0.0
 20
0.0
 30
0.0
  3

  1

  0
LINE
  5
416
100
AcDbEntity
  8
ﾚｲﾔｰ1
 62
         2
100
AcDbLine
 10
4203.3080078125
 20
2246.5470928737
 30
0.0
 11
4188.3080078125
 21
2246.5470928737
 31
0.0
  0
LINE
  5
417
100
AcDbEntity
  8
ﾚｲﾔｰ1
 62
         2
100
AcDbLine
 10
4203.3080078125
 20
2226.5470928737
 30
0.0
 11
4203.3080078125
 21
2246.5470928737
 31
0.0
  0
LINE
  5
418
100
AcDbEntity
  8
ﾚｲﾔｰ1
 62
         2
100
AcDbLine
 10
4188.3080078125
 20
2226.5470928737
 30
0.0
 11
4203.3080078125
 21
2226.5470928737
 31
0.0
  0
LINE
  5
419
100
AcDbEntity
  8
ﾚｲﾔｰ1
 62
         2
100
AcDbLine
 10
4188.3080078125
 20
2246.5470928737
 30
0.0
 11
4188.3080078125
 21
2226.5470928737
 31
0.0
  0
ENDBLK
  5
41A
100
AcDbEntity
  8
0
100
AcDbBlockEnd
  0
BLOCK
  5
426
100
AcDbEntity
  8
0
100
AcDbBlockBegin
  2
CLUMP18
 70
         0
 10
0.0
 20
0.0
 30
0.0
  3

  1

  0
LINE
  5
427
100
AcDbEntity
  8
ﾚｲﾔｰ1
 62
         2
100
AcDbLine
 10
4961.9080078125
 20
2829.3470928737
 30
0.0
 11
4961.9080078125
 21
2809.3470928737
 31
0.0
  0
LINE
  5
428
100
AcDbEntity
  8
ﾚｲﾔｰ1
 62
         2
100
AcDbLine
 10
4961.9080078125
 20
2809.3470928737
 30
0.0
 11
4946.9080078125
 21
2809.3470928737
 31
0.0
  0
LINE
  5
429
100
AcDbEntity
  8
ﾚｲﾔｰ1
 62
         2
100
AcDbLine
 10
4946.9080078125
 20
2809.3470928737
 30
0.0
 11
4946.9080078125
 21
2829.3470928737
 31
0.0
  0
LINE
  5
42A
100
AcDbEntity
  8
ﾚｲﾔｰ1
 62
         2
100
AcDbLine
 10
4946.9080078125
 20
2829.3470928737
 30
0.0
 11
4961.9080078125
 21
2829.3470928737
 31
0.0
  0
LINE
  5
42B
100
AcDbEntity
  8
ﾚｲﾔｰ1
 62
         2
100
AcDbLine
 10
4946.9080078125
 20
2529.3470928737
 30
0.0
 11
4961.9080078125
 21
2529.3470928737
 31
0.0
  0
LINE
  5
42C
100
AcDbEntity
  8
ﾚｲﾔｰ1
 62
         2
100
AcDbLine
 10
4946.9080078125
 20
2509.3470928737
 30
0.0
 11
4946.9080078125
 21
2529.3470928737
 31
0.0
  0
LINE
  5
42D
100
AcDbEntity
  8
ﾚｲﾔｰ1
 62
         2
100
AcDbLine
 10
4961.9080078125
 20
2509.3470928737
 30
0.0
 11
4946.9080078125
 21
2509.3470928737
 31
0.0
  0
LINE
  5
42E
100
AcDbEntity
  8
ﾚｲﾔｰ1
 62
         2
100
AcDbLine
 10
4961.9080078125
 20
2529.3470928737
 30
0.0
 11
4961.9080078125
 21
2509.3470928737
 31
0.0
  0
INSERT
  5
430
100
AcDbEntity
  8
0
100
AcDbBlockReference
  2
CLUMP19
 10
0.0
 20
0.0
 30
0.0
  0
LINE
  5
437
100
AcDbEntity
  8
ﾚｲﾔｰ1
 62
         2
100
AcDbLine
 10
4961.9080078125
 20
1943.7470928737
 30
0.0
 11
4961.9080078125
 21
1963.7470928737
 31
0.0
  0
LINE
  5
438
100
AcDbEntity
  8
ﾚｲﾔｰ1
 62
         2
100
AcDbLine
 10
4961.9080078125
 20
1963.7470928737
 30
0.0
 11
4946.9080078125
 21
1963.7470928737
 31
0.0
  0
LINE
  5
439
100
AcDbEntity
  8
ﾚｲﾔｰ1
 62
         2
100
AcDbLine
 10
4946.9080078125
 20
1963.7470928737
 30
0.0
 11
4946.9080078125
 21
1943.7470928737
 31
0.0
  0
LINE
  5
43A
100
AcDbEntity
  8
ﾚｲﾔｰ1
 62
         2
100
AcDbLine
 10
4946.9080078125
 20
1943.7470928737
 30
0.0
 11
4961.9080078125
 21
1943.7470928737
 31
0.0
  0
LINE
  5
43B
100
AcDbEntity
  8
ﾚｲﾔｰ1
 62
         2
100
AcDbLine
 10
4946.9080078125
 20
1643.7470928737
 30
0.0
 11
4961.9080078125
 21
1643.7470928737
 31
0.0
  0
LINE
  5
43C
100
AcDbEntity
  8
ﾚｲﾔｰ1
 62
         2
100
AcDbLine
 10
4946.9080078125
 20
1663.7470928737
 30
0.0
 11
4946.9080078125
 21
1643.7470928737
 31
0.0
  0
LINE
  5
43D
100
AcDbEntity
  8
ﾚｲﾔｰ1
 62
         2
100
AcDbLine
 10
4961.9080078125
 20
1663.7470928737
 30
0.0
 11
4946.9080078125
 21
1663.7470928737
 31
0.0
  0
LINE
  5
43E
100
AcDbEntity
  8
ﾚｲﾔｰ1
 62
         2
100
AcDbLine
 10
4961.9080078125
 20
1643.7470928737
 30
0.0
 11
4961.9080078125
 21
1663.7470928737
 31
0.0
  0
ENDBLK
  5
43F
100
AcDbEntity
  8
0
100
AcDbBlockEnd
  0
BLOCK
  5
431
100
AcDbEntity
  8
0
100
AcDbBlockBegin
  2
CLUMP19
 70
         0
 10
0.0
 20
0.0
 30
0.0
  3

  1

  0
LINE
  5
432
100
AcDbEntity
  8
ﾚｲﾔｰ1
 62
         2
100
AcDbLine
 10
4946.9080078125
 20
2246.5470928737
 30
0.0
 11
4961.9080078125
 21
2246.5470928737
 31
0.0
  0
LINE
  5
433
100
AcDbEntity
  8
ﾚｲﾔｰ1
 62
         2
100
AcDbLine
 10
4946.9080078125
 20
2226.5470928737
 30
0.0
 11
4946.9080078125
 21
2246.5470928737
 31
0.0
  0
LINE
  5
434
100
AcDbEntity
  8
ﾚｲﾔｰ1
 62
         2
100
AcDbLine
 10
4961.9080078125
 20
2226.5470928737
 30
0.0
 11
4946.9080078125
 21
2226.5470928737
 31
0.0
  0
LINE
  5
435
100
AcDbEntity
  8
ﾚｲﾔｰ1
 62
         2
100
AcDbLine
 10
4961.9080078125
 20
2246.5470928737
 30
0.0
 11
4961.9080078125
 21
2226.5470928737
 31
0.0
  0
ENDBLK
  5
436
100
AcDbEntity
  8
0
100
AcDbBlockEnd
  0
ENDSEC
  0
SECTION
  2
ENTITIES
  0
LINE
  5
28
100
AcDbEntity
  8
ﾚｲﾔｰ1
100
AcDbLine
 10
4961.9080078125
 20
2975.5470928737
 30
0.0
 11
4188.3080078125
 21
2975.5470928737
 31
0.0
  0
DIMENSION
  5
3B
100
AcDbEntity
  8
寸法線
 62
         3
100
AcDbDimension
  2
*D0
 10
4997.578125
 20
3275.3604168484
 30
0.0
 11
4564.778125
 21
3275.3604168484
 31
0.0
 70
       128
210
0.0
220
0.0
230
1.0
  1
865
  3
VELDIM0
100
AcDbAlignedDimension
 13
4997.578125
 23
3025.5470928737
 33
0.0
 14
4131.978125
 24
3025.5470928737
 34
0.0
100
AcDbRotatedDimension
  0
LINE
  5
3C
100
AcDbEntity
  8
ﾚｲﾔｰ1
100
AcDbLine
 10
4841.3052083333
 20
3515.8114624023
 30
0.0
 11
4841.3052083333
 21
3416.328125
 31
0.0
  0
LINE
  5
3D
100
AcDbEntity
  8
ﾚｲﾔｰ1
100
AcDbLine
 10
5024.778125
 20
3062.7470928737
 30
0.0
 11
4997.578125
 21
3062.7470928737
 31
0.0
  0
DIMENSION
  5
4E
100
AcDbEntity
  8
寸法線
 62
         3
100
AcDbDimension
  2
*D1
 10
5024.778125
 20
3276.079902322
 30
0.0
 11
5011.178125
 21
3276.079902322
 31
0.0
 70
       128
210
0.0
220
0.0
230
1.0
  1
%%c<>
  3
VELDIM0
100
AcDbAlignedDimension
 13
5024.778125
 23
3062.7470928737
 33
0.0
 14
4997.578125
 24
3062.7470928737
 34
0.0
100
AcDbRotatedDimension
  0
LINE
  5
4F
100
AcDbEntity
  8
ﾚｲﾔｰ1
  6
BORDER
 62
         3
100
AcDbLine
 10
4174.7080078125
 20
2967.6364157904
 30
0.0
 11
4174.7080078125
 21
3083.4577699571
 31
0.0
  0
LINE
  5
50
100
AcDbEntity
  8
ﾚｲﾔｰ1
100
AcDbLine
 10
4165.5080078125
 20
3052.7470928737
 30
0.0
 11
4165.5080078125
 21
3058.2470928737
 31
0.0
  0
ELLIPSE
  5
51
100
AcDbEntity
  8
ﾚｲﾔｰ1
100
AcDbEllipse
 10
4167.8080078125
 20
3055.7470928737
 30
0.0
 11
2.4987096235098631
 21
2.3057428775514395
 31
0.0
210
0.0
220
0.0
230
-1.0
 40
1.0
 41
-1.5707963267948966
 42
-0.0802851455897389
  0
LINE
  5
52
100
AcDbEntity
  8
ﾚｲﾔｰ1
100
AcDbLine
 10
4170.1080078125
 20
3052.7470928737
 30
0.0
 11
4170.1080078125
 21
3058.2470928737
 31
0.0
  0
ARC
  5
53
100
AcDbEntity
  8
ﾚｲﾔｰ1
100
AcDbCircle
 10
-4174.7080078125
 20
3046.9470928737
 30
0.0
 40
12.2
210
0.0
220
0.0
230
-1.0
100
AcDbArc
 50
67.9
 51
112.1
  0
LINE
  5
54
100
AcDbEntity
  8
ﾚｲﾔｰ1
100
AcDbLine
 10
4961.9080078125
 20
3002.7470928737
 30
0.0
 11
4188.3080078125
 21
3002.7470928737
 31
0.0
  0
LINE
  5
55
100
AcDbEntity
  8
ﾚｲﾔｰ1
100
AcDbLine
 10
4953.9080078125
 20
2967.5470928737
 30
0.0
 11
4196.3080078125
 21
2967.5470928737
 31
0.0
  0
LINE
  5
56
100
AcDbEntity
  8
ﾚｲﾔｰ1
100
AcDbLine
 10
4201.3080078125
 20
2962.5470928737
 30
0.0
 11
4948.9080078125
 21
2962.5470928737
 31
0.0
  0
LINE
  5
57
100
AcDbEntity
  8
ﾚｲﾔｰ1
100
AcDbLine
 10
4181.6080078125
 20
3059.1470928737
 30
0.0
 11
4167.8080078125
 21
3059.1470928737
 31
0.0
  0
LINE
  5
58
100
AcDbEntity
  8
ﾚｲﾔｰ1
100
AcDbLine
 10
4961.9080078125
 20
3017.7470928737
 30
0.0
 11
4989.1080078125
 21
3017.7470928737
 31
0.0
  0
ARC
  5
59
100
AcDbEntity
  8
ﾚｲﾔｰ1
100
AcDbCircle
 10
-4181.6080078125
 20
3055.7470928737
 30
0.0
 40
3.4
210
0.0
220
0.0
230
-1.0
100
AcDbArc
 50
47.3
 51
132.7000000001
  0
LINE
  5
5A
100
AcDbEntity
  8
ﾚｲﾔｰ1
100
AcDbLine
 10
4183.9080078125
 20
3052.7470928737
 30
0.0
 11
4165.5080078125
 21
3052.7470928737
 31
0.0
  0
LINE
  5
5B
100
AcDbEntity
  8
ﾚｲﾔｰ1
100
AcDbLine
 10
4183.9080078125
 20
3058.2470928737
 30
0.0
 11
4183.9080078125
 21
3052.7470928737
 31
0.0
  0
LINE
  5
5C
100
AcDbEntity
  8
ﾚｲﾔｰ1
 62
         2
100
AcDbLine
 10
4881.5080078125
 20
2960.5470928737
 30
0.0
 11
4881.5080078125
 21
2975.5470928737
 31
0.0
  0
LINE
  5
5D
100
AcDbEntity
  8
ﾚｲﾔｰ1
 62
         2
100
AcDbLine
 10
4901.5080078125
 20
2960.5470928737
 30
0.0
 11
4881.5080078125
 21
2960.5470928737
 31
0.0
  0
LINE
  5
5E
100
AcDbEntity
  8
ﾚｲﾔｰ1
 62
         2
100
AcDbLine
 10
4901.5080078125
 20
2975.5470928737
 30
0.0
 11
4901.5080078125
 21
2960.5470928737
 31
0.0
  0
LINE
  5
5F
100
AcDbEntity
  8
ﾚｲﾔｰ1
 62
         2
100
AcDbLine
 10
4881.5080078125
 20
2975.5470928737
 30
0.0
 11
4901.5080078125
 21
2975.5470928737
 31
0.0
  0
LINE
  5
60
100
AcDbEntity
  8
ﾚｲﾔｰ1
 62
         2
100
AcDbLine
 10
4268.7080078125
 20
2960.5470928737
 30
0.0
 11
4268.7080078125
 21
2975.5470928737
 31
0.0
  0
LINE
  5
61
100
AcDbEntity
  8
ﾚｲﾔｰ1
 62
         2
100
AcDbLine
 10
4268.7080078125
 20
2975.5470928737
 30
0.0
 11
4248.7080078125
 21
2975.5470928737
 31
0.0
  0
LINE
  5
62
100
AcDbEntity
  8
ﾚｲﾔｰ1
 62
         2
100
AcDbLine
 10
4248.7080078125
 20
2975.5470928737
 30
0.0
 11
4248.7080078125
 21
2960.5470928737
 31
0.0
  0
LINE
  5
63
100
AcDbEntity
  8
ﾚｲﾔｰ1
 62
         2
100
AcDbLine
 10
4248.7080078125
 20
2960.5470928737
 30
0.0
 11
4268.7080078125
 21
2960.5470928737
 31
0.0
  0
LINE
  5
64
100
AcDbEntity
  8
ﾚｲﾔｰ1
 62
         2
100
AcDbLine
 10
4565.1080078125
 20
2975.5470928737
 30
0.0
 11
4565.1080078125
 21
2960.5470928737
 31
0.0
  0
LINE
  5
65
100
AcDbEntity
  8
ﾚｲﾔｰ1
 62
         2
100
AcDbLine
 10
4585.1080078125
 20
2975.5470928737
 30
0.0
 11
4565.1080078125
 21
2975.5470928737
 31
0.0
  0
LINE
  5
66
100
AcDbEntity
  8
ﾚｲﾔｰ1
 62
         2
100
AcDbLine
 10
4585.1080078125
 20
2960.5470928737
 30
0.0
 11
4585.1080078125
 21
2975.5470928737
 31
0.0
  0
LINE
  5
67
100
AcDbEntity
  8
ﾚｲﾔｰ1
 62
         2
100
AcDbLine
 10
4565.1080078125
 20
2960.5470928737
 30
0.0
 11
4585.1080078125
 21
2960.5470928737
 31
0.0
  0
LINE
  5
68
100
AcDbEntity
  8
ﾚｲﾔｰ1
  6
BORDER
 62
         3
100
AcDbLine
 10
4981.8032063802
 20
2230.0470928737
 30
0.0
 11
4968.4128092448
 21
2230.0470928737
 31
0.0
  0
LINE
  5
69
100
AcDbEntity
  8
ﾚｲﾔｰ1
 62
         2
100
AcDbLine
 10
4965.1080078125
 20
2223.5470928737
 30
0.0
 11
4965.1080078125
 21
2236.5470928737
 31
0.0
  0
LINE
  5
6A
100
AcDbEntity
  8
ﾚｲﾔｰ1
 62
         2
100
AcDbLine
 10
4968.1080078125
 20
2239.5470928737
 30
0.0
 11
4965.1080078125
 21
2236.5470928737
 31
0.0
  0
LINE
  5
6B
100
AcDbEntity
  8
ﾚｲﾔｰ1
 62
         2
100
AcDbLine
 10
4965.1080078125
 20
2223.5470928737
 30
0.0
 11
4968.1080078125
 21
2220.5470928737
 31
0.0
  0
LINE
  5
6C
100
AcDbEntity
  8
ﾚｲﾔｰ1
 62
         2
100
AcDbLine
 10
4968.1080078125
 20
2239.5470928737
 30
0.0
 11
5020.1080078125
 21
2239.5470928737
 31
0.0
  0
LINE
  5
6D
100
AcDbEntity
  8
ﾚｲﾔｰ1
 62
         2
100
AcDbLine
 10
5009.25390625
 20
2220.5470928737
 30
0.0
 11
4968.1080078125
 21
2220.5470928737
 31
0.0
  0
LINE
  5
6E
100
AcDbEntity
  8
ﾚｲﾔｰ1
100
AcDbLine
 10
4979.7080078125
 20
2238.0470928737
 30
0.0
 11
4984.3080078125
 21
2230.0470928737
 31
0.0
  0
LINE
  5
6F
100
AcDbEntity
  8
ﾚｲﾔｰ1
100
AcDbLine
 10
4984.3080078125
 20
2230.0470928737
 30
0.0
 11
4979.7080078125
 21
2222.0470928737
 31
0.0
  0
LINE
  5
70
100
AcDbEntity
  8
ﾚｲﾔｰ1
  6
BORDER
 62
         3
100
AcDbLine
 10
5025.3032063802
 20
2230.0470928737
 30
0.0
 11
5002.6560546875
 21
2230.0470928737
 31
0.0
  0
LINE
  5
71
100
AcDbEntity
  8
ﾚｲﾔｰ1
 62
         2
100
AcDbLine
 10
5016.9080078125
 20
2239.5470928737
 30
0.0
 11
5016.9080078125
 21
2220.5470928737
 31
0.0
  0
LINE
  5
72
100
AcDbEntity
  8
ﾚｲﾔｰ1
 62
         2
100
AcDbLine
 10
5009.25390625
 20
2209.5470928737
 30
0.0
 11
5012.45390625
 21
2209.5470928737
 31
0.0
  0
LINE
  5
73
100
AcDbEntity
  8
ﾚｲﾔｰ1
 62
         2
100
AcDbLine
 10
5012.45390625
 20
2239.5470928737
 30
0.0
 11
5009.25390625
 21
2239.5470928737
 31
0.0
  0
LINE
  5
74
100
AcDbEntity
  8
ﾚｲﾔｰ1
 62
         2
100
AcDbLine
 10
5012.45390625
 20
2209.5470928737
 30
0.0
 11
5012.45390625
 21
2239.5470928737
 31
0.0
  0
LINE
  5
75
100
AcDbEntity
  8
ﾚｲﾔｰ1
 62
         2
100
AcDbLine
 10
5020.1080078125
 20
2220.5470928737
 30
0.0
 11
5012.45390625
 21
2220.5470928737
 31
0.0
  0
LINE
  5
76
100
AcDbEntity
  8
ﾚｲﾔｰ1
  6
BORDER
 62
         3
100
AcDbLine
 10
4975.1080078125
 20
2222.6843324571
 30
0.0
 11
4975.1080078125
 21
2237.4098532904
 31
0.0
  0
LINE
  5
77
100
AcDbEntity
  8
ﾚｲﾔｰ1
 62
         2
100
AcDbLine
 10
5020.1080078125
 20
2239.5470928737
 30
0.0
 11
5020.1080078125
 21
2220.5470928737
 31
0.0
  0
LINE
  5
78
100
AcDbEntity
  8
ﾚｲﾔｰ1
 62
         2
100
AcDbLine
 10
5009.25390625
 20
2239.5470928737
 30
0.0
 11
5009.25390625
 21
2209.5470928737
 31
0.0
  0
LINE
  5
79
100
AcDbEntity
  8
ﾚｲﾔｰ1
100
AcDbLine
 10
4970.5080078125
 20
2238.0470928737
 30
0.0
 11
4979.7080078125
 21
2238.0470928737
 31
0.0
  0
CIRCLE
  5
7A
100
AcDbEntity
  8
ﾚｲﾔｰ1
100
AcDbCircle
 10
-4975.1080078125
 20
2230.0470928737
 30
0.0
 40
8.0
210
0.0
220
0.0
230
-1.0
  0
LINE
  5
7B
100
AcDbEntity
  8
ﾚｲﾔｰ1
100
AcDbLine
 10
4970.5080078125
 20
2222.0470928737
 30
0.0
 11
4965.9080078125
 21
2230.0470928737
 31
0.0
  0
LINE
  5
7C
100
AcDbEntity
  8
ﾚｲﾔｰ1
100
AcDbLine
 10
4965.9080078125
 20
2230.0470928737
 30
0.0
 11
4970.5080078125
 21
2238.0470928737
 31
0.0
  0
LINE
  5
7D
100
AcDbEntity
  8
ﾚｲﾔｰ1
 62
         3
100
AcDbLine
 10
4305.7356256901
 20
3127.0987096235
 30
0.0
 11
4783.3340631901
 21
3127.0987096235
 31
0.0
  0
LINE
  5
7E
100
AcDbEntity
  8
ﾚｲﾔｰ1
 62
         3
100
AcDbLine
 10
4183.9137506901
 20
3058.2458024972
 30
0.0
 11
4305.7356256901
 21
3127.0987096235
 31
0.0
  0
LINE
  5
7F
100
AcDbEntity
  8
ﾚｲﾔｰ1
 62
         3
100
AcDbLine
 10
4183.9137506901
 20
3058.2458024972
 30
0.0
 11
4187.5622548929
 21
3061.828029956
 31
0.0
  0
LINE
  5
80
100
AcDbEntity
  8
ﾚｲﾔｰ1
 62
         3
100
AcDbLine
 10
4183.9137506901
 20
3058.2458024972
 30
0.0
 11
4188.8645617449
 21
3059.5238503773
 31
0.0
  0
MTEXT
  5
81
100
AcDbEntity
  8
ﾚｲﾔｰ1
100
AcDbMText
 10
4307.8522923567
 20
3195.8903834109
 30
0.0
 40
56.673752594
 41
563.615
 71
         1
 72
         1
  1
\W0.8;\fＭＳ ゴシック;\W1.0;M10ボルト溶接
  0
LINE
  5
82
100
AcDbEntity
  8
ﾚｲﾔｰ1
100
AcDbLine
 10
4179.3080078125
 20
3052.7470928737
 30
0.0
 11
4179.3080078125
 21
3058.2470928737
 31
0.0
  0
LINE
  5
83
100
AcDbEntity
  8
ﾚｲﾔｰ1
 62
         2
100
AcDbLine
 10
3966.7884114583
 20
2262.7470928737
 30
0.0
 11
3946.7884114583
 21
2262.7470928737
 31
0.0
  0
LINE
  5
84
100
AcDbEntity
  8
ﾚｲﾔｰ1
 62
         2
100
AcDbLine
 10
3966.7884114583
 20
2247.7470928737
 30
0.0
 11
3966.7884114583
 21
2262.7470928737
 31
0.0
  0
LINE
  5
85
100
AcDbEntity
  8
ﾚｲﾔｰ1
 62
         2
100
AcDbLine
 10
3946.7884114583
 20
2247.7470928737
 30
0.0
 11
3966.7884114583
 21
2247.7470928737
 31
0.0
  0
LINE
  5
86
100
AcDbEntity
  8
ﾚｲﾔｰ1
100
AcDbLine
 10
4097.278125
 20
3013.0470928737
 30
0.0
 11
3259.478125
 21
3013.0470928737
 31
0.0
  0
LINE
  5
87
100
AcDbEntity
  8
ﾚｲﾔｰ1
100
AcDbLine
 10
4097.278125
 20
3018.0470928737
 30
0.0
 11
3259.478125
 21
3018.0470928737
 31
0.0
  0
LINE
  5
88
100
AcDbEntity
  8
ﾚｲﾔｰ1
100
AcDbLine
 10
3264.478125
 20
3013.0470928737
 30
0.0
 11
4092.278125
 21
3013.0470928737
 31
0.0
  0
LINE
  5
89
100
AcDbEntity
  8
ﾚｲﾔｰ1
100
AcDbLine
 10
3408.2510416667
 20
3416.328125
 30
0.0
 11
3408.2510416667
 21
3515.8114624023
 31
0.0
  0
LINE
  5
8A
100
AcDbEntity
  8
ﾚｲﾔｰ1
 62
         2
100
AcDbLine
 10
3351.978125
 20
3010.5470928737
 30
0.0
 11
3351.978125
 21
3025.5470928737
 31
0.0
  0
LINE
  5
8B
100
AcDbEntity
  8
ﾚｲﾔｰ1
 62
         2
100
AcDbLine
 10
3371.978125
 20
3010.5470928737
 30
0.0
 11
3351.978125
 21
3010.5470928737
 31
0.0
  0
LINE
  5
8C
100
AcDbEntity
  8
ﾚｲﾔｰ1
 62
         2
100
AcDbLine
 10
3371.978125
 20
3025.5470928737
 30
0.0
 11
3371.978125
 21
3010.5470928737
 31
0.0
  0
LINE
  5
8D
100
AcDbEntity
  8
ﾚｲﾔｰ1
 62
         2
100
AcDbLine
 10
3351.978125
 20
3025.5470928737
 30
0.0
 11
3371.978125
 21
3025.5470928737
 31
0.0
  0
LINE
  5
8E
100
AcDbEntity
  8
ﾚｲﾔｰ1
 62
         2
100
AcDbLine
 10
3672.4807942708
 20
3025.5470928737
 30
0.0
 11
3672.4807942708
 21
3010.5470928737
 31
0.0
  0
LINE
  5
8F
100
AcDbEntity
  8
ﾚｲﾔｰ1
 62
         2
100
AcDbLine
 10
3672.4807942708
 20
3010.5470928737
 30
0.0
 11
3652.4807942708
 21
3010.5470928737
 31
0.0
  0
LINE
  5
90
100
AcDbEntity
  8
ﾚｲﾔｰ1
 62
         2
100
AcDbLine
 10
3652.4807942708
 20
3010.5470928737
 30
0.0
 11
3652.4807942708
 21
3025.5470928737
 31
0.0
  0
LINE
  5
91
100
AcDbEntity
  8
ﾚｲﾔｰ1
100
AcDbLine
 10
3251.978125
 20
3062.7470928737
 30
0.0
 11
3224.778125
 21
3062.7470928737
 31
0.0
  0
DIMENSION
  5
A2
100
AcDbEntity
  8
寸法線
 62
         3
100
AcDbDimension
  2
*D2
 10
3251.978125
 20
3276.079902322
 30
0.0
 11
3238.378125
 21
3276.079902322
 31
0.0
 70
       128
210
0.0
220
0.0
230
1.0
  1
%%c<>
  3
VELDIM0
100
AcDbAlignedDimension
 13
3251.978125
 23
3062.7470928737
 33
0.0
 14
3224.778125
 24
3062.7470928737
 34
0.0
100
AcDbRotatedDimension
  0
LINE
  5
A3
100
AcDbEntity
  8
ﾚｲﾔｰ1
 62
         2
100
AcDbLine
 10
3652.4807942708
 20
3025.5470928737
 30
0.0
 11
3672.4807942708
 21
3025.5470928737
 31
0.0
  0
LINE
  5
A4
100
AcDbEntity
  8
ﾚｲﾔｰ1
 62
         2
100
AcDbLine
 10
3984.778125
 20
3010.5470928737
 30
0.0
 11
4004.778125
 21
3010.5470928737
 31
0.0
  0
LINE
  5
A5
100
AcDbEntity
  8
ﾚｲﾔｰ1
 62
         2
100
AcDbLine
 10
4004.778125
 20
3010.5470928737
 30
0.0
 11
4004.778125
 21
3025.5470928737
 31
0.0
  0
LINE
  5
A6
100
AcDbEntity
  8
ﾚｲﾔｰ1
 62
         2
100
AcDbLine
 10
4004.778125
 20
3025.5470928737
 30
0.0
 11
3984.778125
 21
3025.5470928737
 31
0.0
  0
LINE
  5
A7
100
AcDbEntity
  8
ﾚｲﾔｰ1
 62
         2
100
AcDbLine
 10
3984.778125
 20
3025.5470928737
 30
0.0
 11
3984.778125
 21
3010.5470928737
 31
0.0
  0
LINE
  5
A8
100
AcDbEntity
  8
ﾚｲﾔｰ1
 62
         3
100
AcDbLine
 10
5009.25390625
 20
2239.5470928737
 30
0.0
 11
5408.0509114583
 21
2654.4687479655
 31
0.0
  0
LINE
  5
A9
100
AcDbEntity
  8
ﾚｲﾔｰ1
 62
         3
100
AcDbLine
 10
5009.25390625
 20
2239.5470928737
 30
0.0
 11
5011.0169959351
 21
2242.7455703434
 31
0.0
  0
LINE
  5
AA
100
AcDbEntity
  8
ﾚｲﾔｰ1
 62
         3
100
AcDbLine
 10
5009.25390625
 20
2239.5470928737
 30
0.0
 11
5012.3800254413
 21
2241.4355107734
 31
0.0
  0
LINE
  5
AB
100
AcDbEntity
  8
ﾚｲﾔｰ1
 62
         3
100
AcDbLine
 10
5609.795703125
 20
2654.4687479655
 30
0.0
 11
5408.0509114583
 21
2654.4687479655
 31
0.0
  0
MTEXT
  5
AC
100
AcDbEntity
  8
ﾚｲﾔｰ1
100
AcDbMText
 10
5410.167578125
 20
2723.2604217529
 30
0.0
 40
56.673752594
 41
275.9356119792
 71
         1
 72
         1
  1
\W0.8;\fＭＳ ゴシック;\W1.0;掛け金
  0
LINE
  5
AD
100
AcDbEntity
  8
ﾚｲﾔｰ1
100
AcDbLine
 10
4979.7080078125
 20
2222.0470928737
 30
0.0
 11
4970.5080078125
 21
2222.0470928737
 31
0.0
  0
LINE
  5
AE
100
AcDbEntity
  8
ﾚｲﾔｰ1
100
AcDbLine
 10
4092.278125
 20
2260.2470928737
 30
0.0
 11
3264.478125
 21
2260.2470928737
 31
0.0
  0
LINE
  5
AF
100
AcDbEntity
  8
ﾚｲﾔｰ1
100
AcDbLine
 10
3259.478125
 20
2260.2470928737
 30
0.0
 11
4097.278125
 21
2260.2470928737
 31
0.0
  0
LINE
  5
B0
100
AcDbEntity
  8
ﾚｲﾔｰ1
100
AcDbLine
 10
3259.478125
 20
2255.2470928737
 30
0.0
 11
4097.278125
 21
2255.2470928737
 31
0.0
  0
LINE
  5
B1
100
AcDbEntity
  8
ﾚｲﾔｰ1
 62
         2
100
AcDbLine
 10
3351.978125
 20
2247.7470928737
 30
0.0
 11
3371.978125
 21
2247.7470928737
 31
0.0
  0
LINE
  5
B2
100
AcDbEntity
  8
ﾚｲﾔｰ1
 62
         2
100
AcDbLine
 10
3371.978125
 20
2247.7470928737
 30
0.0
 11
3371.978125
 21
2262.7470928737
 31
0.0
  0
LINE
  5
B3
100
AcDbEntity
  8
ﾚｲﾔｰ1
 62
         2
100
AcDbLine
 10
3371.978125
 20
2262.7470928737
 30
0.0
 11
3351.978125
 21
2262.7470928737
 31
0.0
  0
LINE
  5
B4
100
AcDbEntity
  8
ﾚｲﾔｰ1
 62
         2
100
AcDbLine
 10
3351.978125
 20
2262.7470928737
 30
0.0
 11
3351.978125
 21
2247.7470928737
 31
0.0
  0
LINE
  5
B5
100
AcDbEntity
  8
ﾚｲﾔｰ1
 62
         2
100
AcDbLine
 10
3668.378125
 20
2220.5470928737
 30
0.0
 11
3688.378125
 21
2220.5470928737
 31
0.0
  0
LINE
  5
B6
100
AcDbEntity
  8
ﾚｲﾔｰ1
 62
         2
100
AcDbLine
 10
3688.378125
 20
2220.5470928737
 30
0.0
 11
3688.378125
 21
2205.5470928737
 31
0.0
  0
LINE
  5
B7
100
AcDbEntity
  8
ﾚｲﾔｰ1
 62
         2
100
AcDbLine
 10
3688.378125
 20
2205.5470928737
 30
0.0
 11
3668.378125
 21
2205.5470928737
 31
0.0
  0
LINE
  5
B8
100
AcDbEntity
  8
ﾚｲﾔｰ1
 62
         2
100
AcDbLine
 10
3668.378125
 20
2205.5470928737
 30
0.0
 11
3668.378125
 21
2220.5470928737
 31
0.0
  0
LINE
  5
B9
100
AcDbEntity
  8
ﾚｲﾔｰ1
 62
         2
100
AcDbLine
 10
3668.378125
 20
2262.7470928737
 30
0.0
 11
3668.378125
 21
2247.7470928737
 31
0.0
  0
LINE
  5
BA
100
AcDbEntity
  8
ﾚｲﾔｰ1
 62
         2
100
AcDbLine
 10
3688.378125
 20
2262.7470928737
 30
0.0
 11
3668.378125
 21
2262.7470928737
 31
0.0
  0
LINE
  5
BB
100
AcDbEntity
  8
ﾚｲﾔｰ1
 62
         2
100
AcDbLine
 10
3688.378125
 20
2247.7470928737
 30
0.0
 11
3688.378125
 21
2262.7470928737
 31
0.0
  0
LINE
  5
BC
100
AcDbEntity
  8
ﾚｲﾔｰ1
 62
         2
100
AcDbLine
 10
3668.378125
 20
2247.7470928737
 30
0.0
 11
3688.378125
 21
2247.7470928737
 31
0.0
  0
DIMENSION
  5
CD
100
AcDbEntity
  8
寸法線
 62
         3
100
AcDbDimension
  2
*D3
 10
3101.978125
 20
2247.7470928737
 30
0.0
 11
3101.978125
 21
2234.1470928737
 31
0.0
 70
       128
210
0.0
220
0.0
230
1.0
  1
%%c<>
  3
VELDIM0
100
AcDbAlignedDimension
 13
3251.978125
 23
2247.7470928737
 33
0.0
 14
3251.978125
 24
2220.5470928737
 34
0.0
 50
90.0
100
AcDbRotatedDimension
  0
LINE
  5
CE
100
AcDbEntity
  8
ﾚｲﾔｰ1
 62
         2
100
AcDbLine
 10
3351.978125
 20
2205.5470928737
 30
0.0
 11
3351.978125
 21
2220.5470928737
 31
0.0
  0
LINE
  5
CF
100
AcDbEntity
  8
ﾚｲﾔｰ1
 62
         2
100
AcDbLine
 10
3371.978125
 20
2205.5470928737
 30
0.0
 11
3351.978125
 21
2205.5470928737
 31
0.0
  0
LINE
  5
D0
100
AcDbEntity
  8
ﾚｲﾔｰ1
 62
         2
100
AcDbLine
 10
3371.978125
 20
2220.5470928737
 30
0.0
 11
3371.978125
 21
2205.5470928737
 31
0.0
  0
LINE
  5
D1
100
AcDbEntity
  8
ﾚｲﾔｰ1
 62
         2
100
AcDbLine
 10
3351.978125
 20
2220.5470928737
 30
0.0
 11
3371.978125
 21
2220.5470928737
 31
0.0
  0
LINE
  5
D2
100
AcDbEntity
  8
ﾚｲﾔｰ1
 62
         2
100
AcDbLine
 10
3946.7884114583
 20
2220.5470928737
 30
0.0
 11
3966.7884114583
 21
2220.5470928737
 31
0.0
  0
LINE
  5
D3
100
AcDbEntity
  8
ﾚｲﾔｰ1
 62
         2
100
AcDbLine
 10
3966.7884114583
 20
2220.5470928737
 30
0.0
 11
3966.7884114583
 21
2205.5470928737
 31
0.0
  0
LINE
  5
D4
100
AcDbEntity
  8
ﾚｲﾔｰ1
 62
         2
100
AcDbLine
 10
3966.7884114583
 20
2205.5470928737
 30
0.0
 11
3946.7884114583
 21
2205.5470928737
 31
0.0
  0
LINE
  5
D5
100
AcDbEntity
  8
ﾚｲﾔｰ1
 62
         2
100
AcDbLine
 10
3946.7884114583
 20
2205.5470928737
 30
0.0
 11
3946.7884114583
 21
2220.5470928737
 31
0.0
  0
LINE
  5
D6
100
AcDbEntity
  8
ﾚｲﾔｰ1
 62
         2
100
AcDbLine
 10
3946.7884114583
 20
2262.7470928737
 30
0.0
 11
3946.7884114583
 21
2247.7470928737
 31
0.0
  0
LINE
  5
D7
100
AcDbEntity
  8
ﾚｲﾔｰ1
100
AcDbLine
 10
4179.3080078125
 20
1415.5470928737
 30
0.0
 11
4179.3080078125
 21
1410.0470928737
 31
0.0
  0
LINE
  5
D8
100
AcDbEntity
  8
ﾚｲﾔｰ1
100
AcDbLine
 10
4165.5080078125
 20
1415.5470928737
 30
0.0
 11
4165.5080078125
 21
1410.0470928737
 31
0.0
  0
ELLIPSE
  5
D9
100
AcDbEntity
  8
ﾚｲﾔｰ1
100
AcDbEllipse
 10
4167.8080078125
 20
1412.5470928737
 30
0.0
 11
2.4987096235098631
 21
-2.3057428775514404
 31
0.0
210
0.0
220
0.0
230
1.0
 40
1.0
 41
-1.5707963267948966
 42
-0.0802851455897389
  0
LINE
  5
DA
100
AcDbEntity
  8
ﾚｲﾔｰ1
100
AcDbLine
 10
4170.1080078125
 20
1415.5470928737
 30
0.0
 11
4170.1080078125
 21
1410.0470928737
 31
0.0
  0
ARC
  5
DB
100
AcDbEntity
  8
ﾚｲﾔｰ1
100
AcDbCircle
 10
4174.7080078125
 20
1421.3470928737
 30
0.0
 40
12.2
210
0.0
220
0.0
230
1.0
100
AcDbArc
 50
247.9
 51
292.1
  0
LINE
  5
DC
100
AcDbEntity
  8
ﾚｲﾔｰ1
 62
         2
100
AcDbLine
 10
4881.5080078125
 20
1522.7470928737
 30
0.0
 11
4881.5080078125
 21
1537.7470928737
 31
0.0
  0
LINE
  5
DD
100
AcDbEntity
  8
ﾚｲﾔｰ1
 62
         2
100
AcDbLine
 10
4881.5080078125
 20
1537.7470928737
 30
0.0
 11
4901.5080078125
 21
1537.7470928737
 31
0.0
  0
LINE
  5
DE
100
AcDbEntity
  8
ﾚｲﾔｰ1
 62
         2
100
AcDbLine
 10
4901.5080078125
 20
1537.7470928737
 30
0.0
 11
4901.5080078125
 21
1522.7470928737
 31
0.0
  0
LINE
  5
DF
100
AcDbEntity
  8
ﾚｲﾔｰ1
 62
         2
100
AcDbLine
 10
4901.5080078125
 20
1522.7470928737
 30
0.0
 11
4881.5080078125
 21
1522.7470928737
 31
0.0
  0
LINE
  5
E0
100
AcDbEntity
  8
ﾚｲﾔｰ1
 62
         2
100
AcDbLine
 10
4565.1080078125
 20
1522.7470928737
 30
0.0
 11
4585.1080078125
 21
1522.7470928737
 31
0.0
  0
LINE
  5
E1
100
AcDbEntity
  8
ﾚｲﾔｰ1
 62
         2
100
AcDbLine
 10
4585.1080078125
 20
1522.7470928737
 30
0.0
 11
4585.1080078125
 21
1537.7470928737
 31
0.0
  0
LINE
  5
E2
100
AcDbEntity
  8
ﾚｲﾔｰ1
 62
         2
100
AcDbLine
 10
4248.7080078125
 20
1522.7470928737
 30
0.0
 11
4268.7080078125
 21
1522.7470928737
 31
0.0
  0
LINE
  5
E3
100
AcDbEntity
  8
ﾚｲﾔｰ1
 62
         2
100
AcDbLine
 10
4248.7080078125
 20
1537.7470928737
 30
0.0
 11
4248.7080078125
 21
1522.7470928737
 31
0.0
  0
LINE
  5
E4
100
AcDbEntity
  8
ﾚｲﾔｰ1
 62
         2
100
AcDbLine
 10
4268.7080078125
 20
1537.7470928737
 30
0.0
 11
4248.7080078125
 21
1537.7470928737
 31
0.0
  0
LINE
  5
E5
100
AcDbEntity
  8
ﾚｲﾔｰ1
 62
         2
100
AcDbLine
 10
4268.7080078125
 20
1522.7470928737
 30
0.0
 11
4268.7080078125
 21
1537.7470928737
 31
0.0
  0
LINE
  5
E6
100
AcDbEntity
  8
ﾚｲﾔｰ1
 62
         2
100
AcDbLine
 10
4585.1080078125
 20
1537.7470928737
 30
0.0
 11
4565.1080078125
 21
1537.7470928737
 31
0.0
  0
LINE
  5
E7
100
AcDbEntity
  8
ﾚｲﾔｰ1
 62
         2
100
AcDbLine
 10
4565.1080078125
 20
1537.7470928737
 30
0.0
 11
4565.1080078125
 21
1522.7470928737
 31
0.0
  0
LINE
  5
E8
100
AcDbEntity
  8
ﾚｲﾔｰ1
100
AcDbLine
 10
4188.3080078125
 20
1522.7470928737
 30
0.0
 11
4961.9080078125
 21
1522.7470928737
 31
0.0
  0
LINE
  5
E9
100
AcDbEntity
  8
ﾚｲﾔｰ1
100
AcDbLine
 10
4188.3080078125
 20
1495.5470928737
 30
0.0
 11
4961.9080078125
 21
1495.5470928737
 31
0.0
  0
LINE
  5
EA
100
AcDbEntity
  8
ﾚｲﾔｰ1
100
AcDbLine
 10
4997.578125
 20
1262.7470928737
 30
0.0
 11
5024.778125
 21
1262.7470928737
 31
0.0
  0
LINE
  5
EB
100
AcDbEntity
  8
ﾚｲﾔｰ1
100
AcDbLine
 10
4097.278125
 20
2208.0470928737
 30
0.0
 11
3259.478125
 21
2208.0470928737
 31
0.0
  0
LINE
  5
EC
100
AcDbEntity
  8
ﾚｲﾔｰ1
100
AcDbLine
 10
4097.278125
 20
2213.0470928737
 30
0.0
 11
3259.478125
 21
2213.0470928737
 31
0.0
  0
LINE
  5
ED
100
AcDbEntity
  8
ﾚｲﾔｰ1
100
AcDbLine
 10
3264.478125
 20
2208.0470928737
 30
0.0
 11
4092.278125
 21
2208.0470928737
 31
0.0
  0
LINE
  5
EE
100
AcDbEntity
  8
ﾚｲﾔｰ1
100
AcDbLine
 10
3251.978125
 20
2220.5470928737
 30
0.0
 11
4104.778125
 21
2220.5470928737
 31
0.0
  0
LINE
  5
EF
100
AcDbEntity
  8
ﾚｲﾔｰ1
100
AcDbLine
 10
3251.978125
 20
2247.7470928737
 30
0.0
 11
4104.778125
 21
2247.7470928737
 31
0.0
  0
LINE
  5
F0
100
AcDbEntity
  8
ﾚｲﾔｰ1
100
AcDbLine
 10
3224.778125
 20
1262.7470928737
 30
0.0
 11
3251.978125
 21
1262.7470928737
 31
0.0
  0
DIMENSION
  5
101
100
AcDbEntity
  8
寸法線
 62
         3
100
AcDbDimension
  2
*D4
 10
3401.978125
 20
1262.7470928737
 30
0.0
 11
3401.978125
 21
1339.1470928737
 31
0.0
 70
       128
210
0.0
220
0.0
230
1.0
  1
153
  3
VELDIM0
100
AcDbAlignedDimension
 13
3251.978125
 23
1262.7470928737
 33
0.0
 14
3251.978125
 24
1415.5470928737
 34
0.0
 50
90.0
100
AcDbRotatedDimension
  0
LINE
  5
102
100
AcDbEntity
  8
ﾚｲﾔｰ1
 62
         2
100
AcDbLine
 10
4004.778125
 20
1442.7470928737
 30
0.0
 11
3984.778125
 21
1442.7470928737
 31
0.0
  0
LINE
  5
103
100
AcDbEntity
  8
ﾚｲﾔｰ1
 62
         2
100
AcDbLine
 10
4004.778125
 20
1457.7470928737
 30
0.0
 11
4004.778125
 21
1442.7470928737
 31
0.0
  0
LINE
  5
104
100
AcDbEntity
  8
ﾚｲﾔｰ1
 62
         2
100
AcDbLine
 10
3984.778125
 20
1457.7470928737
 30
0.0
 11
4004.778125
 21
1457.7470928737
 31
0.0
  0
LINE
  5
105
100
AcDbEntity
  8
ﾚｲﾔｰ1
 62
         2
100
AcDbLine
 10
3984.778125
 20
1442.7470928737
 30
0.0
 11
3984.778125
 21
1457.7470928737
 31
0.0
  0
MTEXT
  5
106
100
AcDbEntity
  8
ﾚｲﾔｰ1
100
AcDbMText
 10
4400.5225274623
 20
406.7770703169
 30
0.0
 40
56.4714086327
 41
408.2529477111
 71
         1
 72
         1
  1
\W0.8;\fＭＳ ゴシック;\W1.0;2000.12.12
  0
LINE
  5
107
100
AcDbEntity
  8
ﾚｲﾔｰ1
100
AcDbLine
 10
4739.485195569
 20
304.035503121
 30
0.0
 11
4739.485195569
 21
448.8611250333
 31
0.0
  0
MTEXT
  5
108
100
AcDbEntity
  8
ﾚｲﾔｰ1
100
AcDbMText
 10
4727.1802711878
 20
51.4889952806
 30
0.0
 40
44.3857115966
 41
72.6015184382
 71
         1
 72
         1
  1
\W0.8;\fＭＳ ゴシック;\W1.0;番
  0
MTEXT
  5
109
100
AcDbEntity
  8
ﾚｲﾔｰ1
100
AcDbMText
 10
4727.1802711878
 20
115.1374194885
 30
0.0
 40
44.3857115966
 41
72.6015184382
 71
         1
 72
         1
  1
\W0.8;\fＭＳ ゴシック;\W1.0;図
  0
MTEXT
  5
10A
100
AcDbEntity
  8
ﾚｲﾔｰ1
100
AcDbMText
 10
4202.4271879595
 20
406.8970266307
 30
0.0
 40
51.1128001422
 41
216.1716906674
 71
         1
 72
         1
  1
\W0.8;\fＭＳ ゴシック;\W1.0;作成日
  0
LINE
  5
10B
100
AcDbEntity
  8
ﾚｲﾔｰ1
100
AcDbLine
 10
4705.788972411
 20
142.3961078804
 30
0.0
 11
4705.788972411
 21
-26.65
 31
0.0
  0
LINE
  5
10C
100
AcDbEntity
  8
ﾚｲﾔｰ1
100
AcDbLine
 10
4200.7710431703
 20
304.0344718707
 30
0.0
 11
4200.7710431703
 21
448.8600937828
 31
0.0
  0
LINE
  5
10D
100
AcDbEntity
  8
ﾚｲﾔｰ1
100
AcDbLine
 10
4389.258374273
 20
304.0348161882
 30
0.0
 11
4389.258374273
 21
448.8604381004
 31
0.0
  0
MTEXT
  5
10E
100
AcDbEntity
  8
ﾚｲﾔｰ1
100
AcDbMText
 10
5605.5876132462
 20
398.7714758115
 30
0.0
 40
50.2912170944
 41
92.308290714
 71
         1
 72
         1
  1
\W0.8;\fＭＳ ゴシック;\W1.0;殿
  0
LINE
  5
10F
100
AcDbEntity
  8
ﾚｲﾔｰ1
100
AcDbLine
 10
4790.3120263515
 20
-26.65
 30
0.0
 11
4790.3120263515
 21
142.3961078804
 31
0.0
  0
MTEXT
  5
110
100
AcDbEntity
  8
ﾚｲﾔｰ1
100
AcDbMText
 10
4833.6748993092
 20
95.6576480417
 30
0.0
 40
78.8744853082
 41
962.2338964908
 71
         1
 72
         1
  1
\W0.8;\fＭＳ ゴシック;\W1.0;００４１００２
  0
LINE
  5
111
100
AcDbEntity
  8
ﾚｲﾔｰ1
100
AcDbLine
 10
4948.9080078125
 20
1530.7470928737
 30
0.0
 11
4201.3080078125
 21
1530.7470928737
 31
0.0
  0
LINE
  5
112
100
AcDbEntity
  8
ﾚｲﾔｰ1
100
AcDbLine
 10
4196.3080078125
 20
1525.7470928737
 30
0.0
 11
4953.9080078125
 21
1525.7470928737
 31
0.0
  0
LINE
  5
113
100
AcDbEntity
  8
ﾚｲﾔｰ1
100
AcDbLine
 10
4961.9080078125
 20
1480.5470928737
 30
0.0
 11
4989.1080078125
 21
1480.5470928737
 31
0.0
  0
LINE
  5
114
100
AcDbEntity
  8
ﾚｲﾔｰ1
100
AcDbLine
 10
4183.9080078125
 20
1415.5470928737
 30
0.0
 11
4165.5080078125
 21
1415.5470928737
 31
0.0
  0
LINE
  5
115
100
AcDbEntity
  8
ﾚｲﾔｰ1
100
AcDbLine
 10
4183.9080078125
 20
1410.0470928737
 30
0.0
 11
4183.9080078125
 21
1415.5470928737
 31
0.0
  0
LINE
  5
116
100
AcDbEntity
  8
ﾚｲﾔｰ1
100
AcDbLine
 10
4181.6080078125
 20
1409.1470928737
 30
0.0
 11
4167.8080078125
 21
1409.1470928737
 31
0.0
  0
ARC
  5
117
100
AcDbEntity
  8
ﾚｲﾔｰ1
100
AcDbCircle
 10
4181.6080078125
 20
1412.5470928737
 30
0.0
 40
3.4
210
0.0
220
0.0
230
1.0
100
AcDbArc
 50
227.3
 51
312.7000000001
  0
LINE
  5
118
100
AcDbEntity
  8
ﾚｲﾔｰ1
  6
BORDER
 62
         3
100
AcDbLine
 10
4174.7080078125
 20
1384.8364157904
 30
0.0
 11
4174.7080078125
 21
1500.6577699571
 31
0.0
  0
LINE
  5
119
100
AcDbEntity
  8
ﾚｲﾔｰ1
100
AcDbLine
 10
2015.1536458333
 20
3505.8895874023
 30
0.0
 11
2015.1536458333
 21
3406.40625
 31
0.0
  0
LINE
  5
11A
100
AcDbEntity
  8
ﾚｲﾔｰ1
 62
         2
100
AcDbLine
 10
2290.8
 20
3010.5470928737
 30
0.0
 11
2310.8
 21
3010.5470928737
 31
0.0
  0
LINE
  5
11B
100
AcDbEntity
  8
ﾚｲﾔｰ1
 62
         2
100
AcDbLine
 10
2290.8
 20
3025.5470928737
 30
0.0
 11
2290.8
 21
3010.5470928737
 31
0.0
  0
LINE
  5
11C
100
AcDbEntity
  8
ﾚｲﾔｰ1
 62
         2
100
AcDbLine
 10
2310.8
 20
3025.5470928737
 30
0.0
 11
2290.8
 21
3025.5470928737
 31
0.0
  0
LINE
  5
11D
100
AcDbEntity
  8
ﾚｲﾔｰ1
100
AcDbLine
 10
2438.0
 20
3062.7470928737
 30
0.0
 11
2410.8
 21
3062.7470928737
 31
0.0
  0
DIMENSION
  5
12E
100
AcDbEntity
  8
寸法線
 62
         3
100
AcDbDimension
  2
*D5
 10
2438.0
 20
3212.7470928737
 30
0.0
 11
2424.4
 21
3212.7470928737
 31
0.0
 70
       128
210
0.0
220
0.0
230
1.0
  1
%%c<>
  3
VELDIM0
100
AcDbAlignedDimension
 13
2438.0
 23
3062.7470928737
 33
0.0
 14
2410.8
 24
3062.7470928737
 34
0.0
100
AcDbRotatedDimension
  0
LINE
  5
12F
100
AcDbEntity
  8
ﾚｲﾔｰ1
 62
         2
100
AcDbLine
 10
2310.8
 20
3010.5470928737
 30
0.0
 11
2310.8
 21
3025.5470928737
 31
0.0
  0
MTEXT
  5
130
100
AcDbEntity
  8
ﾚｲﾔｰ1
100
AcDbMText
 10
3802.2372207839
 20
292.021732528
 30
0.0
 40
58.2620073944
 41
98.3726787005
 71
         1
 72
         1
  1
\W0.8;\fＭＳ ゴシック;\W1.0;名\P称
  0
MTEXT
  5
131
100
AcDbEntity
  8
ﾚｲﾔｰ1
100
AcDbMText
 10
3812.5051245981
 20
402.1793609234
 30
0.0
 40
55.8955306025
 41
179.0695781055
 71
         1
 72
         1
  1
\W0.8;\fＭＳ Ｐゴシック;\W1.0;尺度
  0
MTEXT
  5
132
100
AcDbEntity
  8
ﾚｲﾔｰ1
100
AcDbMText
 10
3442.5721354167
 20
836.1614715576
 30
0.0
 40
62.970835495
 41
340.4
 71
         1
 72
         1
  1
\W0.8;\fＭＳ ゴシック;\W1.0;注記
  0
LINE
  5
133
100
AcDbEntity
  8
ﾚｲﾔｰ1
100
AcDbLine
 10
3440.45546875
 20
759.9614649455
 30
0.0
 11
3590.853125
 21
759.9614649455
 31
0.0
  0
LINE
  5
134
100
AcDbEntity
  8
ﾚｲﾔｰ1
100
AcDbLine
 10
3792.9399898577
 20
-26.65
 30
0.0
 11
3792.9399898577
 21
448.8611250333
 31
0.0
  0
LINE
  5
135
100
AcDbEntity
  8
ﾚｲﾔｰ1
100
AcDbLine
 10
3877.4630437977
 20
304.0338812703
 30
0.0
 11
3877.4630437977
 21
141.5508016841
 31
0.0
  0
LINE
  5
136
100
AcDbEntity
  8
ﾚｲﾔｰ1
100
AcDbLine
 10
3972.5624262863
 20
304.0340549924
 30
0.0
 11
3972.5624262863
 21
448.8596769045
 31
0.0
  0
LINE
  5
137
100
AcDbEntity
  8
ﾚｲﾔｰ1
100
AcDbLine
 10
4092.278125
 20
1455.2470928737
 30
0.0
 11
3264.478125
 21
1455.2470928737
 31
0.0
  0
LINE
  5
138
100
AcDbEntity
  8
ﾚｲﾔｰ1
100
AcDbLine
 10
3259.478125
 20
1455.2470928737
 30
0.0
 11
4097.278125
 21
1455.2470928737
 31
0.0
  0
LINE
  5
139
100
AcDbEntity
  8
ﾚｲﾔｰ1
100
AcDbLine
 10
3259.478125
 20
1450.2470928737
 30
0.0
 11
4097.278125
 21
1450.2470928737
 31
0.0
  0
LINE
  5
13A
100
AcDbEntity
  8
ﾚｲﾔｰ1
 62
         2
100
AcDbLine
 10
3688.378125
 20
1442.7470928737
 30
0.0
 11
3688.378125
 21
1457.7470928737
 31
0.0
  0
LINE
  5
13B
100
AcDbEntity
  8
ﾚｲﾔｰ1
 62
         2
100
AcDbLine
 10
3668.378125
 20
1442.7470928737
 30
0.0
 11
3688.378125
 21
1442.7470928737
 31
0.0
  0
LINE
  5
13C
100
AcDbEntity
  8
ﾚｲﾔｰ1
 62
         2
100
AcDbLine
 10
3668.378125
 20
1457.7470928737
 30
0.0
 11
3668.378125
 21
1442.7470928737
 31
0.0
  0
LINE
  5
13D
100
AcDbEntity
  8
ﾚｲﾔｰ1
 62
         2
100
AcDbLine
 10
3688.378125
 20
1457.7470928737
 30
0.0
 11
3668.378125
 21
1457.7470928737
 31
0.0
  0
LINE
  5
13E
100
AcDbEntity
  8
ﾚｲﾔｰ1
 62
         2
100
AcDbLine
 10
3351.978125
 20
1442.7470928737
 30
0.0
 11
3371.978125
 21
1442.7470928737
 31
0.0
  0
LINE
  5
13F
100
AcDbEntity
  8
ﾚｲﾔｰ1
 62
         2
100
AcDbLine
 10
3371.978125
 20
1442.7470928737
 30
0.0
 11
3371.978125
 21
1457.7470928737
 31
0.0
  0
LINE
  5
140
100
AcDbEntity
  8
ﾚｲﾔｰ1
 62
         2
100
AcDbLine
 10
3371.978125
 20
1457.7470928737
 30
0.0
 11
3351.978125
 21
1457.7470928737
 31
0.0
  0
LINE
  5
141
100
AcDbEntity
  8
ﾚｲﾔｰ1
 62
         2
100
AcDbLine
 10
3351.978125
 20
1457.7470928737
 30
0.0
 11
3351.978125
 21
1442.7470928737
 31
0.0
  0
LINE
  5
142
100
AcDbEntity
  8
ﾚｲﾔｰ1
 62
         2
100
AcDbLine
 10
1185.2
 20
2247.7470928737
 30
0.0
 11
1185.2
 21
2262.7470928737
 31
0.0
  0
LINE
  5
143
100
AcDbEntity
  8
ﾚｲﾔｰ1
 62
         2
100
AcDbLine
 10
1165.2
 20
2247.7470928737
 30
0.0
 11
1185.2
 21
2247.7470928737
 31
0.0
  0
INSERT
  5
145
100
AcDbEntity
  8
0
100
AcDbBlockReference
  2
CLUMP0
 10
0.0
 20
0.0
 30
0.0
  0
LINE
  5
14C
100
AcDbEntity
  8
ﾚｲﾔｰ1
 62
         2
100
AcDbLine
 10
2310.8
 20
2247.7470928737
 30
0.0
 11
2290.8
 21
2247.7470928737
 31
0.0
  0
LINE
  5
14D
100
AcDbEntity
  8
ﾚｲﾔｰ1
 62
         2
100
AcDbLine
 10
2290.8
 20
2247.7470928737
 30
0.0
 11
2290.8
 21
2262.7470928737
 31
0.0
  0
LINE
  5
14E
100
AcDbEntity
  8
ﾚｲﾔｰ1
 62
         2
100
AcDbLine
 10
2290.8
 20
2262.7470928737
 30
0.0
 11
2310.8
 21
2262.7470928737
 31
0.0
  0
LINE
  5
14F
100
AcDbEntity
  8
ﾚｲﾔｰ1
 62
         2
100
AcDbLine
 10
2310.8
 20
2262.7470928737
 30
0.0
 11
2310.8
 21
2247.7470928737
 31
0.0
  0
LINE
  5
150
100
AcDbEntity
  8
ﾚｲﾔｰ1
 62
         2
100
AcDbLine
 10
2310.8
 20
2205.5470928737
 30
0.0
 11
2310.8
 21
2220.5470928737
 31
0.0
  0
LINE
  5
151
100
AcDbEntity
  8
ﾚｲﾔｰ1
 62
         2
100
AcDbLine
 10
2290.8
 20
2205.5470928737
 30
0.0
 11
2310.8
 21
2205.5470928737
 31
0.0
  0
LINE
  5
152
100
AcDbEntity
  8
ﾚｲﾔｰ1
 62
         2
100
AcDbLine
 10
2290.8
 20
2220.5470928737
 30
0.0
 11
2290.8
 21
2205.5470928737
 31
0.0
  0
LINE
  5
153
100
AcDbEntity
  8
ﾚｲﾔｰ1
 62
         2
100
AcDbLine
 10
2310.8
 20
2220.5470928737
 30
0.0
 11
2290.8
 21
2220.5470928737
 31
0.0
  0
MTEXT
  5
154
100
AcDbEntity
  8
ﾚｲﾔｰ1
100
AcDbMText
 10
1131.3130208333
 20
3503.7729207357
 30
0.0
 40
80.9625
 41
1092.0280208333
 71
         1
 72
         1
  1
\W0.8;\fＭＳ ゴシック;\W1.0;フェンスバリケード
  0
LINE
  5
155
100
AcDbEntity
  8
ﾚｲﾔｰ1
100
AcDbLine
 10
1129.1963541667
 20
3505.8895874023
 30
0.0
 11
2015.1536458333
 21
3505.8895874023
 31
0.0
  0
LINE
  5
156
100
AcDbEntity
  8
ﾚｲﾔｰ1
100
AcDbLine
 10
2015.1536458333
 20
3406.40625
 30
0.0
 11
1129.1963541667
 21
3406.40625
 31
0.0
  0
LINE
  5
157
100
AcDbEntity
  8
ﾚｲﾔｰ1
 62
         2
100
AcDbLine
 10
1910.8
 20
3010.5470928737
 30
0.0
 11
1910.8
 21
3025.5470928737
 31
0.0
  0
LINE
  5
158
100
AcDbEntity
  8
ﾚｲﾔｰ1
 62
         2
100
AcDbLine
 10
1890.8
 20
3010.5470928737
 30
0.0
 11
1910.8
 21
3010.5470928737
 31
0.0
  0
LINE
  5
159
100
AcDbEntity
  8
ﾚｲﾔｰ1
 62
         2
100
AcDbLine
 10
1890.8
 20
3025.5470928737
 30
0.0
 11
1890.8
 21
3010.5470928737
 31
0.0
  0
LINE
  5
15A
100
AcDbEntity
  8
ﾚｲﾔｰ1
100
AcDbLine
 10
1129.1963541667
 20
3406.40625
 30
0.0
 11
1129.1963541667
 21
3505.8895874023
 31
0.0
  0
LINE
  5
15B
100
AcDbEntity
  8
ﾚｲﾔｰ1
 62
         2
100
AcDbLine
 10
1910.8
 20
3025.5470928737
 30
0.0
 11
1890.8
 21
3025.5470928737
 31
0.0
  0
DIMENSION
  5
16C
100
AcDbEntity
  8
寸法線
 62
         3
100
AcDbDimension
  2
*D7
 10
1782.8164059957
 20
3025.5470928737
 30
0.0
 11
1782.8164059957
 21
3161.5583340236
 31
0.0
 70
       128
210
0.0
220
0.0
230
1.0
  1
%%c<>
  3
VELDIM0
100
AcDbAlignedDimension
 13
1735.9520833333
 23
3025.5470928737
 33
0.0
 14
1735.9520833333
 24
3052.7470928737
 34
0.0
 50
90.0
100
AcDbRotatedDimension
  0
INSERT
  5
16E
100
AcDbEntity
  8
0
100
AcDbBlockReference
  2
CLUMP1
 10
0.0
 20
0.0
 30
0.0
  0
LINE
  5
175
100
AcDbEntity
  8
ﾚｲﾔｰ1
 62
         2
100
AcDbLine
 10
1165.2
 20
3025.5470928737
 30
0.0
 11
1185.2
 21
3025.5470928737
 31
0.0
  0
LINE
  5
176
100
AcDbEntity
  8
ﾚｲﾔｰ1
 62
         2
100
AcDbLine
 10
1185.2
 20
3025.5470928737
 30
0.0
 11
1185.2
 21
3010.5470928737
 31
0.0
  0
LINE
  5
177
100
AcDbEntity
  8
ﾚｲﾔｰ1
 62
         2
100
AcDbLine
 10
1185.2
 20
3010.5470928737
 30
0.0
 11
1165.2
 21
3010.5470928737
 31
0.0
  0
LINE
  5
178
100
AcDbEntity
  8
ﾚｲﾔｰ1
 62
         2
100
AcDbLine
 10
1165.2
 20
3010.5470928737
 30
0.0
 11
1165.2
 21
3025.5470928737
 31
0.0
  0
LINE
  5
179
100
AcDbEntity
  8
ﾚｲﾔｰ1
 62
         2
100
AcDbLine
 10
765.2
 20
2220.5470928737
 30
0.0
 11
785.2
 21
2220.5470928737
 31
0.0
  0
LINE
  5
17A
100
AcDbEntity
  8
ﾚｲﾔｰ1
 62
         2
100
AcDbLine
 10
785.2
 20
2205.5470928737
 30
0.0
 11
765.2
 21
2205.5470928737
 31
0.0
  0
LINE
  5
17B
100
AcDbEntity
  8
ﾚｲﾔｰ1
 62
         2
100
AcDbLine
 10
765.2
 20
2205.5470928737
 30
0.0
 11
765.2
 21
2220.5470928737
 31
0.0
  0
LINE
  5
17C
100
AcDbEntity
  8
ﾚｲﾔｰ1
 62
         2
100
AcDbLine
 10
765.2
 20
3025.5470928737
 30
0.0
 11
785.2
 21
3025.5470928737
 31
0.0
  0
LINE
  5
17D
100
AcDbEntity
  8
ﾚｲﾔｰ1
 62
         2
100
AcDbLine
 10
785.2
 20
3025.5470928737
 30
0.0
 11
785.2
 21
3010.5470928737
 31
0.0
  0
LINE
  5
17E
100
AcDbEntity
  8
ﾚｲﾔｰ1
 62
         2
100
AcDbLine
 10
785.2
 20
3010.5470928737
 30
0.0
 11
765.2
 21
3010.5470928737
 31
0.0
  0
LINE
  5
17F
100
AcDbEntity
  8
ﾚｲﾔｰ1
 62
         2
100
AcDbLine
 10
765.2
 20
3010.5470928737
 30
0.0
 11
765.2
 21
3025.5470928737
 31
0.0
  0
LINE
  5
180
100
AcDbEntity
  8
ﾚｲﾔｰ1
100
AcDbLine
 10
665.2
 20
3062.7470928737
 30
0.0
 11
638.0
 21
3062.7470928737
 31
0.0
  0
DIMENSION
  5
191
100
AcDbEntity
  8
寸法線
 62
         3
100
AcDbDimension
  2
*D9
 10
665.2
 20
3212.7470928737
 30
0.0
 11
651.6
 21
3212.7470928737
 31
0.0
 70
       128
210
0.0
220
0.0
230
1.0
  1
%%c<>
  3
VELDIM0
100
AcDbAlignedDimension
 13
665.2
 23
3062.7470928737
 33
0.0
 14
638.0
 24
3062.7470928737
 34
0.0
100
AcDbRotatedDimension
  0
LINE
  5
192
100
AcDbEntity
  8
ﾚｲﾔｰ1
 62
         2
100
AcDbLine
 10
1910.8
 20
2247.7470928737
 30
0.0
 11
1890.8
 21
2247.7470928737
 31
0.0
  0
LINE
  5
193
100
AcDbEntity
  8
ﾚｲﾔｰ1
 62
         2
100
AcDbLine
 10
1890.8
 20
2247.7470928737
 30
0.0
 11
1890.8
 21
2262.7470928737
 31
0.0
  0
LINE
  5
194
100
AcDbEntity
  8
ﾚｲﾔｰ1
 62
         2
100
AcDbLine
 10
1890.8
 20
2262.7470928737
 30
0.0
 11
1910.8
 21
2262.7470928737
 31
0.0
  0
LINE
  5
195
100
AcDbEntity
  8
ﾚｲﾔｰ1
 62
         2
100
AcDbLine
 10
1910.8
 20
2262.7470928737
 30
0.0
 11
1910.8
 21
2247.7470928737
 31
0.0
  0
LINE
  5
196
100
AcDbEntity
  8
ﾚｲﾔｰ1
 62
         2
100
AcDbLine
 10
1910.8
 20
2205.5470928737
 30
0.0
 11
1910.8
 21
2220.5470928737
 31
0.0
  0
LINE
  5
197
100
AcDbEntity
  8
ﾚｲﾔｰ1
 62
         2
100
AcDbLine
 10
1890.8
 20
2205.5470928737
 30
0.0
 11
1910.8
 21
2205.5470928737
 31
0.0
  0
DIMENSION
  5
1A8
100
AcDbEntity
  8
寸法線
 62
         3
100
AcDbDimension
  2
*D10
 10
1768.3966145833
 20
2247.7470928737
 30
0.0
 11
1768.3966145833
 21
2372.0747372219
 31
0.0
 70
       128
210
0.0
220
0.0
230
1.0
  1
%%c<>
  3
VELDIM0
100
AcDbAlignedDimension
 13
1768.3966145833
 23
2247.7470928737
 33
0.0
 14
1768.3966145833
 24
2220.5470928737
 34
0.0
 50
90.0
100
AcDbRotatedDimension
  0
LINE
  5
1A9
100
AcDbEntity
  8
ﾚｲﾔｰ1
 62
         2
100
AcDbLine
 10
1890.8
 20
2220.5470928737
 30
0.0
 11
1890.8
 21
2205.5470928737
 31
0.0
  0
LINE
  5
1AA
100
AcDbEntity
  8
ﾚｲﾔｰ1
 62
         2
100
AcDbLine
 10
1910.8
 20
2220.5470928737
 30
0.0
 11
1890.8
 21
2220.5470928737
 31
0.0
  0
INSERT
  5
1AC
100
AcDbEntity
  8
0
100
AcDbBlockReference
  2
CLUMP2
 10
0.0
 20
0.0
 30
0.0
  0
LINE
  5
1B3
100
AcDbEntity
  8
ﾚｲﾔｰ1
 62
         2
100
AcDbLine
 10
1165.2
 20
2220.5470928737
 30
0.0
 11
1185.2
 21
2220.5470928737
 31
0.0
  0
LINE
  5
1B4
100
AcDbEntity
  8
ﾚｲﾔｰ1
 62
         2
100
AcDbLine
 10
1185.2
 20
2220.5470928737
 30
0.0
 11
1185.2
 21
2205.5470928737
 31
0.0
  0
LINE
  5
1B5
100
AcDbEntity
  8
ﾚｲﾔｰ1
 62
         2
100
AcDbLine
 10
1185.2
 20
2205.5470928737
 30
0.0
 11
1165.2
 21
2205.5470928737
 31
0.0
  0
LINE
  5
1B6
100
AcDbEntity
  8
ﾚｲﾔｰ1
 62
         2
100
AcDbLine
 10
1165.2
 20
2205.5470928737
 30
0.0
 11
1165.2
 21
2220.5470928737
 31
0.0
  0
LINE
  5
1B7
100
AcDbEntity
  8
ﾚｲﾔｰ1
 62
         2
100
AcDbLine
 10
1165.2
 20
2262.7470928737
 30
0.0
 11
1165.2
 21
2247.7470928737
 31
0.0
  0
LINE
  5
1B8
100
AcDbEntity
  8
ﾚｲﾔｰ1
 62
         2
100
AcDbLine
 10
1185.2
 20
2262.7470928737
 30
0.0
 11
1165.2
 21
2262.7470928737
 31
0.0
  0
LINE
  5
1B9
100
AcDbEntity
  8
ﾚｲﾔｰ1
 62
         2
100
AcDbLine
 10
1741.0705078125
 20
118.5739562988
 30
0.0
 11
1741.0705078125
 21
268.5739562988
 31
0.0
  0
LINE
  5
1BA
100
AcDbEntity
  8
ﾚｲﾔｰ1
 62
         2
100
AcDbLine
 10
1757.0705078125
 20
118.5739562988
 30
0.0
 11
1741.0705078125
 21
118.5739562988
 31
0.0
  0
LINE
  5
1BB
100
AcDbEntity
  8
ﾚｲﾔｰ1
  6
DIVIDE
 62
         4
100
AcDbLine
 10
1287.6982421875
 20
812.1162816564
 30
0.0
 11
1215.1982421875
 21
579.6162816564
 31
0.0
  0
LINE
  5
1BC
100
AcDbEntity
  8
ﾚｲﾔｰ1
 62
         2
100
AcDbLine
 10
1702.8
 20
917.1598937988
 30
0.0
 11
1721.9352539063
 21
917.1598937988
 31
0.0
  0
LINE
  5
1BD
100
AcDbEntity
  8
ﾚｲﾔｰ1
100
AcDbLine
 10
1757.0705078125
 20
932.1598937988
 30
0.0
 11
1741.0705078125
 21
932.1598937988
 31
0.0
  0
LINE
  5
1BE
100
AcDbEntity
  8
ﾚｲﾔｰ1
 62
         2
100
AcDbLine
 10
1185.2
 20
1457.7470928737
 30
0.0
 11
1165.2
 21
1457.7470928737
 31
0.0
  0
LINE
  5
1BF
100
AcDbEntity
  8
ﾚｲﾔｰ1
 62
         2
100
AcDbLine
 10
1185.2
 20
1442.7470928737
 30
0.0
 11
1185.2
 21
1457.7470928737
 31
0.0
  0
DIMENSION
  5
1D0
100
AcDbEntity
  8
寸法線
 62
         3
100
AcDbDimension
  2
*D12
 10
1764.7916641235
 20
1415.5470928737
 30
0.0
 11
1764.7916641235
 21
1315.8250011989
 31
0.0
 70
       128
210
0.0
220
0.0
230
1.0
  1
%%c<>
  3
VELDIM0
100
AcDbAlignedDimension
 13
1836.890625
 23
1415.5470928737
 33
0.0
 14
1836.890625
 24
1442.7470928737
 34
0.0
 50
90.0
100
AcDbRotatedDimension
  0
LINE
  5
1D1
100
AcDbEntity
  8
ﾚｲﾔｰ1
 62
         2
100
AcDbLine
 10
1165.2
 20
1442.7470928737
 30
0.0
 11
1185.2
 21
1442.7470928737
 31
0.0
  0
INSERT
  5
1D3
100
AcDbEntity
  8
0
100
AcDbBlockReference
  2
CLUMP3
 10
0.0
 20
0.0
 30
0.0
  0
LINE
  5
1DA
100
AcDbEntity
  8
ﾚｲﾔｰ1
 62
         2
100
AcDbLine
 10
1165.2
 20
1457.7470928737
 30
0.0
 11
1165.2
 21
1442.7470928737
 31
0.0
  0
LINE
  5
1DB
100
AcDbEntity
  8
ﾚｲﾔｰ1
 62
         2
100
AcDbLine
 10
1910.8
 20
1442.7470928737
 30
0.0
 11
1890.8
 21
1442.7470928737
 31
0.0
  0
LINE
  5
1DC
100
AcDbEntity
  8
ﾚｲﾔｰ1
 62
         2
100
AcDbLine
 10
1890.8
 20
1442.7470928737
 30
0.0
 11
1890.8
 21
1457.7470928737
 31
0.0
  0
LINE
  5
1DD
100
AcDbEntity
  8
ﾚｲﾔｰ1
 62
         2
100
AcDbLine
 10
1890.8
 20
1457.7470928737
 30
0.0
 11
1910.8
 21
1457.7470928737
 31
0.0
  0
LINE
  5
1DE
100
AcDbEntity
  8
ﾚｲﾔｰ1
 62
         2
100
AcDbLine
 10
1910.8
 20
1457.7470928737
 30
0.0
 11
1910.8
 21
1442.7470928737
 31
0.0
  0
LINE
  5
1DF
100
AcDbEntity
  8
ﾚｲﾔｰ1
 62
         2
100
AcDbLine
 10
2290.8
 20
1442.7470928737
 30
0.0
 11
2290.8
 21
1457.7470928737
 31
0.0
  0
LINE
  5
1E0
100
AcDbEntity
  8
ﾚｲﾔｰ1
 62
         2
100
AcDbLine
 10
2290.8
 20
1457.7470928737
 30
0.0
 11
2310.8
 21
1457.7470928737
 31
0.0
  0
LINE
  5
1E1
100
AcDbEntity
  8
ﾚｲﾔｰ1
 62
         2
100
AcDbLine
 10
2310.8
 20
1457.7470928737
 30
0.0
 11
2310.8
 21
1442.7470928737
 31
0.0
  0
LINE
  5
1E2
100
AcDbEntity
  8
ﾚｲﾔｰ1
100
AcDbLine
 10
2410.8
 20
1262.7470928737
 30
0.0
 11
2438.0
 21
1262.7470928737
 31
0.0
  0
LINE
  5
1E3
100
AcDbEntity
  8
ﾚｲﾔｰ1
 62
         2
100
AcDbLine
 10
2310.8
 20
1442.7470928737
 30
0.0
 11
2290.8
 21
1442.7470928737
 31
0.0
  0
LINE
  5
1E4
100
AcDbEntity
  8
ﾚｲﾔｰ1
 62
         2
100
AcDbLine
 10
785.2
 20
2220.5470928737
 30
0.0
 11
785.2
 21
2205.5470928737
 31
0.0
  0
LINE
  5
1E5
100
AcDbEntity
  8
ﾚｲﾔｰ1
 62
         2
100
AcDbLine
 10
765.2
 20
2247.7470928737
 30
0.0
 11
785.2
 21
2247.7470928737
 31
0.0
  0
LINE
  5
1E6
100
AcDbEntity
  8
ﾚｲﾔｰ1
 62
         2
100
AcDbLine
 10
765.2
 20
2262.7470928737
 30
0.0
 11
765.2
 21
2247.7470928737
 31
0.0
  0
LINE
  5
1E7
100
AcDbEntity
  8
ﾚｲﾔｰ1
 62
         2
100
AcDbLine
 10
785.2
 20
2262.7470928737
 30
0.0
 11
765.2
 21
2262.7470928737
 31
0.0
  0
LINE
  5
1E8
100
AcDbEntity
  8
ﾚｲﾔｰ1
 62
         2
100
AcDbLine
 10
785.2
 20
2247.7470928737
 30
0.0
 11
785.2
 21
2262.7470928737
 31
0.0
  0
DIMENSION
  5
1F9
100
AcDbEntity
  8
寸法線
 62
         3
100
AcDbDimension
  2
*D14
 10
1977.8
 20
327.9656227112
 30
0.0
 11
1840.3
 21
327.9656227112
 31
0.0
 70
       128
210
0.0
220
0.0
230
1.0
  1
55
  3
VELDIM0
100
AcDbAlignedDimension
 13
1977.8
 23
253.5739562988
 33
0.0
 14
1702.8
 24
268.5739562988
 34
0.0
100
AcDbRotatedDimension
  0
LINE
  5
1FA
100
AcDbEntity
  8
ﾚｲﾔｰ1
  6
BORDER
 62
         3
100
AcDbLine
 10
1749.0705078125
 20
576.8929667155
 30
0.0
 11
1749.0705078125
 21
865.558005778
 31
0.0
  0
LINE
  5
1FB
100
AcDbEntity
  8
ﾚｲﾔｰ1
 62
         2
100
AcDbLine
 10
1702.8
 20
481.1598937988
 30
0.0
 11
1721.9352539063
 21
481.1598937988
 31
0.0
  0
LINE
  5
1FC
100
AcDbEntity
  8
ﾚｲﾔｰ1
 62
         2
100
AcDbLine
 10
1977.8
 20
615.1598937988
 30
0.0
 11
1731.9352539063
 21
615.1598937988
 31
0.0
  0
LINE
  5
1FD
100
AcDbEntity
  8
ﾚｲﾔｰ1
 62
         2
100
AcDbLine
 10
1721.9352539063
 20
605.1598937988
 30
0.0
 11
1721.9352539063
 21
481.1598937988
 31
0.0
  0
ARC
  5
1FE
100
AcDbEntity
  8
ﾚｲﾔｰ1
100
AcDbCircle
 10
1731.9352539063
 20
605.1598937988
 30
0.0
 40
10.0
210
0.0
220
0.0
230
1.0
100
AcDbArc
 50
90.0
 51
180.0
  0
ARC
  5
1FF
100
AcDbEntity
  8
ﾚｲﾔｰ1
100
AcDbCircle
 10
-1731.9352539063
 20
793.1598937988
 30
0.0
 40
10.0
210
0.0
220
0.0
230
-1.0
100
AcDbArc
 50
270.0
 51
0.0
  0
LINE
  5
200
100
AcDbEntity
  8
ﾚｲﾔｰ1
 62
         2
100
AcDbLine
 10
1977.8
 20
783.1598937988
 30
0.0
 11
1731.9352539063
 21
783.1598937988
 31
0.0
  0
LINE
  5
201
100
AcDbEntity
  8
ﾚｲﾔｰ1
 62
         2
100
AcDbLine
 10
1741.0705078125
 20
586.1598937988
 30
0.0
 11
1757.0705078125
 21
586.1598937988
 31
0.0
  0
LINE
  5
202
100
AcDbEntity
  8
ﾚｲﾔｰ1
100
AcDbLine
 10
1741.0705078125
 20
466.1598937988
 30
0.0
 11
1741.0705078125
 21
631.1598937988
 31
0.0
  0
LINE
  5
203
100
AcDbEntity
  8
ﾚｲﾔｰ1
100
AcDbLine
 10
1741.0705078125
 20
631.1598937988
 30
0.0
 11
1757.0705078125
 21
631.1598937988
 31
0.0
  0
LINE
  5
204
100
AcDbEntity
  8
ﾚｲﾔｰ1
100
AcDbLine
 10
1757.0705078125
 20
631.1598937988
 30
0.0
 11
1757.0705078125
 21
466.1598937988
 31
0.0
  0
LINE
  5
205
100
AcDbEntity
  8
ﾚｲﾔｰ1
100
AcDbLine
 10
1757.0705078125
 20
466.1598937988
 30
0.0
 11
1741.0705078125
 21
466.1598937988
 31
0.0
  0
LINE
  5
206
100
AcDbEntity
  8
ﾚｲﾔｰ1
 62
         2
100
AcDbLine
 10
1741.0705078125
 20
812.1598937988
 30
0.0
 11
1757.0705078125
 21
812.1598937988
 31
0.0
  0
LINE
  5
207
100
AcDbEntity
  8
ﾚｲﾔｰ1
100
AcDbLine
 10
1741.0705078125
 20
767.1598937988
 30
0.0
 11
1757.0705078125
 21
767.1598937988
 31
0.0
  0
LINE
  5
208
100
AcDbEntity
  8
ﾚｲﾔｰ1
 62
         2
100
AcDbLine
 10
1977.8
 20
631.1598937988
 30
0.0
 11
1727.8
 21
631.1598937988
 31
0.0
  0
LINE
  5
209
100
AcDbEntity
  8
ﾚｲﾔｰ1
 62
         2
100
AcDbLine
 10
1702.8
 20
606.1598937988
 30
0.0
 11
1702.8
 21
481.1598937988
 31
0.0
  0
ARC
  5
20A
100
AcDbEntity
  8
ﾚｲﾔｰ1
100
AcDbCircle
 10
1727.8
 20
606.1598937988
 30
0.0
 40
25.0
210
0.0
220
0.0
230
1.0
100
AcDbArc
 50
90.0
 51
180.0
  0
LINE
  5
20B
100
AcDbEntity
  8
ﾚｲﾔｰ1
  6
BORDER
 62
         3
100
AcDbLine
 10
1665.3173746745
 20
531.1598937988
 30
0.0
 11
1778.553133138
 21
531.1598937988
 31
0.0
  0
LINE
  5
20C
100
AcDbEntity
  8
ﾚｲﾔｰ1
  6
BORDER
 62
         3
100
AcDbLine
 10
1720.8133463542
 20
531.1598937988
 30
0.0
 11
1778.6452148438
 21
531.1598937988
 31
0.0
  0
LINE
  5
20D
100
AcDbEntity
  8
ﾚｲﾔｰ1
  6
BORDER
 62
         3
100
AcDbLine
 10
1720.8133463542
 20
867.1598937988
 30
0.0
 11
1778.6452148438
 21
867.1598937988
 31
0.0
  0
LINE
  5
20E
100
AcDbEntity
  8
ﾚｲﾔｰ1
  6
BORDER
 62
         3
100
AcDbLine
 10
1665.3173746745
 20
867.1598937988
 30
0.0
 11
1778.553133138
 21
867.1598937988
 31
0.0
  0
ARC
  5
20F
100
AcDbEntity
  8
ﾚｲﾔｰ1
100
AcDbCircle
 10
-1727.8
 20
792.1598937988
 30
0.0
 40
25.0
210
0.0
220
0.0
230
-1.0
100
AcDbArc
 50
270.0
 51
0.0
  0
LINE
  5
210
100
AcDbEntity
  8
ﾚｲﾔｰ1
  6
BORDER
 62
         3
100
AcDbLine
 10
1676.8240071615
 20
221.0739562988
 30
0.0
 11
1790.059765625
 21
221.0739562988
 31
0.0
  0
LINE
  5
211
100
AcDbEntity
  8
ﾚｲﾔｰ1
 62
         2
100
AcDbLine
 10
1702.8
 20
173.5739562988
 30
0.0
 11
1741.0705078125
 21
173.5739562988
 31
0.0
  0
LINE
  5
212
100
AcDbEntity
  8
ﾚｲﾔｰ1
100
AcDbLine
 10
1950.8
 20
181.0739562988
 30
0.0
 11
1973.8
 21
221.0739562988
 31
0.0
  0
CIRCLE
  5
213
100
AcDbEntity
  8
ﾚｲﾔｰ1
100
AcDbCircle
 10
1927.8
 20
221.0739562988
 30
0.0
 40
40.0
210
0.0
220
0.0
230
1.0
  0
LINE
  5
214
100
AcDbEntity
  8
ﾚｲﾔｰ1
100
AcDbLine
 10
1950.8
 20
261.0739562988
 30
0.0
 11
1904.8
 21
261.0739562988
 31
0.0
  0
LINE
  5
215
100
AcDbEntity
  8
ﾚｲﾔｰ1
100
AcDbLine
 10
1881.8
 20
221.0739562988
 30
0.0
 11
1904.8
 21
181.0739562988
 31
0.0
  0
LINE
  5
216
100
AcDbEntity
  8
ﾚｲﾔｰ1
100
AcDbLine
 10
1904.8
 20
261.0739562988
 30
0.0
 11
1881.8
 21
221.0739562988
 31
0.0
  0
LINE
  5
217
100
AcDbEntity
  8
ﾚｲﾔｰ1
 62
         2
100
AcDbLine
 10
1962.8
 20
268.5739562988
 30
0.0
 11
1977.8
 21
253.5739562988
 31
0.0
  0
LINE
  5
218
100
AcDbEntity
  8
ﾚｲﾔｰ1
 62
         2
100
AcDbLine
 10
1977.8
 20
188.5739562988
 30
0.0
 11
1977.8
 21
253.5739562988
 31
0.0
  0
LINE
  5
219
100
AcDbEntity
  8
ﾚｲﾔｰ1
  6
BORDER
 62
         3
100
AcDbLine
 10
1894.3240071615
 20
221.0739562988
 30
0.0
 11
1961.2759928385
 21
221.0739562988
 31
0.0
  0
LINE
  5
21A
100
AcDbEntity
  8
ﾚｲﾔｰ1
  6
BORDER
 62
         3
100
AcDbLine
 10
1927.8
 20
184.2601542155
 30
0.0
 11
1927.8
 21
257.8877583822
 31
0.0
  0
LINE
  5
21B
100
AcDbEntity
  8
ﾚｲﾔｰ1
  6
BORDER
 62
         3
100
AcDbLine
 10
1927.8
 20
541.2380187988
 30
0.0
 11
1927.8
 21
844.4813781739
 31
0.0
  0
CIRCLE
  5
21C
100
AcDbEntity
  8
ﾚｲﾔｰ1
100
AcDbCircle
 10
1749.0705078125
 20
699.1598937988
 30
0.0
 40
68.0
210
0.0
220
0.0
230
1.0
  0
CIRCLE
  5
21D
100
AcDbEntity
  8
ﾚｲﾔｰ1
100
AcDbCircle
 10
1749.0705078125
 20
699.1598937988
 30
0.0
 40
60.0
210
0.0
220
0.0
230
1.0
  0
LINE
  5
21E
100
AcDbEntity
  8
ﾚｲﾔｰ1
100
AcDbLine
 10
1893.3
 20
831.6975240072
 30
0.0
 11
1962.3
 21
831.6975240072
 31
0.0
  0
ARC
  5
21F
100
AcDbEntity
  8
ﾚｲﾔｰ1
100
AcDbCircle
 10
1893.3
 20
814.6975240072
 30
0.0
 40
17.0
210
0.0
220
0.0
230
1.0
100
AcDbArc
 50
47.3
 51
132.7000000001
  0
LINE
  5
220
100
AcDbEntity
  8
ﾚｲﾔｰ1
100
AcDbLine
 10
1904.8
 20
631.1598937988
 30
0.0
 11
1904.8
 21
767.1598937988
 31
0.0
  0
LINE
  5
221
100
AcDbEntity
  8
ﾚｲﾔｰ1
100
AcDbLine
 10
1949.5874637477
 20
627.5750040094
 30
0.0
 11
1949.5874637477
 21
763.5750040094
 31
0.0
  0
LINE
  5
222
100
AcDbEntity
  8
ﾚｲﾔｰ1
 62
         2
100
AcDbLine
 10
1977.8
 20
783.1598937988
 30
0.0
 11
1977.8
 21
767.1598937988
 31
0.0
  0
LINE
  5
223
100
AcDbEntity
  8
ﾚｲﾔｰ1
 62
         2
100
AcDbLine
 10
1977.8
 20
615.1598937988
 30
0.0
 11
1977.8
 21
631.1598937988
 31
0.0
  0
CIRCLE
  5
224
100
AcDbEntity
  8
ﾚｲﾔｰ1
100
AcDbCircle
 10
1927.8
 20
699.1598937988
 30
0.0
 40
60.0
210
0.0
220
0.0
230
1.0
  0
LINE
  5
225
100
AcDbEntity
  8
ﾚｲﾔｰ1
100
AcDbLine
 10
1881.8
 20
783.1598937988
 30
0.0
 11
1973.8
 21
783.1598937988
 31
0.0
  0
INSERT
  5
227
100
AcDbEntity
  8
0
100
AcDbBlockReference
  2
CLUMP4
 10
0.0
 20
0.0
 30
0.0
  0
LINE
  5
231
100
AcDbEntity
  8
ﾚｲﾔｰ1
 62
         2
100
AcDbLine
 10
1977.8
 20
767.1598937988
 30
0.0
 11
1727.8
 21
767.1598937988
 31
0.0
  0
LINE
  5
232
100
AcDbEntity
  8
ﾚｲﾔｰ1
 62
         2
100
AcDbLine
 10
1718.8
 20
268.5739562988
 30
0.0
 11
1718.8
 21
173.5739562988
 31
0.0
  0
LINE
  5
233
100
AcDbEntity
  8
ﾚｲﾔｰ1
 62
         2
100
AcDbLine
 10
1757.0705078125
 20
268.5739562988
 30
0.0
 11
1757.0705078125
 21
118.5739562988
 31
0.0
  0
LINE
  5
234
100
AcDbEntity
  8
ﾚｲﾔｰ1
100
AcDbLine
 10
1950.8
 20
783.1598937988
 30
0.0
 11
1950.8
 21
827.1975240072
 31
0.0
  0
LINE
  5
235
100
AcDbEntity
  8
ﾚｲﾔｰ1
100
AcDbLine
 10
638.0
 20
1262.7470928737
 30
0.0
 11
665.2
 21
1262.7470928737
 31
0.0
  0
DIMENSION
  5
246
100
AcDbEntity
  8
寸法線
 62
         3
100
AcDbDimension
  2
*D16
 10
815.2
 20
1262.7470928737
 30
0.0
 11
815.2
 21
1339.1470928737
 31
0.0
 70
       128
210
0.0
220
0.0
230
1.0
  1
153
  3
VELDIM0
100
AcDbAlignedDimension
 13
665.2
 23
1262.7470928737
 33
0.0
 14
665.2
 24
1415.5470928737
 34
0.0
 50
90.0
100
AcDbRotatedDimension
  0
CIRCLE
  5
247
100
AcDbEntity
  8
ﾚｲﾔｰ1
100
AcDbCircle
 10
1927.8
 20
699.1598937988
 30
0.0
 40
68.0
210
0.0
220
0.0
230
1.0
  0
DIMENSION
  5
258
100
AcDbEntity
  8
寸法線
 62
         3
100
AcDbDimension
  2
*D17
 10
2180.8099029541
 20
173.5739562988
 30
0.0
 11
2180.8099029541
 21
221.0739562988
 31
0.0
 70
       128
210
0.0
220
0.0
230
1.0
  1
19
  3
VELDIM0
100
AcDbAlignedDimension
 13
1962.8
 23
173.5739562988
 33
0.0
 14
1962.8
 24
268.5739562988
 34
0.0
 50
90.0
100
AcDbRotatedDimension
  0
LINE
  5
259
100
AcDbEntity
  8
ﾚｲﾔｰ1
  6
BORDER
 62
         3
100
AcDbLine
 10
1636.2091796875
 20
699.1598937988
 30
0.0
 11
2055.6958333333
 21
699.1598937988
 31
0.0
  0
ARC
  5
25A
100
AcDbEntity
  8
ﾚｲﾔｰ1
100
AcDbCircle
 10
1927.8
 20
770.6975240072
 30
0.0
 40
61.0
210
0.0
220
0.0
230
1.0
100
AcDbArc
 50
67.9
 51
112.1
  0
ARC
  5
25B
100
AcDbEntity
  8
ﾚｲﾔｰ1
100
AcDbCircle
 10
-1893.3
 20
600.1598937988
 30
0.0
 40
17.0
210
0.0
220
0.0
230
-1.0
100
AcDbArc
 50
227.2999999999
 51
312.7000000001
  0
LINE
  5
25C
100
AcDbEntity
  8
ﾚｲﾔｰ1
100
AcDbLine
 10
1893.3
 20
583.1598937989
 30
0.0
 11
1962.3
 21
583.1598937989
 31
0.0
  0
ARC
  5
25D
100
AcDbEntity
  8
ﾚｲﾔｰ1
100
AcDbCircle
 10
-1927.8
 20
644.1598937988
 30
0.0
 40
61.0
210
0.0
220
0.0
230
-1.0
100
AcDbArc
 50
247.9
 51
292.1
  0
LINE
  5
25E
100
AcDbEntity
  8
ﾚｲﾔｰ1
100
AcDbLine
 10
1950.8
 20
615.1598937988
 30
0.0
 11
1950.8
 21
587.6598937988
 31
0.0
  0
ELLIPSE
  5
25F
100
AcDbEntity
  8
ﾚｲﾔｰ1
100
AcDbEllipse
 10
1962.3
 20
600.1598937988
 30
0.0
 11
-12.493548117549317
 21
-11.528714387757201
 31
0.0
210
0.0
220
0.0
230
-1.0
 40
1.0
 41
-1.5707963267948966
 42
-0.0802851455897389
  0
LINE
  5
260
100
AcDbEntity
  8
ﾚｲﾔｰ1
100
AcDbLine
 10
1973.8
 20
615.1598937988
 30
0.0
 11
1973.8
 21
587.6598937988
 31
0.0
  0
LINE
  5
261
100
AcDbEntity
  8
ﾚｲﾔｰ1
100
AcDbLine
 10
1881.8
 20
587.6598937988
 30
0.0
 11
1881.8
 21
615.1598937988
 31
0.0
  0
LINE
  5
262
100
AcDbEntity
  8
ﾚｲﾔｰ1
100
AcDbLine
 10
1881.8
 20
615.1598937988
 30
0.0
 11
1973.8
 21
615.1598937988
 31
0.0
  0
LINE
  5
263
100
AcDbEntity
  8
ﾚｲﾔｰ1
100
AcDbLine
 10
1904.8
 20
615.1598937988
 30
0.0
 11
1904.8
 21
587.6598937988
 31
0.0
  0
LINE
  5
264
100
AcDbEntity
  8
ﾚｲﾔｰ1
100
AcDbLine
 10
1904.8
 20
783.1598937988
 30
0.0
 11
1904.8
 21
827.1975240072
 31
0.0
  0
LINE
  5
265
100
AcDbEntity
  8
ﾚｲﾔｰ1
100
AcDbLine
 10
1881.8
 20
827.1975240072
 30
0.0
 11
1881.8
 21
783.1598937988
 31
0.0
  0
LINE
  5
266
100
AcDbEntity
  8
ﾚｲﾔｰ1
100
AcDbLine
 10
1973.8
 20
783.1598937988
 30
0.0
 11
1973.8
 21
827.1975240072
 31
0.0
  0
ELLIPSE
  5
267
100
AcDbEntity
  8
ﾚｲﾔｰ1
100
AcDbEllipse
 10
1962.3
 20
814.6975240072
 30
0.0
 11
-12.493548117549317
 21
11.528714387757198
 31
0.0
210
0.0
220
0.0
230
1.0
 40
1.0
 41
-1.5707963267948966
 42
-0.0802851455897389
  0
LINE
  5
268
100
AcDbEntity
  8
ﾚｲﾔｰ1
 62
         2
100
AcDbLine
 10
1702.8
 20
268.5739562988
 30
0.0
 11
1702.8
 21
173.5739562988
 31
0.0
  0
LINE
  5
269
100
AcDbEntity
  8
ﾚｲﾔｰ1
 62
         2
100
AcDbLine
 10
1757.0705078125
 20
173.5739562988
 30
0.0
 11
1962.8
 21
173.5739562988
 31
0.0
  0
LINE
  5
26A
100
AcDbEntity
  8
ﾚｲﾔｰ1
 62
         2
100
AcDbLine
 10
1962.8
 20
268.5739562988
 30
0.0
 11
1702.8
 21
268.5739562988
 31
0.0
  0
LINE
  5
26B
100
AcDbEntity
  8
ﾚｲﾔｰ1
 62
         2
100
AcDbLine
 10
1977.8
 20
188.5739562988
 30
0.0
 11
1962.8
 21
173.5739562988
 31
0.0
  0
LINE
  5
26C
100
AcDbEntity
  8
ﾚｲﾔｰ1
100
AcDbLine
 10
1904.8
 20
181.0739562988
 30
0.0
 11
1950.8
 21
181.0739562988
 31
0.0
  0
LINE
  5
26D
100
AcDbEntity
  8
ﾚｲﾔｰ1
100
AcDbLine
 10
1973.8
 20
221.0739562988
 30
0.0
 11
1950.8
 21
261.0739562988
 31
0.0
  0
LINE
  5
26E
100
AcDbEntity
  8
ﾚｲﾔｰ1
100
AcDbLine
 10
672.7
 20
3018.0470928737
 30
0.0
 11
672.7
 21
2255.2470928737
 31
0.0
  0
INSERT
  5
270
100
AcDbEntity
  8
0
100
AcDbBlockReference
  2
CLUMP5
 10
0.0
 20
0.0
 30
0.0
  0
LINE
  5
27F
100
AcDbEntity
  8
ﾚｲﾔｰ1
100
AcDbLine
 10
677.7
 20
3013.0470928737
 30
0.0
 11
677.7
 21
2260.2470928737
 31
0.0
  0
INSERT
  5
281
100
AcDbEntity
  8
0
100
AcDbBlockReference
  2
CLUMP6
 10
0.0
 20
0.0
 30
0.0
  0
LINE
  5
290
100
AcDbEntity
  8
ﾚｲﾔｰ1
100
AcDbLine
 10
2398.3
 20
3013.0470928737
 30
0.0
 11
2398.3
 21
2260.2470928737
 31
0.0
  0
LINE
  5
291
100
AcDbEntity
  8
ﾚｲﾔｰ1
100
AcDbLine
 10
2398.3
 20
2260.2470928737
 30
0.0
 11
2398.3
 21
3013.0470928737
 31
0.0
  0
LINE
  5
292
100
AcDbEntity
  8
ﾚｲﾔｰ1
100
AcDbLine
 10
2403.3
 20
2255.2470928737
 30
0.0
 11
2403.3
 21
3018.0470928737
 31
0.0
  0
HATCH
  5
293
100
AcDbEntity
  8
0
100
AcDbHatch
 10
0.0
 20
0.0
 30
0.0
210
0.0
220
0.0
230
1.0
  2
ANSI31
 70
         0
 71
         1
 91
        1
 92
        1
 93
        4
 72
         1
 10
3264.4781250000001
 20
2260.2470928737348
 11
3264.4781250000001
 21
3013.0470928737413
 72
         1
 10
3264.4781250000001
 20
3013.0470928737413
 11
4092.2781249999989
 21
3013.0470928737413
 72
         1
 10
4092.2781249999989
 20
3013.0470928737413
 11
4092.2781249999989
 21
2260.2470928737348
 72
         1
 10
4092.2781249999989
 20
2260.2470928737348
 11
3264.4781250000001
 21
2260.2470928737348
 97
        0
 75
         0
 76
         1
 52
44.9999992324
 41
-85.5
 77
         0
 78
         1
 53
44.9999992324
 43
0.0
 44
0.0
 45
-85.5
 46
85.5
 79
         0
 98
        1
 10
0.0
 20
0.0
  0
INSERT
  5
295
100
AcDbEntity
  8
0
100
AcDbBlockReference
  2
CLUMP7
 10
0.0
 20
0.0
 30
0.0
  0
LINE
  5
2A4
100
AcDbEntity
  8
ﾚｲﾔｰ1
100
AcDbLine
 10
3264.478125
 20
2260.2470928737
 30
0.0
 11
3264.478125
 21
3013.0470928737
 31
0.0
  0
LINE
  5
2A5
100
AcDbEntity
  8
ﾚｲﾔｰ1
100
AcDbLine
 10
3264.478125
 20
3013.0470928737
 30
0.0
 11
3264.478125
 21
2260.2470928737
 31
0.0
  0
LINE
  5
2A6
100
AcDbEntity
  8
ﾚｲﾔｰ1
100
AcDbLine
 10
3259.478125
 20
3018.0470928737
 30
0.0
 11
3259.478125
 21
2255.2470928737
 31
0.0
  0
LINE
  5
2A7
100
AcDbEntity
  8
ﾚｲﾔｰ1
100
AcDbLine
 10
4131.978125
 20
3025.5470928737
 30
0.0
 11
4131.978125
 21
2239.5470928737
 31
0.0
  0
LINE
  5
2A8
100
AcDbEntity
  8
ﾚｲﾔｰ1
100
AcDbLine
 10
4092.278125
 20
2260.2470928737
 30
0.0
 11
4092.278125
 21
3013.0470928737
 31
0.0
  0
LINE
  5
2A9
100
AcDbEntity
  8
ﾚｲﾔｰ1
100
AcDbLine
 10
4097.278125
 20
2255.2470928737
 30
0.0
 11
4097.278125
 21
3018.0470928737
 31
0.0
  0
INSERT
  5
2AB
100
AcDbEntity
  8
0
100
AcDbBlockReference
  2
CLUMP8
 10
0.0
 20
0.0
 30
0.0
  0
LINE
  5
2BA
100
AcDbEntity
  8
ﾚｲﾔｰ1
100
AcDbLine
 10
4092.278125
 20
3013.0470928737
 30
0.0
 11
4092.278125
 21
2260.2470928737
 31
0.0
  0
LINE
  5
2BB
100
AcDbEntity
  8
ﾚｲﾔｰ1
100
AcDbLine
 10
4989.1080078125
 20
3017.7470928737
 30
0.0
 11
4989.1080078125
 21
2239.5470928737
 31
0.0
  0
DIMENSION
  5
2CC
100
AcDbEntity
  8
寸法線
 62
         3
100
AcDbDimension
  2
*D22
 10
747.7929127464
 20
631.1598937988
 30
0.0
 11
747.7929127464
 21
548.6598937988
 31
0.0
 70
       128
210
0.0
220
0.0
230
1.0
  1
33
  3
VELDIM0
100
AcDbAlignedDimension
 13
897.7929127464
 23
631.1598937988
 33
0.0
 14
1016.111328125
 24
466.1598937988
 34
0.0
 50
90.0
100
AcDbRotatedDimension
  0
DIMENSION
  5
2DD
100
AcDbEntity
  8
寸法線
 62
         3
100
AcDbDimension
  2
*D23
 10
747.7929127464
 20
767.1598937988
 30
0.0
 11
747.7929127464
 21
699.1598937988
 31
0.0
 70
       128
210
0.0
220
0.0
230
1.0
  1
27.2
  3
VELDIM0
100
AcDbAlignedDimension
 13
940.2015148969
 23
767.1598937988
 33
0.0
 14
897.7929127464
 24
631.1598937988
 34
0.0
 50
90.0
100
AcDbRotatedDimension
  0
LINE
  5
2DE
100
AcDbEntity
  8
ﾚｲﾔｰ1
  6
DIVIDE
 62
         4
100
AcDbLine
 10
954.2201734762
 20
812.1162816564
 30
0.0
 11
881.7201734762
 21
579.6162816564
 31
0.0
  0
LINE
  5
2DF
100
AcDbEntity
  8
ﾚｲﾔｰ1
 62
         2
100
AcDbLine
 10
765.2
 20
1457.7470928737
 30
0.0
 11
765.2
 21
1442.7470928737
 31
0.0
  0
LINE
  5
2E0
100
AcDbEntity
  8
ﾚｲﾔｰ1
 62
         2
100
AcDbLine
 10
785.2
 20
1457.7470928737
 30
0.0
 11
765.2
 21
1457.7470928737
 31
0.0
  0
LINE
  5
2E1
100
AcDbEntity
  8
ﾚｲﾔｰ1
 62
         2
100
AcDbLine
 10
785.2
 20
1442.7470928737
 30
0.0
 11
785.2
 21
1457.7470928737
 31
0.0
  0
LINE
  5
2E2
100
AcDbEntity
  8
ﾚｲﾔｰ1
 62
         2
100
AcDbLine
 10
765.2
 20
1442.7470928737
 30
0.0
 11
785.2
 21
1442.7470928737
 31
0.0
  0
HATCH
  5
2E3
100
AcDbEntity
  8
0
100
AcDbHatch
 10
0.0
 20
0.0
 30
0.0
210
0.0
220
0.0
230
1.0
  2
ANSI31
 70
         0
 71
         1
 91
        1
 92
        1
 93
        4
 72
         1
 10
677.70000000000073
 20
2260.2470928737348
 11
677.70000000000073
 21
3013.0470928737413
 72
         1
 10
677.70000000000073
 20
3013.0470928737413
 11
2398.2999999999993
 21
3013.0470928737413
 72
         1
 10
2398.2999999999993
 20
3013.0470928737413
 11
2398.2999999999993
 21
2260.2470928737348
 72
         1
 10
2398.2999999999993
 20
2260.2470928737348
 11
677.70000000000073
 21
2260.2470928737348
 97
        0
 75
         0
 76
         1
 52
44.9999992324
 41
-85.5
 77
         0
 78
         1
 53
44.9999992324
 43
0.0
 44
0.0
 45
-85.5
 46
85.5
 79
         0
 98
        1
 10
0.0
 20
0.0
  0
MTEXT
  5
2E4
100
AcDbEntity
  8
ﾚｲﾔｰ1
100
AcDbMText
 10
3790.628125
 20
831.6747451782
 30
0.0
 40
62.970835495
 41
1890.8743229167
 71
         1
 72
         1
  1
\W0.8;\fＭＳ ゴシック;\W1.0;パイプは亜鉛引き鋼管　φ27.2×1.6ｔ Z27
  0
MTEXT
  5
2E5
100
AcDbEntity
  8
ﾚｲﾔｰ1
100
AcDbMText
 10
3790.628125
 20
688.8854227702
 30
0.0
 40
62.970835495
 41
1627.2997135417
 71
         1
 72
         1
  1
\W0.8;\fＭＳ ゴシック;\W1.0;ネットは亜鉛菱形金網　56×2.3t  G2
  0
LINE
  5
2E6
100
AcDbEntity
  8
ﾚｲﾔｰ1
100
AcDbLine
 10
3788.5114583333
 20
755.4747385661
 30
0.0
 11
5278.5640625
 21
755.4747385661
 31
0.0
  0
LINE
  5
2E7
100
AcDbEntity
  8
ﾚｲﾔｰ1
100
AcDbLine
 10
3788.5114583333
 20
614.5067774455
 30
0.0
 11
5203.5546875
 21
614.5067774455
 31
0.0
  0
LINE
  5
2E8
100
AcDbEntity
  8
ﾚｲﾔｰ1
100
AcDbLine
 10
5686.0304012803
 20
304.0369387448
 30
0.0
 11
3792.9399898577
 21
304.0337268686
 31
0.0
  0
LINE
  5
2E9
100
AcDbEntity
  8
ﾚｲﾔｰ1
100
AcDbLine
 10
5686.0304012803
 20
142.3961078804
 30
0.0
 11
3792.9399898577
 21
142.3961078804
 31
0.0
  0
LINE
  5
2EA
100
AcDbEntity
  8
ﾚｲﾔｰ1
100
AcDbLine
 10
3792.9399898577
 20
448.8611250333
 30
0.0
 11
5686.0304012803
 21
448.8611250333
 31
0.0
  0
LINE
  5
2EB
100
AcDbEntity
  8
ﾚｲﾔｰ1
100
AcDbLine
 10
3251.978125
 20
1442.7470928737
 30
0.0
 11
4997.578125
 21
1442.7470928737
 31
0.0
  0
LINE
  5
2EC
100
AcDbEntity
  8
ﾚｲﾔｰ1
100
AcDbLine
 10
3251.978125
 20
1415.5470928737
 30
0.0
 11
4997.578125
 21
1415.5470928737
 31
0.0
  0
DIMENSION
  5
2FD
100
AcDbEntity
  8
寸法線
 62
         3
100
AcDbDimension
  2
*D24
 10
3224.778125
 20
1112.7470928737
 30
0.0
 11
4124.778125
 21
1112.7470928737
 31
0.0
 70
       128
210
0.0
220
0.0
230
1.0
  1
<>
  3
VELDIM0
100
AcDbAlignedDimension
 13
3224.778125
 23
1262.7470928737
 33
0.0
 14
5024.778125
 24
1262.7470928737
 34
0.0
 50
180.0
100
AcDbRotatedDimension
  0
MTEXT
  5
2FE
100
AcDbEntity
  8
ﾚｲﾔｰ1
100
AcDbMText
 10
3922.3224824687
 20
269.6792780203
 30
0.0
 40
79.7077921233
 41
2026.7709410528
 71
         1
 72
         1
  1
\W0.8;\fＭＳ ゴシック;\W1.0;ＮＫフェンスバリケード（潜り戸つき）
  0
MTEXT
  5
2FF
100
AcDbEntity
  8
ﾚｲﾔｰ1
100
AcDbMText
 10
3853.0006751633
 20
99.7304014056
 30
0.0
 40
85.8545764057
 41
963.9654057028
 71
         1
 72
         1
  1
\W0.8;\fＭＳ ゴシック;\W1.0;日本機電株式会社
  0
MTEXT
  5
300
100
AcDbEntity
  8
ﾚｲﾔｰ1
100
AcDbMText
 10
4019.1614775449
 20
407.4657730277
 30
0.0
 40
58.695948806
 41
210.1015086201
 71
         1
 72
         1
  1
\W0.8;\fＭＳ Ｐゴシック;\W1.0;1/20
  0
MTEXT
  5
301
100
AcDbEntity
  8
ﾚｲﾔｰ1
100
AcDbMText
 10
3410.3677083333
 20
3513.6947957357
 30
0.0
 40
80.9625
 41
1771.8505208333
 71
         1
 72
         1
  1
\W0.8;\fＭＳ ゴシック;\W1.0;フェンスバリケード　潜り戸つき
  0
LINE
  5
302
100
AcDbEntity
  8
ﾚｲﾔｰ1
100
AcDbLine
 10
4841.3052083333
 20
3416.328125
 30
0.0
 11
3408.2510416667
 21
3416.328125
 31
0.0
  0
LINE
  5
303
100
AcDbEntity
  8
ﾚｲﾔｰ1
100
AcDbLine
 10
3408.2510416667
 20
3515.8114624023
 30
0.0
 11
4841.3052083333
 21
3515.8114624023
 31
0.0
  0
LINE
  5
304
100
AcDbEntity
  8
ﾚｲﾔｰ1
100
AcDbLine
 10
4997.578125
 20
3052.7470928737
 30
0.0
 11
3251.978125
 21
3052.7470928737
 31
0.0
  0
LINE
  5
305
100
AcDbEntity
  8
ﾚｲﾔｰ1
100
AcDbLine
 10
4997.578125
 20
3025.5470928737
 30
0.0
 11
3251.978125
 21
3025.5470928737
 31
0.0
  0
LINE
  5
306
100
AcDbEntity
  8
ﾚｲﾔｰ1
100
AcDbLine
 10
1741.0705078125
 20
932.1598937988
 30
0.0
 11
1741.0705078125
 21
767.1598937988
 31
0.0
  0
INSERT
  5
308
100
AcDbEntity
  8
0
100
AcDbBlockReference
  2
CLUMP9
 10
0.0
 20
0.0
 30
0.0
  0
LINE
  5
312
100
AcDbEntity
  8
ﾚｲﾔｰ1
 62
         2
100
AcDbLine
 10
1702.8
 20
792.1598937988
 30
0.0
 11
1702.8
 21
917.1598937988
 31
0.0
  0
LINE
  5
313
100
AcDbEntity
  8
ﾚｲﾔｰ1
100
AcDbLine
 10
1757.0705078125
 20
767.1598937988
 30
0.0
 11
1757.0705078125
 21
932.1598937988
 31
0.0
  0
LINE
  5
314
100
AcDbEntity
  8
ﾚｲﾔｰ1
 62
         2
100
AcDbLine
 10
1721.9352539063
 20
793.1598937988
 30
0.0
 11
1721.9352539063
 21
917.1598937988
 31
0.0
  0
LINE
  5
315
100
AcDbEntity
  8
ﾚｲﾔｰ1
100
AcDbLine
 10
677.7
 20
2260.2470928737
 30
0.0
 11
677.7
 21
3013.0470928737
 31
0.0
  0
LINE
  5
316
100
AcDbEntity
  8
ﾚｲﾔｰ1
100
AcDbLine
 10
672.7
 20
1450.2470928737
 30
0.0
 11
2403.3
 21
1450.2470928737
 31
0.0
  0
LINE
  5
317
100
AcDbEntity
  8
ﾚｲﾔｰ1
100
AcDbLine
 10
665.2
 20
1415.5470928737
 30
0.0
 11
2410.8
 21
1415.5470928737
 31
0.0
  0
LINE
  5
318
100
AcDbEntity
  8
ﾚｲﾔｰ1
100
AcDbLine
 10
665.2
 20
1442.7470928737
 30
0.0
 11
2410.8
 21
1442.7470928737
 31
0.0
  0
DIMENSION
  5
329
100
AcDbEntity
  8
寸法線
 62
         3
100
AcDbDimension
  2
*D26
 10
638.0
 20
1112.7470928737
 30
0.0
 11
1538.0
 21
1112.7470928737
 31
0.0
 70
       128
210
0.0
220
0.0
230
1.0
  1
<>
  3
VELDIM0
100
AcDbAlignedDimension
 13
638.0
 23
1262.7470928737
 33
0.0
 14
2438.0
 24
1262.7470928737
 34
0.0
 50
180.0
100
AcDbRotatedDimension
  0
INSERT
  5
32B
100
AcDbEntity
  8
0
100
AcDbBlockReference
  2
CLUMP10
 10
0.0
 20
0.0
 30
0.0
  0
LINE
  5
33A
100
AcDbEntity
  8
ﾚｲﾔｰ1
100
AcDbLine
 10
897.7929127464
 20
631.1598937988
 30
0.0
 11
1231.2709814577
 21
631.1598937988
 31
0.0
  0
LINE
  5
33B
100
AcDbEntity
  8
ﾚｲﾔｰ1
100
AcDbLine
 10
1233.7656051136
 20
639.1598937988
 30
0.0
 11
900.2875364023
 21
639.1598937988
 31
0.0
  0
LINE
  5
33C
100
AcDbEntity
  8
ﾚｲﾔｰ1
100
AcDbLine
 10
1271.1849599523
 20
759.1598937988
 30
0.0
 11
937.706891241
 21
759.1598937988
 31
0.0
  0
LINE
  5
33D
100
AcDbEntity
  8
ﾚｲﾔｰ1
100
AcDbLine
 10
1273.6795836083
 20
767.1598937988
 30
0.0
 11
940.2015148969
 21
767.1598937988
 31
0.0
  0
INSERT
  5
33F
100
AcDbEntity
  8
0
100
AcDbBlockReference
  2
CLUMP11
 10
0.0
 20
0.0
 30
0.0
  0
LINE
  5
34E
100
AcDbEntity
  8
ﾚｲﾔｰ1
  6
BORDER
 62
         3
100
AcDbLine
 10
874.1358856967
 20
699.1598937988
 30
0.0
 11
1340.0505992383
 21
699.1598937988
 31
0.0
  0
DIMENSION
  5
35F
100
AcDbEntity
  8
寸法線
 62
         3
100
AcDbDimension
  2
*D29
 10
1001.111328125
 20
249.6472595215
 30
0.0
 11
1076.111328125
 21
249.6472595215
 31
0.0
 70
       128
210
0.0
220
0.0
230
1.0
  1
30
  3
VELDIM0
100
AcDbAlignedDimension
 13
1001.111328125
 23
481.1598937988
 33
0.0
 14
1151.111328125
 24
481.1598937988
 34
0.0
 50
180.0
100
AcDbRotatedDimension
  0
LINE
  5
360
100
AcDbEntity
  8
ﾚｲﾔｰ1
100
AcDbLine
 10
2403.3
 20
2208.0470928737
 30
0.0
 11
672.7
 21
2208.0470928737
 31
0.0
  0
LINE
  5
361
100
AcDbEntity
  8
ﾚｲﾔｰ1
100
AcDbLine
 10
2403.3
 20
2213.0470928737
 30
0.0
 11
672.7
 21
2213.0470928737
 31
0.0
  0
LINE
  5
362
100
AcDbEntity
  8
ﾚｲﾔｰ1
100
AcDbLine
 10
677.7
 20
2208.0470928737
 30
0.0
 11
2398.3
 21
2208.0470928737
 31
0.0
  0
LINE
  5
363
100
AcDbEntity
  8
ﾚｲﾔｰ1
100
AcDbLine
 10
2398.3
 20
2260.2470928737
 30
0.0
 11
677.7
 21
2260.2470928737
 31
0.0
  0
LINE
  5
364
100
AcDbEntity
  8
ﾚｲﾔｰ1
100
AcDbLine
 10
672.7
 20
2260.2470928737
 30
0.0
 11
2403.3
 21
2260.2470928737
 31
0.0
  0
LINE
  5
365
100
AcDbEntity
  8
ﾚｲﾔｰ1
100
AcDbLine
 10
672.7
 20
2255.2470928737
 30
0.0
 11
2403.3
 21
2255.2470928737
 31
0.0
  0
LINE
  5
366
100
AcDbEntity
  8
ﾚｲﾔｰ1
100
AcDbLine
 10
2410.8
 20
3052.7470928737
 30
0.0
 11
665.2
 21
3052.7470928737
 31
0.0
  0
LINE
  5
367
100
AcDbEntity
  8
ﾚｲﾔｰ1
100
AcDbLine
 10
2403.3
 20
3018.0470928737
 30
0.0
 11
672.7
 21
3018.0470928737
 31
0.0
  0
LINE
  5
368
100
AcDbEntity
  8
ﾚｲﾔｰ1
100
AcDbLine
 10
677.7
 20
3013.0470928737
 30
0.0
 11
2398.3
 21
3013.0470928737
 31
0.0
  0
LINE
  5
369
100
AcDbEntity
  8
ﾚｲﾔｰ1
100
AcDbLine
 10
665.2
 20
2247.7470928737
 30
0.0
 11
2410.8
 21
2247.7470928737
 31
0.0
  0
LINE
  5
36A
100
AcDbEntity
  8
ﾚｲﾔｰ1
100
AcDbLine
 10
665.2
 20
2220.5470928737
 30
0.0
 11
2410.8
 21
2220.5470928737
 31
0.0
  0
LINE
  5
36B
100
AcDbEntity
  8
ﾚｲﾔｰ1
100
AcDbLine
 10
2410.8
 20
3025.5470928737
 30
0.0
 11
665.2
 21
3025.5470928737
 31
0.0
  0
LINE
  5
36C
100
AcDbEntity
  8
ﾚｲﾔｰ1
100
AcDbLine
 10
2403.3
 20
3013.0470928737
 30
0.0
 11
672.7
 21
3013.0470928737
 31
0.0
  0
LINE
  5
36D
100
AcDbEntity
  8
ﾚｲﾔｰ1
100
AcDbLine
 10
4953.9080078125
 20
1525.7470928737
 30
0.0
 11
4953.9080078125
 21
2967.5470928737
 31
0.0
  0
LINE
  5
36E
100
AcDbEntity
  8
ﾚｲﾔｰ1
100
AcDbLine
 10
4188.3080078125
 20
1442.7470928737
 30
0.0
 11
4188.3080078125
 21
3025.5470928737
 31
0.0
  0
LINE
  5
36F
100
AcDbEntity
  8
ﾚｲﾔｰ1
100
AcDbLine
 10
4161.1080078125
 20
3025.5470928737
 30
0.0
 11
4161.1080078125
 21
1442.7470928737
 31
0.0
  0
LINE
  5
370
100
AcDbEntity
  8
ﾚｲﾔｰ1
100
AcDbLine
 10
4961.9080078125
 20
3017.7470928737
 30
0.0
 11
4961.9080078125
 21
1480.5470928737
 31
0.0
  0
LINE
  5
371
100
AcDbEntity
  8
ﾚｲﾔｰ1
100
AcDbLine
 10
4989.1080078125
 20
2220.5470928737
 30
0.0
 11
4989.1080078125
 21
1480.5470928737
 31
0.0
  0
HATCH
  5
372
100
AcDbEntity
  8
0
100
AcDbHatch
 10
0.0
 20
0.0
 30
0.0
210
0.0
220
0.0
230
1.0
  2
ANSI31
 70
         0
 71
         1
 91
        1
 92
        1
 93
        4
 72
         1
 10
3264.4781250000001
 20
1455.2470928737348
 11
3264.4781250000001
 21
2208.0470928737413
 72
         1
 10
3264.4781250000001
 20
2208.0470928737413
 11
4092.2781249999989
 21
2208.0470928737413
 72
         1
 10
4092.2781249999989
 20
2208.0470928737413
 11
4092.2781249999989
 21
1455.2470928737348
 72
         1
 10
4092.2781249999989
 20
1455.2470928737348
 11
3264.4781250000001
 21
1455.2470928737348
 97
        0
 75
         0
 76
         1
 52
44.9999992324
 41
-85.5
 77
         0
 78
         1
 53
44.9999992324
 43
0.0
 44
0.0
 45
-85.5
 46
85.5
 79
         0
 98
        1
 10
0.0
 20
0.0
  0
LINE
  5
373
100
AcDbEntity
  8
ﾚｲﾔｰ1
100
AcDbLine
 10
3264.478125
 20
1455.2470928737
 30
0.0
 11
3264.478125
 21
2208.0470928737
 31
0.0
  0
LINE
  5
374
100
AcDbEntity
  8
ﾚｲﾔｰ1
100
AcDbLine
 10
3264.478125
 20
2208.0470928737
 30
0.0
 11
3264.478125
 21
1455.2470928737
 31
0.0
  0
LINE
  5
375
100
AcDbEntity
  8
ﾚｲﾔｰ1
100
AcDbLine
 10
3259.478125
 20
2213.0470928737
 30
0.0
 11
3259.478125
 21
1450.2470928737
 31
0.0
  0
INSERT
  5
377
100
AcDbEntity
  8
0
100
AcDbBlockReference
  2
CLUMP12
 10
0.0
 20
0.0
 30
0.0
  0
LINE
  5
386
100
AcDbEntity
  8
ﾚｲﾔｰ1
100
AcDbLine
 10
3251.978125
 20
3062.7470928737
 30
0.0
 11
3251.978125
 21
1262.7470928737
 31
0.0
  0
LINE
  5
387
100
AcDbEntity
  8
ﾚｲﾔｰ1
100
AcDbLine
 10
3224.778125
 20
3062.7470928737
 30
0.0
 11
3224.778125
 21
1262.7470928737
 31
0.0
  0
LINE
  5
388
100
AcDbEntity
  8
ﾚｲﾔｰ1
100
AcDbLine
 10
5686.0304012803
 20
-26.65
 30
0.0
 11
5686.0304012803
 21
3653.9710512071
 31
0.0
  0
LINE
  5
389
100
AcDbEntity
  8
ﾚｲﾔｰ1
100
AcDbLine
 10
4997.578125
 20
1262.7470928737
 30
0.0
 11
4997.578125
 21
3062.7470928737
 31
0.0
  0
LINE
  5
38A
100
AcDbEntity
  8
ﾚｲﾔｰ1
100
AcDbLine
 10
5024.778125
 20
3062.7470928737
 30
0.0
 11
5024.778125
 21
1262.7470928737
 31
0.0
  0
DIMENSION
  5
39B
100
AcDbEntity
  8
寸法線
 62
         3
100
AcDbDimension
  2
*D31
 10
5379.8994934082
 20
1262.7470928737
 30
0.0
 11
5379.8994934082
 21
2162.7470928737
 31
0.0
 70
       128
210
0.0
220
0.0
230
1.0
  1
<>
  3
VELDIM0
100
AcDbAlignedDimension
 13
5024.778125
 23
1262.7470928737
 33
0.0
 14
5024.778125
 24
3062.7470928737
 34
0.0
 50
90.0
100
AcDbRotatedDimension
  0
DIMENSION
  5
3AC
100
AcDbEntity
  8
寸法線
 62
         3
100
AcDbDimension
  2
*D32
 10
5223.2661437988
 20
1442.7470928737
 30
0.0
 11
5223.2661437988
 21
2234.1470928737
 31
0.0
 70
       128
210
0.0
220
0.0
230
1.0
  1
1580
  3
VELDIM0
100
AcDbAlignedDimension
 13
4997.578125
 23
1442.7470928737
 33
0.0
 14
4997.578125
 24
3025.5470928737
 34
0.0
 50
90.0
100
AcDbRotatedDimension
  0
LINE
  5
3AD
100
AcDbEntity
  8
ﾚｲﾔｰ1
100
AcDbLine
 10
4131.978125
 20
2220.5470928737
 30
0.0
 11
4131.978125
 21
1442.7470928737
 31
0.0
  0
LINE
  5
3AE
100
AcDbEntity
  8
ﾚｲﾔｰ1
100
AcDbLine
 10
4092.278125
 20
1455.2470928737
 30
0.0
 11
4092.278125
 21
2208.0470928737
 31
0.0
  0
LINE
  5
3AF
100
AcDbEntity
  8
ﾚｲﾔｰ1
100
AcDbLine
 10
4097.278125
 20
1450.2470928737
 30
0.0
 11
4097.278125
 21
2213.0470928737
 31
0.0
  0
INSERT
  5
3B1
100
AcDbEntity
  8
0
100
AcDbBlockReference
  2
CLUMP13
 10
0.0
 20
0.0
 30
0.0
  0
LINE
  5
3C0
100
AcDbEntity
  8
ﾚｲﾔｰ1
100
AcDbLine
 10
4104.778125
 20
3025.5470928737
 30
0.0
 11
4104.778125
 21
1442.7470928737
 31
0.0
  0
LINE
  5
3C1
100
AcDbEntity
  8
ﾚｲﾔｰ1
100
AcDbLine
 10
4092.278125
 20
2208.0470928737
 30
0.0
 11
4092.278125
 21
1455.2470928737
 31
0.0
  0
LINE
  5
3C2
100
AcDbEntity
  8
ﾚｲﾔｰ1
100
AcDbLine
 10
2398.3
 20
1455.2470928737
 30
0.0
 11
677.7
 21
1455.2470928737
 31
0.0
  0
LINE
  5
3C3
100
AcDbEntity
  8
ﾚｲﾔｰ1
100
AcDbLine
 10
672.7
 20
1455.2470928737
 30
0.0
 11
2403.3
 21
1455.2470928737
 31
0.0
  0
LINE
  5
3C4
100
AcDbEntity
  8
ﾚｲﾔｰ1
100
AcDbLine
 10
169.2
 20
-26.65
 30
0.0
 11
5686.0304012803
 21
-26.65
 31
0.0
  0
LINE
  5
3C5
100
AcDbEntity
  8
ﾚｲﾔｰ1
100
AcDbLine
 10
5686.0304012803
 20
3653.9710512071
 30
0.0
 11
169.2
 21
3653.9710512071
 31
0.0
  0
DIMENSION
  5
3D6
100
AcDbEntity
  8
寸法線
 62
         3
100
AcDbDimension
  2
*D34
 10
2588.0
 20
1262.7470928737
 30
0.0
 11
2588.0
 21
2162.7470928737
 31
0.0
 70
       128
210
0.0
220
0.0
230
1.0
  1
<>
  3
VELDIM0
100
AcDbAlignedDimension
 13
2438.0
 23
1262.7470928737
 33
0.0
 14
2438.0
 24
3062.7470928737
 34
0.0
 50
90.0
100
AcDbRotatedDimension
  0
MTEXT
  5
3D7
100
AcDbEntity
  8
ﾚｲﾔｰ1
100
AcDbMText
 10
2422.2424479167
 20
249.9458358765
 30
0.0
 40
56.673752594
 41
606.910703125
 71
         1
 72
         1
  1
\W0.8;\fＭＳ ゴシック;\W1.0;掛け金部　詳細
  0
LINE
  5
3D8
100
AcDbEntity
  8
ﾚｲﾔｰ1
100
AcDbLine
 10
2420.12578125
 20
181.154162089
 30
0.0
 11
2922.87109375
 21
181.154162089
 31
0.0
  0
HATCH
  5
3D9
100
AcDbEntity
  8
0
100
AcDbHatch
 10
0.0
 20
0.0
 30
0.0
210
0.0
220
0.0
230
1.0
  2
ANSI31
 70
         0
 71
         1
 91
        1
 92
        1
 93
        4
 72
         1
 10
677.70000000000073
 20
1455.2470928737348
 11
677.70000000000073
 21
2208.0470928737413
 72
         1
 10
677.70000000000073
 20
2208.0470928737413
 11
2398.2999999999993
 21
2208.0470928737413
 72
         1
 10
2398.2999999999993
 20
2208.0470928737413
 11
2398.2999999999993
 21
1455.2470928737348
 72
         1
 10
2398.2999999999993
 20
1455.2470928737348
 11
677.70000000000073
 21
1455.2470928737348
 97
        0
 75
         0
 76
         1
 52
44.9999992324
 41
-85.5
 77
         0
 78
         1
 53
44.9999992324
 43
0.0
 44
0.0
 45
-85.5
 46
85.5
 79
         0
 98
        1
 10
0.0
 20
0.0
  0
LINE
  5
3DA
100
AcDbEntity
  8
ﾚｲﾔｰ1
100
AcDbLine
 10
169.2
 20
3653.9710512071
 30
0.0
 11
169.2
 21
-26.65
 31
0.0
  0
INSERT
  5
3DC
100
AcDbEntity
  8
0
100
AcDbBlockReference
  2
CLUMP14
 10
0.0
 20
0.0
 30
0.0
  0
LINE
  5
3EB
100
AcDbEntity
  8
ﾚｲﾔｰ1
100
AcDbLine
 10
677.7
 20
1455.2470928737
 30
0.0
 11
677.7
 21
2208.0470928737
 31
0.0
  0
LINE
  5
3EC
100
AcDbEntity
  8
ﾚｲﾔｰ1
100
AcDbLine
 10
677.7
 20
2208.0470928737
 30
0.0
 11
677.7
 21
1455.2470928737
 31
0.0
  0
LINE
  5
3ED
100
AcDbEntity
  8
ﾚｲﾔｰ1
100
AcDbLine
 10
638.0
 20
3062.7470928737
 30
0.0
 11
638.0
 21
1262.7470928737
 31
0.0
  0
LINE
  5
3EE
100
AcDbEntity
  8
ﾚｲﾔｰ1
100
AcDbLine
 10
665.2
 20
3062.7470928737
 30
0.0
 11
665.2
 21
1262.7470928737
 31
0.0
  0
LINE
  5
3EF
100
AcDbEntity
  8
ﾚｲﾔｰ1
100
AcDbLine
 10
672.7
 20
2213.0470928737
 30
0.0
 11
672.7
 21
1450.2470928737
 31
0.0
  0
LINE
  5
3F0
100
AcDbEntity
  8
ﾚｲﾔｰ1
100
AcDbLine
 10
2410.8
 20
1262.7470928737
 30
0.0
 11
2410.8
 21
3062.7470928737
 31
0.0
  0
LINE
  5
3F1
100
AcDbEntity
  8
ﾚｲﾔｰ1
100
AcDbLine
 10
2438.0
 20
3062.7470928737
 30
0.0
 11
2438.0
 21
1262.7470928737
 31
0.0
  0
INSERT
  5
3F3
100
AcDbEntity
  8
0
100
AcDbBlockReference
  2
CLUMP15
 10
0.0
 20
0.0
 30
0.0
  0
LINE
  5
402
100
AcDbEntity
  8
ﾚｲﾔｰ1
100
AcDbLine
 10
2398.3
 20
2208.0470928737
 30
0.0
 11
2398.3
 21
1455.2470928737
 31
0.0
  0
LINE
  5
403
100
AcDbEntity
  8
ﾚｲﾔｰ1
100
AcDbLine
 10
2398.3
 20
1455.2470928737
 30
0.0
 11
2398.3
 21
2208.0470928737
 31
0.0
  0
LINE
  5
404
100
AcDbEntity
  8
ﾚｲﾔｰ1
100
AcDbLine
 10
2403.3
 20
1450.2470928737
 30
0.0
 11
2403.3
 21
2213.0470928737
 31
0.0
  0
HATCH
  5
405
100
AcDbEntity
  8
0
100
AcDbHatch
 10
0.0
 20
0.0
 30
0.0
210
0.0
220
0.0
230
1.0
  2
ANSI31
 70
         0
 71
         1
 91
        1
 92
        1
 93
        4
 72
         1
 10
4201.3080078125004
 20
1530.7470928737348
 11
4201.3080078125004
 21
2962.5470928737413
 72
         1
 10
4201.3080078125004
 20
2962.5470928737413
 11
4948.9080078124989
 21
2962.5470928737413
 72
         1
 10
4948.9080078124989
 20
2962.5470928737413
 11
4948.9080078124989
 21
1530.7470928737348
 72
         1
 10
4948.9080078124989
 20
1530.7470928737348
 11
4201.3080078125004
 21
1530.7470928737348
 97
        0
 75
         0
 76
         1
 52
44.9999992324
 41
-85.5
 77
         0
 78
         1
 53
44.9999992324
 43
0.0
 44
0.0
 45
-85.5
 46
85.5
 79
         0
 98
        1
 10
0.0
 20
0.0
  0
LINE
  5
406
100
AcDbEntity
  8
ﾚｲﾔｰ1
100
AcDbLine
 10
4201.3080078125
 20
2962.5470928737
 30
0.0
 11
4201.3080078125
 21
1530.7470928737
 31
0.0
  0
LINE
  5
407
100
AcDbEntity
  8
ﾚｲﾔｰ1
100
AcDbLine
 10
4196.3080078125
 20
2967.5470928737
 30
0.0
 11
4196.3080078125
 21
1525.7470928737
 31
0.0
  0
INSERT
  5
409
100
AcDbEntity
  8
0
100
AcDbBlockReference
  2
CLUMP16
 10
0.0
 20
0.0
 30
0.0
  0
INSERT
  5
425
100
AcDbEntity
  8
0
100
AcDbBlockReference
  2
CLUMP18
 10
0.0
 20
0.0
 30
0.0
  0
LINE
  5
440
100
AcDbEntity
  8
ﾚｲﾔｰ1
100
AcDbLine
 10
4948.9080078125
 20
1530.7470928737
 30
0.0
 11
4948.9080078125
 21
2962.5470928737
 31
0.0
  0
ENDSEC
  0
SECTION
  2
OBJECTS
  0
DICTIONARY
  5
19
100
AcDbDictionary
  3
ACAD_GROUP
350
1A
  3
ACAD_MLINESTYLE
350
1B
  0
DICTIONARY
  5
1A
102
{ACAD_REACTORS
330
19
102
}
100
AcDbDictionary
  0
DICTIONARY
  5
1B
102
{ACAD_REACTORS
330
19
102
}
100
AcDbDictionary
  3
STANDARD
350
1C
  0
MLINESTYLE
  5
1C
102
{ACAD_REACTORS
330
1B
102
}
100
AcDbMlineStyle
  2
STANDARD
 70
         0
  3

 62
         0
 51
90.0
 52
90.0
 71
         2
 49
0.5
 62
       256
  6
BYLAYER
 49
-0.5
 62
       256
  6
BYLAYER
  0
ENDSEC
  0
EOF
