  0
SECTION
  2
HEADER
  9
$ACADVER
  1
AC1027
  9
$ACADMAINTVER
 70
     8
  9
$DWGCODEPAGE
  3
ANSI_932
  9
$REQUIREDVERSIONS
160
                 0
  9
$LASTSAVEDBY
  1
NHKPF302
  9
$INSBASE
 10
0.0
 20
0.0
 30
0.0
  9
$EXTMIN
 10
90.9917410004
 20
-14.56875
 30
0.0
  9
$EXTMAX
 10
4233.2975173939
 20
2920.7140983009
 30
0.0
  9
$LIMMIN
 10
0.0
 20
0.0
  9
$LIMMAX
 10
0.0
 20
0.0
  9
$ORTHOMODE
 70
     0
  9
$REGENMODE
 70
     1
  9
$FILLMODE
 70
     1
  9
$QTEXTMODE
 70
     0
  9
$MIRRTEXT
 70
     1
  9
$LTSCALE
 40
1.0
  9
$ATTMODE
 70
     1
  9
$TEXTSIZE
 40
0.0
  9
$TRACEWID
 40
0.05
  9
$TEXTSTYLE
  7
STANDARD
  9
$CLAYER
  8
0
  9
$CELTYPE
  6
CONTINUOUS
  9
$CECOLOR
 62
   256
  9
$CELTSCALE
 40
1.0
  9
$DISPSILH
 70
     0
  9
$DIMSCALE
 40
1.0
  9
$DIMASZ
 40
50.0
  9
$DIMEXO
 40
30.0
  9
$DIMDLI
 40
7.0
  9
$DIMRND
 40
0.0
  9
$DIMDLE
 40
300.0
  9
$DIMEXE
 40
30.0
  9
$DIMTP
 40
0.0
  9
$DIMTM
 40
0.0
  9
$DIMTXT
 40
60.0
  9
$DIMCEN
 40
0.09
  9
$DIMTSZ
 40
0.0
  9
$DIMTOL
 70
     0
  9
$DIMLIM
 70
     0
  9
$DIMTIH
 70
     0
  9
$DIMTOH
 70
     0
  9
$DIMSE1
 70
     0
  9
$DIMSE2
 70
     0
  9
$DIMTAD
 70
     1
  9
$DIMZIN
 70
     8
  9
$DIMBLK
  1
Open30
  9
$DIMASO
 70
     1
  9
$DIMSHO
 70
     1
  9
$DIMPOST
  1

  9
$DIMAPOST
  1

  9
$DIMALT
 70
     0
  9
$DIMALTD
 70
     2
  9
$DIMALTF
 40
25.4
  9
$DIMLFAC
 40
1.0
  9
$DIMTOFL
 70
     0
  9
$DIMTVP
 40
0.0
  9
$DIMTIX
 70
     0
  9
$DIMSOXD
 70
     0
  9
$DIMSAH
 70
     0
  9
$DIMBLK1
  1

  9
$DIMBLK2
  1

  9
$DIMSTYLE
  2
sunpou
  9
$DIMCLRD
 70
     0
  9
$DIMCLRE
 70
     0
  9
$DIMCLRT
 70
     0
  9
$DIMTFAC
 40
1.0
  9
$DIMGAP
 40
10.0
  9
$DIMJUST
 70
     0
  9
$DIMSD1
 70
     0
  9
$DIMSD2
 70
     0
  9
$DIMTOLJ
 70
     1
  9
$DIMTZIN
 70
     0
  9
$DIMALTZ
 70
     0
  9
$DIMALTTZ
 70
     0
  9
$DIMUPT
 70
     0
  9
$DIMDEC
 70
     0
  9
$DIMTDEC
 70
     0
  9
$DIMALTU
 70
     2
  9
$DIMALTTD
 70
     2
  9
$DIMTXSTY
  7
STANDARD
  9
$DIMAUNIT
 70
     0
  9
$DIMADEC
 70
     0
  9
$DIMALTRND
 40
0.0
  9
$DIMAZIN
 70
     0
  9
$DIMDSEP
 70
    46
  9
$DIMATFIT
 70
     3
  9
$DIMFRAC
 70
     0
  9
$DIMLDRBLK
  1
Open30
  9
$DIMLUNIT
 70
     2
  9
$DIMLWD
 70
    -2
  9
$DIMLWE
 70
    -2
  9
$DIMTMOVE
 70
     0
  9
$DIMFXL
 40
1.0
  9
$DIMFXLON
 70
     0
  9
$DIMJOGANG
 40
0.7853981633974483
  9
$DIMTFILL
 70
     0
  9
$DIMTFILLCLR
 70
     0
  9
$DIMARCSYM
 70
     0
  9
$DIMLTYPE
  6

  9
$DIMLTEX1
  6

  9
$DIMLTEX2
  6

  9
$DIMTXTDIRECTION
 70
     0
  9
$LUNITS
 70
     2
  9
$LUPREC
 70
     4
  9
$SKETCHINC
 40
0.1
  9
$FILLETRAD
 40
0.0
  9
$AUNITS
 70
     0
  9
$AUPREC
 70
     0
  9
$MENU
  1
acad
  9
$ELEVATION
 40
0.0
  9
$PELEVATION
 40
0.0
  9
$THICKNESS
 40
0.0
  9
$LIMCHECK
 70
     0
  9
$CHAMFERA
 40
0.0
  9
$CHAMFERB
 40
0.0
  9
$CHAMFERC
 40
0.0
  9
$CHAMFERD
 40
0.0
  9
$SKPOLY
 70
     0
  9
$TDCREATE
 40
2447893.0
  9
$TDUCREATE
 40
2447892.625
  9
$TDUPDATE
 40
2458935.414712095
  9
$TDUUPDATE
 40
2458935.039712095
  9
$TDINDWG
 40
0.0367690394
  9
$TDUSRTIMER
 40
0.0367683218
  9
$USRTIMER
 70
     1
  9
$ANGBASE
 50
0.0
  9
$ANGDIR
 70
     0
  9
$PDMODE
 70
     3
  9
$PDSIZE
 40
-1.0
  9
$PLINEWID
 40
0.0
  9
$SPLFRAME
 70
     0
  9
$SPLINETYPE
 70
     6
  9
$SPLINESEGS
 70
     8
  9
$HANDSEED
  5
396
  9
$SURFTAB1
 70
     6
  9
$SURFTAB2
 70
     6
  9
$SURFTYPE
 70
     6
  9
$SURFU
 70
     6
  9
$SURFV
 70
     6
  9
$UCSBASE
  2

  9
$UCSNAME
  2

  9
$UCSORG
 10
0.0
 20
0.0
 30
0.0
  9
$UCSXDIR
 10
1.0
 20
0.0
 30
0.0
  9
$UCSYDIR
 10
0.0
 20
1.0
 30
0.0
  9
$UCSORTHOREF
  2

  9
$UCSORTHOVIEW
 70
     0
  9
$UCSORGTOP
 10
0.0
 20
0.0
 30
0.0
  9
$UCSORGBOTTOM
 10
0.0
 20
0.0
 30
0.0
  9
$UCSORGLEFT
 10
0.0
 20
0.0
 30
0.0
  9
$UCSORGRIGHT
 10
0.0
 20
0.0
 30
0.0
  9
$UCSORGFRONT
 10
0.0
 20
0.0
 30
0.0
  9
$UCSORGBACK
 10
0.0
 20
0.0
 30
0.0
  9
$PUCSBASE
  2

  9
$PUCSNAME
  2

  9
$PUCSORG
 10
0.0
 20
0.0
 30
0.0
  9
$PUCSXDIR
 10
1.0
 20
0.0
 30
0.0
  9
$PUCSYDIR
 10
0.0
 20
1.0
 30
0.0
  9
$PUCSORTHOREF
  2

  9
$PUCSORTHOVIEW
 70
     0
  9
$PUCSORGTOP
 10
0.0
 20
0.0
 30
0.0
  9
$PUCSORGBOTTOM
 10
0.0
 20
0.0
 30
0.0
  9
$PUCSORGLEFT
 10
0.0
 20
0.0
 30
0.0
  9
$PUCSORGRIGHT
 10
0.0
 20
0.0
 30
0.0
  9
$PUCSORGFRONT
 10
0.0
 20
0.0
 30
0.0
  9
$PUCSORGBACK
 10
0.0
 20
0.0
 30
0.0
  9
$USERI1
 70
     0
  9
$USERI2
 70
     0
  9
$USERI3
 70
     0
  9
$USERI4
 70
     0
  9
$USERI5
 70
     0
  9
$USERR1
 40
0.0
  9
$USERR2
 40
0.0
  9
$USERR3
 40
0.0
  9
$USERR4
 40
0.0
  9
$USERR5
 40
0.0
  9
$WORLDVIEW
 70
     1
  9
$SHADEDGE
 70
     3
  9
$SHADEDIF
 70
    70
  9
$TILEMODE
 70
     1
  9
$MAXACTVP
 70
    16
  9
$PINSBASE
 10
0.0
 20
0.0
 30
0.0
  9
$PLIMCHECK
 70
     0
  9
$PEXTMIN
 10
1000000000000000E+20
 20
1000000000000000E+20
 30
1000000000000000E+20
  9
$PEXTMAX
 10
-1000000000000000E+20
 20
-1000000000000000E+20
 30
-1000000000000000E+20
  9
$PLIMMIN
 10
0.0
 20
0.0
  9
$PLIMMAX
 10
12.0
 20
9.0
  9
$UNITMODE
 70
     0
  9
$VISRETAIN
 70
     0
  9
$PLINEGEN
 70
     1
  9
$PSLTSCALE
 70
     0
  9
$TREEDEPTH
 70
  3020
  9
$CMLSTYLE
  2
STANDARD
  9
$CMLJUST
 70
     0
  9
$CMLSCALE
 40
1.0
  9
$PROXYGRAPHICS
 70
     0
  9
$MEASUREMENT
 70
     0
  9
$CELWEIGHT
370
    -1
  9
$ENDCAPS
280
     0
  9
$JOINSTYLE
280
     0
  9
$LWDISPLAY
290
     0
  9
$INSUNITS
 70
     0
  9
$HYPERLINKBASE
  1

  9
$STYLESHEET
  1

  9
$XEDIT
290
     1
  9
$CEPSNTYPE
380
     0
  9
$PSTYLEMODE
290
     1
  9
$FINGERPRINTGUID
  2
{F237C665-724B-4A18-8B4D-03E1F7A927C9}
  9
$VERSIONGUID
  2
{FAEB1C32-E019-11D5-929B-00C0DF256EC4}
  9
$EXTNAMES
290
     1
  9
$PSVPSCALE
 40
0.0
  9
$OLESTARTUP
290
     0
  9
$SORTENTS
280
   127
  9
$INDEXCTL
280
     0
  9
$HIDETEXT
280
     1
  9
$XCLIPFRAME
280
     2
  9
$HALOGAP
280
     0
  9
$OBSCOLOR
 70
   257
  9
$OBSLTYPE
280
     0
  9
$INTERSECTIONDISPLAY
280
     0
  9
$INTERSECTIONCOLOR
 70
   257
  9
$DIMASSOC
280
     2
  9
$PROJECTNAME
  1

  9
$CAMERADISPLAY
290
     0
  9
$LENSLENGTH
 40
50.0
  9
$CAMERAHEIGHT
 40
0.0
  9
$STEPSPERSEC
 40
2.0
  9
$STEPSIZE
 40
6.0
  9
$3DDWFPREC
 40
2.0
  9
$PSOLWIDTH
 40
0.25
  9
$PSOLHEIGHT
 40
4.0
  9
$LOFTANG1
 40
1.570796326794897
  9
$LOFTANG2
 40
1.570796326794897
  9
$LOFTMAG1
 40
0.0
  9
$LOFTMAG2
 40
0.0
  9
$LOFTPARAM
 70
     7
  9
$LOFTNORMALS
280
     1
  9
$LATITUDE
 40
37.795
  9
$LONGITUDE
 40
-122.394
  9
$NORTHDIRECTION
 40
0.0
  9
$TIMEZONE
 70
 -8000
  9
$LIGHTGLYPHDISPLAY
280
     1
  9
$TILEMODELIGHTSYNCH
280
     1
  9
$CMATERIAL
347
256
  9
$SOLIDHIST
280
     1
  9
$SHOWHIST
280
     1
  9
$DWFFRAME
280
     2
  9
$DGNFRAME
280
     0
  9
$REALWORLDSCALE
290
     1
  9
$INTERFERECOLOR
 62
   256
  9
$CSHADOW
280
     0
  9
$SHADOWPLANELOCATION
 40
0.0
  0
ENDSEC
  0
SECTION
  2
CLASSES
  0
CLASS
  1
LWPOLYLINE
  2
AcDbPolyline
  3
AutoCAD 2000
 90
        0
 91
        1
280
     0
281
     1
  0
CLASS
  1
IMAGE
  2
AcDbRasterImage
  3
ISM
 90
      127
 91
        5
280
     0
281
     1
  0
CLASS
  1
OLE2FRAME
  2
AcDbOle2Frame
  3
AutoCAD 2000
 90
        0
 91
        1
280
     0
281
     1
  0
CLASS
  1
HATCH
  2
AcDbHatch
  3
AutoCAD 2000
 90
        0
 91
        1
280
     0
281
     1
  0
CLASS
  1
DICTIONARYVAR
  2
AcDbDictionaryVar
  3
ObjectDBX Classes
 90
        0
 91
        4
280
     0
281
     0
  0
CLASS
  1
RASTERVARIABLES
  2
AcDbRasterVariables
  3
ISM
 90
        0
 91
        4
280
     0
281
     0
  0
CLASS
  1
IMAGEDEF
  2
AcDbRasterImageDef
  3
ISM
 90
        0
 91
        4
280
     0
281
     0
  0
CLASS
  1
IMAGEDEF_REACTOR
  2
AcDbRasterImageDefReactor
  3
ISM
 90
        1
 91
        4
280
     0
281
     0
  0
CLASS
  1
IDBUFFER
  2
AcDbIdBuffer
  3
ObjectDBX Classes
 90
        0
 91
        4
280
     0
281
     0
  0
CLASS
  1
SPATIAL_FILTER
  2
AcDbSpatialFilter
  3
ObjectDBX Classes
 90
        0
 91
        4
280
     0
281
     0
  0
CLASS
  1
XRECORD
  2
AcDbXrecord
  3
AutoCAD 2000
 90
        0
 91
        1
280
     0
281
     0
  0
CLASS
  1
SORTENTSTABLE
  2
AcDbSortentsTable
  3
ObjectDBX Classes
 90
        0
 91
        4
280
     0
281
     0
  0
CLASS
  1
LAYER_INDEX
  2
AcDbLayerIndex
  3
ObjectDBX Classes
 90
        0
 91
        4
280
     0
281
     0
  0
CLASS
  1
SPATIAL_INDEX
  2
AcDbSpatialIndex
  3
AutoCAD 2000
 90
        0
 91
        4
280
     0
281
     0
  0
CLASS
  1
OBJECT_PTR
  2
CAseDLPNTableRecord
  3
ASE-LPNTableRecord
 90
        1
 91
        4
280
     0
281
     0
  0
CLASS
  1
LAYOUT
  2
AcDbLayout
  3
ObjectDBX Classes
 90
        0
 91
        1
280
     0
281
     0
  0
CLASS
  1
PLOTSETTINGS
  2
AcDbPlotSettings
  3
ObjectDBX Classes
 90
        0
 91
        4
280
     0
281
     0
  0
CLASS
  1
ACDBDICTIONARYWDFLT
  2
AcDbDictionaryWithDefault
  3
ObjectDBX Classes
 90
        0
 91
        4
280
     0
281
     0
  0
CLASS
  1
ACDBPLACEHOLDER
  2
AcDbPlaceHolder
  3
ObjectDBX Classes
 90
        0
 91
        1
280
     0
281
     0
  0
CLASS
  1
VBA_PROJECT
  2
AcDbVbaProject
  3
ObjectDBX Classes
 90
        0
 91
        1
280
     0
281
     0
  0
CLASS
  1
WIPEOUT
  2
AcDbWipeout
  3
WipeOut|AutoCAD Express Tool|expresstools@autodesk.com
 90
      127
 91
        4
280
     0
281
     1
  0
CLASS
  1
WIPEOUTVARIABLES
  2
AcDbWipeoutVariables
  3
WipeOut|AutoCAD Express Tool|expresstools@autodesk.com
 90
        0
 91
        4
280
     0
281
     0
  0
CLASS
  1
RTEXT
  2
RText
  3
RText|AutoCAD Express Tool|expresstools@autodesk.com
 90
        0
 91
        4
280
     0
281
     1
  0
CLASS
  1
ARCALIGNEDTEXT
  2
AcDbArcAlignedText
  3
ATEXT|AutoCAD Express Tool|expresstools@autodesk.com
 90
        0
 91
        4
280
     0
281
     1
  0
CLASS
  1
SCALE
  2
AcDbScale
  3
ObjectDBX Classes
 90
     1153
 91
        4
280
     0
281
     0
  0
CLASS
  1
VISUALSTYLE
  2
AcDbVisualStyle
  3
ObjectDBX Classes
 90
     4095
 91
        4
280
     0
281
     0
  0
CLASS
  1
MATERIAL
  2
AcDbMaterial
  3
ObjectDBX Classes
 90
     1153
 91
        4
280
     0
281
     0
  0
CLASS
  1
MLEADERSTYLE
  2
AcDbMLeaderStyle
  3
ACDB_MLEADERSTYLE_CLASS
 90
     4095
 91
        4
280
     0
281
     0
  0
ENDSEC
  0
SECTION
  2
TABLES
  0
TABLE
  2
VPORT
  5
7
330
0
100
AcDbSymbolTable
 70
     1
  0
VPORT
  5
15
330
7
100
AcDbSymbolTableRecord
100
AcDbViewportTableRecord
  2
*ACTIVE
 70
     0
 10
0.0
 20
0.0
 11
1.0
 21
1.0
 12
2162.14462919715
 22
1453.07267415045
 13
0.0
 23
0.0
 14
1.0
 24
1.0
 15
0.0
 25
0.0
 16
0.0
 26
0.0
 36
1.0
 17
0.0
 27
0.0
 37
0.0
 40
2979.589004501668
 41
1.858736059479554
 42
50.0
 43
0.0
 44
0.0
 50
0.0
 51
0.0
 71
     0
 72
   100
 73
     1
 74
     1
 75
     0
 76
     0
 77
     0
 78
     0
281
     0
 65
     1
110
0.0
120
0.0
130
0.0
111
1.0
121
0.0
131
0.0
112
0.0
122
1.0
132
0.0
 79
     0
146
0.0
 60
     3
 61
     5
292
     1
282
     1
141
0.0
142
0.0
 63
   256
  0
ENDTAB
  0
TABLE
  2
LTYPE
  5
4
330
0
100
AcDbSymbolTable
 70
    11
  0
LTYPE
  5
11
330
4
100
AcDbSymbolTableRecord
100
AcDbLinetypeTableRecord
  2
BYBLOCK
 70
     0
  3

 72
    65
 73
     0
 40
0.0
  0
LTYPE
  5
12
330
4
100
AcDbSymbolTableRecord
100
AcDbLinetypeTableRecord
  2
BYLAYER
 70
     0
  3

 72
    65
 73
     0
 40
0.0
  0
LTYPE
  5
13
330
4
100
AcDbSymbolTableRecord
100
AcDbLinetypeTableRecord
  2
CONTINUOUS
 70
     0
  3
Solid line
 72
    65
 73
     0
 40
0.0
  0
LTYPE
  5
22
330
4
100
AcDbSymbolTableRecord
100
AcDbLinetypeTableRecord
  2
DASHDOT
 70
     0
  3
____ . ____ . 
 72
    65
 73
     4
 40
32.0
 49
30.0
 74
     0
 49
-1.0
 74
     0
 49
0.0
 74
     0
 49
-1.0
 74
     0
  0
LTYPE
  5
23
330
4
100
AcDbSymbolTableRecord
100
AcDbLinetypeTableRecord
  2
BORDER
 70
     0
  3
__ . __ . 
 72
    65
 73
     4
 40
22.0
 49
20.0
 74
     0
 49
-1.0
 74
     0
 49
0.0
 74
     0
 49
-1.0
 74
     0
  0
ENDTAB
  0
TABLE
  2
LAYER
  5
2
330
0
100
AcDbSymbolTable
 70
    10
  0
LAYER
  5
14
330
2
100
AcDbSymbolTableRecord
100
AcDbLayerTableRecord
  2
0
 70
     0
 62
     7
  6
CONTINUOUS
370
    -3
390
317
347
258
348
0
  0
LAYER
  5
27
330
2
100
AcDbSymbolTableRecord
100
AcDbLayerTableRecord
  2
LAYER0
 70
     0
 62
     7
  6
CONTINUOUS
370
    -3
390
317
347
258
348
0
  0
LAYER
  5
2A
330
2
100
AcDbSymbolTableRecord
100
AcDbLayerTableRecord
  2
LAYER0_00000000
 70
     0
 62
     7
  6
CONTINUOUS
370
    -3
390
317
347
258
348
0
  0
LAYER
  5
33
330
2
100
AcDbSymbolTableRecord
100
AcDbLayerTableRecord
  2
LAYER6
 70
     0
 62
     7
  6
CONTINUOUS
370
    -3
390
317
347
258
348
0
  0
LAYER
  5
3F
330
2
100
AcDbSymbolTableRecord
100
AcDbLayerTableRecord
  2
LAYER2
 70
     0
 62
     7
  6
CONTINUOUS
370
    -3
390
317
347
258
348
0
  0
LAYER
  5
69
330
2
100
AcDbSymbolTableRecord
100
AcDbLayerTableRecord
  2
LAYER4
 70
     0
 62
     7
  6
CONTINUOUS
370
    -3
390
317
347
258
348
0
  0
LAYER
  5
9B
330
2
100
AcDbSymbolTableRecord
100
AcDbLayerTableRecord
  2
ﾚｲﾔｰ1
 70
     0
 62
     7
  6
CONTINUOUS
370
    -3
390
317
347
258
348
0
  0
LAYER
  5
BC
330
2
100
AcDbSymbolTableRecord
100
AcDbLayerTableRecord
  2
LAYER5
 70
     0
 62
     7
  6
CONTINUOUS
370
    -3
390
317
347
258
348
0
  0
LAYER
  5
114
330
2
100
AcDbSymbolTableRecord
100
AcDbLayerTableRecord
  2
寸法線
 70
     0
 62
     7
  6
CONTINUOUS
370
    -3
390
317
347
258
348
0
  0
LAYER
  5
25E
330
2
100
AcDbSymbolTableRecord
100
AcDbLayerTableRecord
  2
Defpoints
 70
     0
 62
     7
  6
CONTINUOUS
290
     0
370
    -3
390
317
347
258
348
0
  0
ENDTAB
  0
TABLE
  2
STYLE
  5
3
330
0
100
AcDbSymbolTable
 70
     1
  0
STYLE
  5
17
330
3
100
AcDbSymbolTableRecord
100
AcDbTextStyleTableRecord
  2
STANDARD
 70
     0
 40
0.0
 41
1.0
 50
0.0
 71
     0
 42
0.0
  3

  4

1001
ACAD
1000
MS Gothic
1071
    32817
  0
ENDTAB
  0
TABLE
  2
VIEW
  5
5
330
0
100
AcDbSymbolTable
 70
     0
  0
ENDTAB
  0
TABLE
  2
UCS
  5
6
330
0
100
AcDbSymbolTable
 70
     0
  0
ENDTAB
  0
TABLE
  2
APPID
  5
8
330
0
100
AcDbSymbolTable
 70
     5
  0
APPID
  5
16
330
8
100
AcDbSymbolTableRecord
100
AcDbRegAppTableRecord
  2
ACAD
 70
     0
  0
APPID
  5
25B
330
8
100
AcDbSymbolTableRecord
100
AcDbRegAppTableRecord
  2
ACAD_MLEADERVER
 70
     0
  0
APPID
  5
395
330
8
100
AcDbSymbolTableRecord
100
AcDbRegAppTableRecord
  2
ACAD_PSEXT
 70
     0
  0
ENDTAB
  0
TABLE
  2
DIMSTYLE
  5
9
330
0
100
AcDbSymbolTable
 70
     4
100
AcDbDimStyleTable
  0
DIMSTYLE
105
18
330
9
100
AcDbSymbolTableRecord
100
AcDbDimStyleTableRecord
  2
STANDARD
 70
     0
178
     0
289
     0
340
17
  0
DIMSTYLE
105
320
102
{ACAD_REACTORS
330
363
330
19E
330
1AF
330
1C0
330
18D
330
1D1
330
1E2
330
1F3
330
17B
330
115
330
16A
330
159
330
148
330
137
330
126
102
}
330
9
100
AcDbSymbolTableRecord
100
AcDbDimStyleTableRecord
  2
sunpou
 70
     0
 41
50.0
 42
30.0
 43
7.0
 44
30.0
 46
300.0
 73
     0
 74
     0
 77
     1
 78
     8
140
60.0
147
10.0
178
     0
271
     0
272
     0
340
17
341
321
342
321
  0
ENDTAB
  0
TABLE
  2
BLOCK_RECORD
  5
1
330
0
100
AcDbSymbolTable
 70
    33
  0
BLOCK_RECORD
  5
A
330
1
100
AcDbSymbolTableRecord
100
AcDbBlockTableRecord
  2
*MODEL_SPACE
340
23A
 70
     0
280
     1
281
     0
  0
BLOCK_RECORD
  5
B
330
1
100
AcDbSymbolTableRecord
100
AcDbBlockTableRecord
  2
*PAPER_SPACE
340
23B
 70
     0
280
     1
281
     0
  0
BLOCK_RECORD
  5
25F
330
1
100
AcDbSymbolTableRecord
100
AcDbBlockTableRecord
  2
*D14
340
0
 70
     0
280
     1
281
     0
  0
BLOCK_RECORD
  5
26C
330
1
100
AcDbSymbolTableRecord
100
AcDbBlockTableRecord
  2
*D15
340
0
 70
     0
280
     1
281
     0
  0
BLOCK_RECORD
  5
279
330
1
100
AcDbSymbolTableRecord
100
AcDbBlockTableRecord
  2
*D16
340
0
 70
     0
280
     1
281
     0
  0
BLOCK_RECORD
  5
286
330
1
100
AcDbSymbolTableRecord
100
AcDbBlockTableRecord
  2
*D17
340
0
 70
     0
280
     1
281
     0
  0
BLOCK_RECORD
  5
293
330
1
100
AcDbSymbolTableRecord
100
AcDbBlockTableRecord
  2
*D18
340
0
 70
     0
280
     1
281
     0
  0
BLOCK_RECORD
  5
2A0
330
1
100
AcDbSymbolTableRecord
100
AcDbBlockTableRecord
  2
*D19
340
0
 70
     0
280
     1
281
     0
  0
BLOCK_RECORD
  5
2AD
330
1
100
AcDbSymbolTableRecord
100
AcDbBlockTableRecord
  2
*D20
340
0
 70
     0
280
     1
281
     0
  0
BLOCK_RECORD
  5
2BA
330
1
100
AcDbSymbolTableRecord
100
AcDbBlockTableRecord
  2
*D21
340
0
 70
     0
280
     1
281
     0
  0
BLOCK_RECORD
  5
2C7
330
1
100
AcDbSymbolTableRecord
100
AcDbBlockTableRecord
  2
*D22
340
0
 70
     0
280
     1
281
     0
  0
BLOCK_RECORD
  5
2D4
330
1
100
AcDbSymbolTableRecord
100
AcDbBlockTableRecord
  2
*D23
340
0
 70
     0
280
     1
281
     0
  0
BLOCK_RECORD
  5
2E1
330
1
100
AcDbSymbolTableRecord
100
AcDbBlockTableRecord
  2
*D24
340
0
 70
     0
280
     1
281
     0
  0
BLOCK_RECORD
  5
2EE
330
1
100
AcDbSymbolTableRecord
100
AcDbBlockTableRecord
  2
*D25
340
0
 70
     0
280
     1
281
     0
  0
BLOCK_RECORD
  5
2FB
330
1
100
AcDbSymbolTableRecord
100
AcDbBlockTableRecord
  2
*D26
340
0
 70
     0
280
     1
281
     0
  0
BLOCK_RECORD
  5
308
330
1
100
AcDbSymbolTableRecord
100
AcDbBlockTableRecord
  2
*D27
340
0
 70
     0
280
     1
281
     0
  0
BLOCK_RECORD
  5
321
330
1
100
AcDbSymbolTableRecord
100
AcDbBlockTableRecord
  2
_Open30
340
0
102
{BLKREFS
331
376
331
377
331
369
331
36A
331
384
331
385
331
2CC
331
2CB
331
2D9
331
2D8
331
2E6
331
2E5
331
2BF
331
2BE
331
2F3
331
2F2
331
300
331
2FF
331
30D
331
30C
331
2B2
331
2B1
331
264
331
263
331
2A5
331
2A4
331
298
331
297
331
28B
331
28A
331
27F
331
0
331
271
331
270
331
280
102
}
 70
     0
280
     1
281
     0
  0
ENDTAB
  0
ENDSEC
  0
SECTION
  2
BLOCKS
  0
BLOCK
  5
D
330
A
100
AcDbEntity
  8
0
  6
Continuous
100
AcDbBlockBegin
  2
*MODEL_SPACE
 70
     0
 10
0.0
 20
0.0
 30
0.0
  3
*MODEL_SPACE
  1

  0
ENDBLK
  5
E
330
A
100
AcDbEntity
  8
0
  6
Continuous
100
AcDbBlockEnd
  0
BLOCK
  5
F
330
B
100
AcDbEntity
 67
     1
  8
0
  6
Continuous
100
AcDbBlockBegin
  2
*PAPER_SPACE
 70
     0
 10
0.0
 20
0.0
 30
0.0
  3
*PAPER_SPACE
  1

  0
ENDBLK
  5
10
330
B
100
AcDbEntity
 67
     1
  8
0
  6
Continuous
100
AcDbBlockEnd
  0
BLOCK
  5
26A
330
25F
100
AcDbEntity
  8
0
  6
Continuous
100
AcDbBlockBegin
  2
*D14
 70
     1
 10
0.0
 20
0.0
 30
0.0
  3
*D14
  1
Acad:XRef
  0
LINE
  5
260
330
25F
100
AcDbEntity
  8
寸法線
 62
     0
370
    -2
100
AcDbLine
 10
2953.7106166667
 20
2347.3226666667
 30
0.0
 11
2953.7106166667
 21
2530.2513020833
 31
0.0
  0
LINE
  5
261
330
25F
100
AcDbEntity
  8
寸法線
 62
     0
370
    -2
100
AcDbLine
 10
3353.7101166667
 20
2347.3226666667
 30
0.0
 11
3353.7101166667
 21
2530.2513020833
 31
0.0
  0
LINE
  5
262
330
25F
100
AcDbEntity
  8
寸法線
 62
     0
370
    -2
100
AcDbLine
 10
3003.7106166667
 20
2500.2513020833
 30
0.0
 11
3303.7101166667
 21
2500.2513020833
 31
0.0
  0
INSERT
  5
263
330
25F
100
AcDbEntity
  8
寸法線
  6
ByBlock
 62
     0
370
    -2
100
AcDbBlockReference
  2
_Open30
 10
2953.7106166667
 20
2500.2513020833
 30
0.0
 41
50.0
 42
50.0
 43
50.0
 50
180.0
  0
INSERT
  5
264
330
25F
100
AcDbEntity
  8
寸法線
  6
ByBlock
 62
     0
370
    -2
100
AcDbBlockReference
  2
_Open30
 10
3353.7101166667
 20
2500.2513020833
 30
0.0
 41
50.0
 42
50.0
 43
50.0
  0
MTEXT
  5
265
330
25F
100
AcDbEntity
  8
寸法線
  6
Continuous
 62
     0
100
AcDbMText
 10
3153.7103666667
 20
2540.2513020833
 30
0.0
 40
60.0
 41
0.0
 46
0.0
 71
     5
 72
     1
  1
\A1;400
 73
     1
 44
1.0
  0
POINT
  5
266
330
25F
100
AcDbEntity
  8
Defpoints
  6
Continuous
 62
     0
100
AcDbPoint
 10
2953.7106166667
 20
2317.3226666667
 30
0.0
  0
POINT
  5
267
330
25F
100
AcDbEntity
  8
Defpoints
  6
Continuous
 62
     0
100
AcDbPoint
 10
3353.7101166667
 20
2317.3226666667
 30
0.0
  0
POINT
  5
268
330
25F
100
AcDbEntity
  8
Defpoints
  6
Continuous
 62
     0
100
AcDbPoint
 10
3353.7101166667
 20
2500.2513020833
 30
0.0
  0
ENDBLK
  5
26B
330
25F
100
AcDbEntity
  8
0
  6
Continuous
100
AcDbBlockEnd
  0
BLOCK
  5
277
330
26C
100
AcDbEntity
  8
0
  6
Continuous
100
AcDbBlockBegin
  2
*D15
 70
     1
 10
0.0
 20
0.0
 30
0.0
  3
*D15
  1
Acad:XRef
  0
LINE
  5
26D
330
26C
100
AcDbEntity
  8
寸法線
 62
     0
370
    -2
100
AcDbLine
 10
3253.7102166667
 20
1956.3230666667
 30
0.0
 11
3253.7102166667
 21
1479.5794270833
 31
0.0
  0
LINE
  5
26E
330
26C
100
AcDbEntity
  8
寸法線
 62
     0
370
    -2
100
AcDbLine
 10
3053.7105166667
 20
1956.3230666667
 30
0.0
 11
3053.7105166667
 21
1479.5794270833
 31
0.0
  0
LINE
  5
26F
330
26C
100
AcDbEntity
  8
寸法線
 62
     0
370
    -2
100
AcDbLine
 10
3203.7102166667
 20
1509.5794270833
 30
0.0
 11
3103.7105166667
 21
1509.5794270833
 31
0.0
  0
INSERT
  5
270
330
26C
100
AcDbEntity
  8
寸法線
  6
ByBlock
 62
     0
370
    -2
100
AcDbBlockReference
  2
_Open30
 10
3253.7102166667
 20
1509.5794270833
 30
0.0
 41
50.0
 42
50.0
 43
50.0
  0
INSERT
  5
271
330
26C
100
AcDbEntity
  8
寸法線
  6
ByBlock
 62
     0
370
    -2
100
AcDbBlockReference
  2
_Open30
 10
3053.7105166667
 20
1509.5794270833
 30
0.0
 41
50.0
 42
50.0
 43
50.0
 50
180.0
  0
MTEXT
  5
272
330
26C
100
AcDbEntity
  8
寸法線
  6
Continuous
 62
     0
100
AcDbMText
 10
3153.7103666667
 20
1549.5794270833
 30
0.0
 40
60.0
 41
0.0
 46
0.0
 71
     5
 72
     1
  1
\A1;200
 73
     1
 44
1.0
  0
POINT
  5
273
330
26C
100
AcDbEntity
  8
Defpoints
  6
Continuous
 62
     0
100
AcDbPoint
 10
3253.7102166667
 20
1986.3230666667
 30
0.0
  0
POINT
  5
274
330
26C
100
AcDbEntity
  8
Defpoints
  6
Continuous
 62
     0
100
AcDbPoint
 10
3053.7105166667
 20
1986.3230666667
 30
0.0
  0
POINT
  5
275
330
26C
100
AcDbEntity
  8
Defpoints
  6
Continuous
 62
     0
100
AcDbPoint
 10
3053.7105166667
 20
1509.5794270833
 30
0.0
  0
ENDBLK
  5
278
330
26C
100
AcDbEntity
  8
0
  6
Continuous
100
AcDbBlockEnd
  0
BLOCK
  5
284
330
279
100
AcDbEntity
  8
0
  6
Continuous
100
AcDbBlockBegin
  2
*D16
 70
     1
 10
0.0
 20
0.0
 30
0.0
  3
*D16
  1
Acad:XRef
  0
LINE
  5
27A
330
279
100
AcDbEntity
  8
寸法線
 62
     0
370
    -2
100
AcDbLine
 10
3203.7103166667
 20
1916.3230666667
 30
0.0
 11
3203.7103166667
 21
1659.2372395833
 31
0.0
  0
LINE
  5
27B
330
279
100
AcDbEntity
  8
寸法線
 62
     0
370
    -2
100
AcDbLine
 10
3103.7104166667
 20
1916.3230666667
 30
0.0
 11
3103.7104166667
 21
1659.2372395833
 31
0.0
  0
LINE
  5
27C
330
279
100
AcDbEntity
  8
寸法線
 62
     0
370
    -2
100
AcDbLine
 10
3203.7103166667
 20
1689.2372395833
 30
0.0
 11
3103.7104166667
 21
1689.2372395833
 31
0.0
  0
LINE
  5
27D
330
279
100
AcDbEntity
  8
寸法線
 62
     0
370
    -2
100
AcDbLine
 10
3253.7103166667
 20
1689.2372395833
 30
0.0
 11
3303.7103166667
 21
1689.2372395833
 31
0.0
  0
LINE
  5
27E
330
279
100
AcDbEntity
  8
寸法線
 62
     0
370
    -2
100
AcDbLine
 10
3053.7104166667
 20
1689.2372395833
 30
0.0
 11
3003.7104166667
 21
1689.2372395833
 31
0.0
  0
INSERT
  5
27F
330
279
100
AcDbEntity
  8
寸法線
  6
ByBlock
 62
     0
370
    -2
100
AcDbBlockReference
  2
_Open30
 10
3203.7103166667
 20
1689.2372395833
 30
0.0
 41
50.0
 42
50.0
 43
50.0
 50
180.0
  0
INSERT
  5
280
330
279
100
AcDbEntity
  8
寸法線
  6
ByBlock
 62
     0
370
    -2
100
AcDbBlockReference
  2
_Open30
 10
3103.7104166667
 20
1689.2372395833
 30
0.0
 41
50.0
 42
50.0
 43
50.0
  0
MTEXT
  5
281
330
279
100
AcDbEntity
  8
寸法線
  6
Continuous
 62
     0
100
AcDbMText
 10
3129.105378847638
 20
1733.65579481226
 30
0.0
 40
60.0
 41
0.0
 46
0.0
 71
     5
 72
     1
  1
\A1;100
 73
     1
 44
1.0
  0
POINT
  5
282
330
279
100
AcDbEntity
  8
Defpoints
  6
Continuous
 62
     0
100
AcDbPoint
 10
3203.7103166667
 20
1946.3230666667
 30
0.0
  0
POINT
  5
283
330
279
100
AcDbEntity
  8
Defpoints
  6
Continuous
 62
     0
100
AcDbPoint
 10
3103.7104166667
 20
1946.3230666667
 30
0.0
  0
POINT
  5
38C
330
279
100
AcDbEntity
  8
Defpoints
  6
Continuous
 62
     0
100
AcDbPoint
 10
3103.7104166667
 20
1689.2372395833
 30
0.0
  0
ENDBLK
  5
285
330
279
100
AcDbEntity
  8
0
  6
Continuous
100
AcDbBlockEnd
  0
BLOCK
  5
291
330
286
100
AcDbEntity
  8
0
  6
Continuous
100
AcDbBlockBegin
  2
*D17
 70
     1
 10
0.0
 20
0.0
 30
0.0
  3
*D17
  1
Acad:XRef
  0
LINE
  5
287
330
286
100
AcDbEntity
  8
寸法線
 62
     0
370
    -2
100
AcDbLine
 10
2873.7106166667
 20
1846.3231666667
 30
0.0
 11
2351.668227047626
 21
1846.3231666667
 31
0.0
  0
LINE
  5
288
330
286
100
AcDbEntity
  8
寸法線
 62
     0
370
    -2
100
AcDbLine
 10
2873.7106166667
 20
2346.3226666667
 30
0.0
 11
2351.668227047626
 21
2346.3226666667
 31
0.0
  0
LINE
  5
289
330
286
100
AcDbEntity
  8
寸法線
 62
     0
370
    -2
100
AcDbLine
 10
2381.668227047626
 20
1896.3231666667
 30
0.0
 11
2381.668227047626
 21
2296.3226666667
 31
0.0
  0
INSERT
  5
28A
330
286
100
AcDbEntity
  8
寸法線
  6
ByBlock
 62
     0
370
    -2
100
AcDbBlockReference
  2
_Open30
 10
2381.668227047626
 20
1846.3231666667
 30
0.0
 41
50.0
 42
50.0
 43
50.0
 50
270.0
  0
INSERT
  5
28B
330
286
100
AcDbEntity
  8
寸法線
  6
ByBlock
 62
     0
370
    -2
100
AcDbBlockReference
  2
_Open30
 10
2381.668227047626
 20
2346.3226666667
 30
0.0
 41
50.0
 42
50.0
 43
50.0
 50
90.0
  0
MTEXT
  5
28C
330
286
100
AcDbEntity
  8
寸法線
  6
Continuous
 62
     0
100
AcDbMText
 10
2341.668227047626
 20
2096.3229166667
 30
0.0
 40
60.0
 41
0.0
 46
0.0
 71
     5
 72
     1
  1
\A1;500
 11
0.0
 21
1.0
 31
0.0
 73
     1
 44
1.0
  0
POINT
  5
28D
330
286
100
AcDbEntity
  8
Defpoints
  6
Continuous
 62
     0
100
AcDbPoint
 10
2903.7106166667
 20
1846.3231666667
 30
0.0
  0
POINT
  5
28E
330
286
100
AcDbEntity
  8
Defpoints
  6
Continuous
 62
     0
100
AcDbPoint
 10
2903.7106166667
 20
2346.3226666667
 30
0.0
  0
POINT
  5
28F
330
286
100
AcDbEntity
  8
Defpoints
  6
Continuous
 62
     0
100
AcDbPoint
 10
2381.668227047626
 20
2346.3226666667
 30
0.0
  0
ENDBLK
  5
292
330
286
100
AcDbEntity
  8
0
  6
Continuous
100
AcDbBlockEnd
  0
BLOCK
  5
29E
330
293
100
AcDbEntity
  8
0
  6
Continuous
100
AcDbBlockBegin
  2
*D18
 70
     1
 10
0.0
 20
0.0
 30
0.0
  3
*D18
  1
Acad:XRef
  0
LINE
  5
294
330
293
100
AcDbEntity
  8
寸法線
 62
     0
370
    -2
100
AcDbLine
 10
2902.7106166667
 20
1896.3231666667
 30
0.0
 11
2517.269407043716
 21
1896.3231666667
 31
0.0
  0
LINE
  5
295
330
293
100
AcDbEntity
  8
寸法線
 62
     0
370
    -2
100
AcDbLine
 10
2902.7106166667
 20
2296.3226666667
 30
0.0
 11
2517.269407043716
 21
2296.3226666667
 31
0.0
  0
LINE
  5
296
330
293
100
AcDbEntity
  8
寸法線
 62
     0
370
    -2
100
AcDbLine
 10
2547.269407043716
 20
1946.3231666667
 30
0.0
 11
2547.269407043716
 21
2246.3226666667
 31
0.0
  0
INSERT
  5
297
330
293
100
AcDbEntity
  8
寸法線
  6
ByBlock
 62
     0
370
    -2
100
AcDbBlockReference
  2
_Open30
 10
2547.269407043716
 20
1896.3231666667
 30
0.0
 41
50.0
 42
50.0
 43
50.0
 50
270.0
  0
INSERT
  5
298
330
293
100
AcDbEntity
  8
寸法線
  6
ByBlock
 62
     0
370
    -2
100
AcDbBlockReference
  2
_Open30
 10
2547.269407043716
 20
2296.3226666667
 30
0.0
 41
50.0
 42
50.0
 43
50.0
 50
90.0
  0
MTEXT
  5
299
330
293
100
AcDbEntity
  8
寸法線
  6
Continuous
 62
     0
100
AcDbMText
 10
2507.269407043716
 20
2101.296574362295
 30
0.0
 40
60.0
 41
0.0
 46
0.0
 71
     5
 72
     1
  1
\A1;400
 11
0.0
 21
1.0
 31
0.0
 73
     1
 44
1.0
  0
POINT
  5
29A
330
293
100
AcDbEntity
  8
Defpoints
  6
Continuous
 62
     0
100
AcDbPoint
 10
2932.7106166667
 20
1896.3231666667
 30
0.0
  0
POINT
  5
29B
330
293
100
AcDbEntity
  8
Defpoints
  6
Continuous
 62
     0
100
AcDbPoint
 10
2932.7106166667
 20
2296.3226666667
 30
0.0
  0
POINT
  5
29C
330
293
100
AcDbEntity
  8
Defpoints
  6
Continuous
 62
     0
100
AcDbPoint
 10
2547.269407043716
 20
2296.3226666667
 30
0.0
  0
ENDBLK
  5
29F
330
293
100
AcDbEntity
  8
0
  6
Continuous
100
AcDbBlockEnd
  0
BLOCK
  5
2AB
330
2A0
100
AcDbEntity
  8
0
  6
Continuous
100
AcDbBlockBegin
  2
*D19
 70
     1
 10
0.0
 20
0.0
 30
0.0
  3
*D19
  1
Acad:XRef
  0
LINE
  5
2A1
330
2A0
100
AcDbEntity
  8
寸法線
 62
     0
370
    -2
100
AcDbLine
 10
2973.7105166667
 20
1946.3230666667
 30
0.0
 11
2666.148831698739
 21
1946.3230666667
 31
0.0
  0
LINE
  5
2A2
330
2A0
100
AcDbEntity
  8
寸法線
 62
     0
370
    -2
100
AcDbLine
 10
2973.7105166667
 20
2246.3227666667
 30
0.0
 11
2666.148831698739
 21
2246.3227666667
 31
0.0
  0
LINE
  5
2A3
330
2A0
100
AcDbEntity
  8
寸法線
 62
     0
370
    -2
100
AcDbLine
 10
2696.148831698739
 20
1996.3230666667
 30
0.0
 11
2696.148831698739
 21
2196.3227666667
 31
0.0
  0
INSERT
  5
2A4
330
2A0
100
AcDbEntity
  8
寸法線
  6
ByBlock
 62
     0
370
    -2
100
AcDbBlockReference
  2
_Open30
 10
2696.148831698739
 20
1946.3230666667
 30
0.0
 41
50.0
 42
50.0
 43
50.0
 50
270.0
  0
INSERT
  5
2A5
330
2A0
100
AcDbEntity
  8
寸法線
  6
ByBlock
 62
     0
370
    -2
100
AcDbBlockReference
  2
_Open30
 10
2696.148831698739
 20
2246.3227666667
 30
0.0
 41
50.0
 42
50.0
 43
50.0
 50
90.0
  0
MTEXT
  5
2A6
330
2A0
100
AcDbEntity
  8
寸法線
  6
Continuous
 62
     0
100
AcDbMText
 10
2656.148831698739
 20
2096.3229166667
 30
0.0
 40
60.0
 41
0.0
 46
0.0
 71
     5
 72
     1
  1
\A1;300
 11
0.0
 21
1.0
 31
0.0
 73
     1
 44
1.0
  0
POINT
  5
2A7
330
2A0
100
AcDbEntity
  8
Defpoints
  6
Continuous
 62
     0
100
AcDbPoint
 10
3003.7105166667
 20
1946.3230666667
 30
0.0
  0
POINT
  5
2A8
330
2A0
100
AcDbEntity
  8
Defpoints
  6
Continuous
 62
     0
100
AcDbPoint
 10
3003.7105166667
 20
2246.3227666667
 30
0.0
  0
POINT
  5
2A9
330
2A0
100
AcDbEntity
  8
Defpoints
  6
Continuous
 62
     0
100
AcDbPoint
 10
2696.148831698739
 20
2246.3227666667
 30
0.0
  0
ENDBLK
  5
2AC
330
2A0
100
AcDbEntity
  8
0
  6
Continuous
100
AcDbBlockEnd
  0
BLOCK
  5
2B8
330
2AD
100
AcDbEntity
  8
0
  6
Continuous
100
AcDbBlockBegin
  2
*D20
 70
     1
 10
0.0
 20
0.0
 30
0.0
  3
*D20
  1
Acad:XRef
  0
LINE
  5
2AE
330
2AD
100
AcDbEntity
  8
寸法線
 62
     0
370
    -2
100
AcDbLine
 10
2903.7106166667
 20
2376.3226666667
 30
0.0
 11
2903.7106166667
 21
2692.18203125
 31
0.0
  0
LINE
  5
2AF
330
2AD
100
AcDbEntity
  8
寸法線
 62
     0
370
    -2
100
AcDbLine
 10
3403.7101166667
 20
2376.3226666667
 30
0.0
 11
3403.7101166667
 21
2692.18203125
 31
0.0
  0
LINE
  5
2B0
330
2AD
100
AcDbEntity
  8
寸法線
 62
     0
370
    -2
100
AcDbLine
 10
2953.7106166667
 20
2662.18203125
 30
0.0
 11
3353.7101166667
 21
2662.18203125
 31
0.0
  0
INSERT
  5
2B1
330
2AD
100
AcDbEntity
  8
寸法線
  6
ByBlock
 62
     0
370
    -2
100
AcDbBlockReference
  2
_Open30
 10
2903.7106166667
 20
2662.18203125
 30
0.0
 41
50.0
 42
50.0
 43
50.0
 50
180.0
  0
INSERT
  5
2B2
330
2AD
100
AcDbEntity
  8
寸法線
  6
ByBlock
 62
     0
370
    -2
100
AcDbBlockReference
  2
_Open30
 10
3403.7101166667
 20
2662.18203125
 30
0.0
 41
50.0
 42
50.0
 43
50.0
  0
MTEXT
  5
2B3
330
2AD
100
AcDbEntity
  8
寸法線
  6
Continuous
 62
     0
100
AcDbMText
 10
3153.7103666667
 20
2702.18203125
 30
0.0
 40
60.0
 41
0.0
 46
0.0
 71
     5
 72
     1
  1
\A1;500
 73
     1
 44
1.0
  0
POINT
  5
2B4
330
2AD
100
AcDbEntity
  8
Defpoints
  6
Continuous
 62
     0
100
AcDbPoint
 10
2903.7106166667
 20
2346.3226666667
 30
0.0
  0
POINT
  5
2B5
330
2AD
100
AcDbEntity
  8
Defpoints
  6
Continuous
 62
     0
100
AcDbPoint
 10
3403.7101166667
 20
2346.3226666667
 30
0.0
  0
POINT
  5
2B6
330
2AD
100
AcDbEntity
  8
Defpoints
  6
Continuous
 62
     0
100
AcDbPoint
 10
3403.7101166667
 20
2662.18203125
 30
0.0
  0
ENDBLK
  5
2B9
330
2AD
100
AcDbEntity
  8
0
  6
Continuous
100
AcDbBlockEnd
  0
BLOCK
  5
2C5
330
2BA
100
AcDbEntity
  8
0
  6
Continuous
100
AcDbBlockBegin
  2
*D21
 70
     1
 10
0.0
 20
0.0
 30
0.0
  3
*D21
  1
Acad:XRef
  0
LINE
  5
2BB
330
2BA
100
AcDbEntity
  8
寸法線
 62
     0
370
    -2
100
AcDbLine
 10
1567.0624811725
 20
2512.4250022175
 30
0.0
 11
1878.0489618854
 21
2512.4250022175
 31
0.0
  0
LINE
  5
2BC
330
2BA
100
AcDbEntity
  8
寸法線
 62
     0
370
    -2
100
AcDbLine
 10
1567.0624811725
 20
1912.4250022175
 30
0.0
 11
1878.0489618854
 21
1912.4250022175
 31
0.0
  0
LINE
  5
2BD
330
2BA
100
AcDbEntity
  8
寸法線
 62
     0
370
    -2
100
AcDbLine
 10
1848.0489618854
 20
2462.4250022175
 30
0.0
 11
1848.0489618854
 21
1962.4250022175
 31
0.0
  0
INSERT
  5
2BE
330
2BA
100
AcDbEntity
  8
寸法線
  6
ByBlock
 62
     0
370
    -2
100
AcDbBlockReference
  2
_Open30
 10
1848.0489618854
 20
2512.4250022175
 30
0.0
 41
50.0
 42
50.0
 43
50.0
 50
90.0
  0
INSERT
  5
2BF
330
2BA
100
AcDbEntity
  8
寸法線
  6
ByBlock
 62
     0
370
    -2
100
AcDbBlockReference
  2
_Open30
 10
1848.0489618854
 20
1912.4250022175
 30
0.0
 41
50.0
 42
50.0
 43
50.0
 50
270.0
  0
MTEXT
  5
2C0
330
2BA
100
AcDbEntity
  8
寸法線
  6
Continuous
 62
     0
100
AcDbMText
 10
1808.0489618854
 20
2212.4250022175
 30
0.0
 40
60.0
 41
0.0
 46
0.0
 71
     5
 72
     1
  1
\A1;600
 11
0.0
 21
1.0
 31
0.0
 73
     1
 44
1.0
  0
POINT
  5
2C1
330
2BA
100
AcDbEntity
  8
Defpoints
  6
Continuous
 62
     0
100
AcDbPoint
 10
1537.0624811725
 20
2512.4250022175
 30
0.0
  0
POINT
  5
2C2
330
2BA
100
AcDbEntity
  8
Defpoints
  6
Continuous
 62
     0
100
AcDbPoint
 10
1537.0624811725
 20
1912.4250022175
 30
0.0
  0
POINT
  5
2C3
330
2BA
100
AcDbEntity
  8
Defpoints
  6
Continuous
 62
     0
100
AcDbPoint
 10
1848.0489618854
 20
1912.4250022175
 30
0.0
  0
ENDBLK
  5
2C6
330
2BA
100
AcDbEntity
  8
0
  6
Continuous
100
AcDbBlockEnd
  0
BLOCK
  5
2D2
330
2C7
100
AcDbEntity
  8
0
  6
Continuous
100
AcDbBlockBegin
  2
*D22
 70
     1
 10
0.0
 20
0.0
 30
0.0
  3
*D22
  1
Acad:XRef
  0
LINE
  5
2C8
330
2C7
100
AcDbEntity
  8
寸法線
 62
     0
370
    -2
100
AcDbLine
 10
996.0627999999999
 20
2012.425325
 30
0.0
 11
653.0885568359
 21
2012.425325
 31
0.0
  0
LINE
  5
2C9
330
2C7
100
AcDbEntity
  8
寸法線
 62
     0
370
    -2
100
AcDbLine
 10
986.0628
 20
2412.424825
 30
0.0
 11
653.0885568359
 21
2412.424825
 31
0.0
  0
LINE
  5
2CA
330
2C7
100
AcDbEntity
  8
寸法線
 62
     0
370
    -2
100
AcDbLine
 10
683.0885568359
 20
2062.425325
 30
0.0
 11
683.0885568359
 21
2362.424825
 31
0.0
  0
INSERT
  5
2CB
330
2C7
100
AcDbEntity
  8
寸法線
  6
ByBlock
 62
     0
370
    -2
100
AcDbBlockReference
  2
_Open30
 10
683.0885568359
 20
2012.425325
 30
0.0
 41
50.0
 42
50.0
 43
50.0
 50
270.0
  0
INSERT
  5
2CC
330
2C7
100
AcDbEntity
  8
寸法線
  6
ByBlock
 62
     0
370
    -2
100
AcDbBlockReference
  2
_Open30
 10
683.0885568359
 20
2412.424825
 30
0.0
 41
50.0
 42
50.0
 43
50.0
 50
90.0
  0
MTEXT
  5
2CD
330
2C7
100
AcDbEntity
  8
寸法線
  6
Continuous
 62
     0
100
AcDbMText
 10
643.0885568359
 20
2212.425075
 30
0.0
 40
60.0
 41
0.0
 46
0.0
 71
     5
 72
     1
  1
\A1;400
 11
0.0
 21
1.0
 31
0.0
 73
     1
 44
1.0
  0
POINT
  5
2CE
330
2C7
100
AcDbEntity
  8
Defpoints
  6
Continuous
 62
     0
100
AcDbPoint
 10
1026.0628
 20
2012.425325
 30
0.0
  0
POINT
  5
2CF
330
2C7
100
AcDbEntity
  8
Defpoints
  6
Continuous
 62
     0
100
AcDbPoint
 10
1016.0628
 20
2412.424825
 30
0.0
  0
POINT
  5
2D0
330
2C7
100
AcDbEntity
  8
Defpoints
  6
Continuous
 62
     0
100
AcDbPoint
 10
683.0885568359
 20
2412.424825
 30
0.0
  0
ENDBLK
  5
2D3
330
2C7
100
AcDbEntity
  8
0
  6
Continuous
100
AcDbBlockEnd
  0
BLOCK
  5
2DF
330
2D4
100
AcDbEntity
  8
0
  6
Continuous
100
AcDbBlockBegin
  2
*D23
 70
     1
 10
0.0
 20
0.0
 30
0.0
  3
*D23
  1
Acad:XRef
  0
LINE
  5
2D5
330
2D4
100
AcDbEntity
  8
寸法線
 62
     0
370
    -2
100
AcDbLine
 10
1437.0623
 20
1961.425325
 30
0.0
 11
1437.0623
 21
1640.4760452148
 31
0.0
  0
LINE
  5
2D6
330
2D4
100
AcDbEntity
  8
寸法線
 62
     0
370
    -2
100
AcDbLine
 10
1037.0628
 20
1961.425325
 30
0.0
 11
1037.0628
 21
1640.4760452148
 31
0.0
  0
LINE
  5
2D7
330
2D4
100
AcDbEntity
  8
寸法線
 62
     0
370
    -2
100
AcDbLine
 10
1387.0623
 20
1670.4760452148
 30
0.0
 11
1087.0628
 21
1670.4760452148
 31
0.0
  0
INSERT
  5
2D8
330
2D4
100
AcDbEntity
  8
寸法線
  6
ByBlock
 62
     0
370
    -2
100
AcDbBlockReference
  2
_Open30
 10
1437.0623
 20
1670.4760452148
 30
0.0
 41
50.0
 42
50.0
 43
50.0
  0
INSERT
  5
2D9
330
2D4
100
AcDbEntity
  8
寸法線
  6
ByBlock
 62
     0
370
    -2
100
AcDbBlockReference
  2
_Open30
 10
1037.0628
 20
1670.4760452148
 30
0.0
 41
50.0
 42
50.0
 43
50.0
 50
180.0
  0
MTEXT
  5
2DA
330
2D4
100
AcDbEntity
  8
寸法線
  6
Continuous
 62
     0
100
AcDbMText
 10
1237.06255
 20
1710.4760452148
 30
0.0
 40
60.0
 41
0.0
 46
0.0
 71
     5
 72
     1
  1
\A1;400
 73
     1
 44
1.0
  0
POINT
  5
2DB
330
2D4
100
AcDbEntity
  8
Defpoints
  6
Continuous
 62
     0
100
AcDbPoint
 10
1437.0623
 20
1991.425325
 30
0.0
  0
POINT
  5
2DC
330
2D4
100
AcDbEntity
  8
Defpoints
  6
Continuous
 62
     0
100
AcDbPoint
 10
1037.0628
 20
1991.425325
 30
0.0
  0
POINT
  5
2DD
330
2D4
100
AcDbEntity
  8
Defpoints
  6
Continuous
 62
     0
100
AcDbPoint
 10
1037.0628
 20
1670.4760452148
 30
0.0
  0
ENDBLK
  5
2E0
330
2D4
100
AcDbEntity
  8
0
  6
Continuous
100
AcDbBlockEnd
  0
BLOCK
  5
2EC
330
2E1
100
AcDbEntity
  8
0
  6
Continuous
100
AcDbBlockBegin
  2
*D24
 70
     1
 10
0.0
 20
0.0
 30
0.0
  3
*D24
  1
Acad:XRef
  0
LINE
  5
2E2
330
2E1
100
AcDbEntity
  8
寸法線
 62
     0
370
    -2
100
AcDbLine
 10
1667.06255
 20
2612.425
 30
0.0
 11
2034.6823009766
 21
2612.425
 31
0.0
  0
LINE
  5
2E3
330
2E1
100
AcDbEntity
  8
寸法線
 62
     0
370
    -2
100
AcDbLine
 10
1667.06255
 20
1812.425
 30
0.0
 11
2034.6823009766
 21
1812.425
 31
0.0
  0
LINE
  5
2E4
330
2E1
100
AcDbEntity
  8
寸法線
 62
     0
370
    -2
100
AcDbLine
 10
2004.6823009766
 20
2562.425
 30
0.0
 11
2004.6823009766
 21
1862.425
 31
0.0
  0
INSERT
  5
2E5
330
2E1
100
AcDbEntity
  8
寸法線
  6
ByBlock
 62
     0
370
    -2
100
AcDbBlockReference
  2
_Open30
 10
2004.6823009766
 20
2612.425
 30
0.0
 41
50.0
 42
50.0
 43
50.0
 50
90.0
  0
INSERT
  5
2E6
330
2E1
100
AcDbEntity
  8
寸法線
  6
ByBlock
 62
     0
370
    -2
100
AcDbBlockReference
  2
_Open30
 10
2004.6823009766
 20
1812.425
 30
0.0
 41
50.0
 42
50.0
 43
50.0
 50
270.0
  0
MTEXT
  5
2E7
330
2E1
100
AcDbEntity
  8
寸法線
  6
Continuous
 62
     0
100
AcDbMText
 10
1964.6823009766
 20
2212.425
 30
0.0
 40
60.0
 41
0.0
 46
0.0
 71
     5
 72
     1
  1
\A1;800
 11
0.0
 21
1.0
 31
0.0
 73
     1
 44
1.0
  0
POINT
  5
2E8
330
2E1
100
AcDbEntity
  8
Defpoints
  6
Continuous
 62
     0
100
AcDbPoint
 10
1637.06255
 20
2612.425
 30
0.0
  0
POINT
  5
2E9
330
2E1
100
AcDbEntity
  8
Defpoints
  6
Continuous
 62
     0
100
AcDbPoint
 10
1637.06255
 20
1812.425
 30
0.0
  0
POINT
  5
2EA
330
2E1
100
AcDbEntity
  8
Defpoints
  6
Continuous
 62
     0
100
AcDbPoint
 10
2004.6823009766
 20
1812.425
 30
0.0
  0
ENDBLK
  5
2ED
330
2E1
100
AcDbEntity
  8
0
  6
Continuous
100
AcDbBlockEnd
  0
BLOCK
  5
2F9
330
2EE
100
AcDbEntity
  8
0
  6
Continuous
100
AcDbBlockBegin
  2
*D25
 70
     1
 10
0.0
 20
0.0
 30
0.0
  3
*D25
  1
Acad:XRef
  0
LINE
  5
2EF
330
2EE
100
AcDbEntity
  8
寸法線
 62
     0
370
    -2
100
AcDbLine
 10
1637.06255
 20
607.675
 30
0.0
 11
1637.06255
 21
335.2864501953
 31
0.0
  0
LINE
  5
2F0
330
2EE
100
AcDbEntity
  8
寸法線
 62
     0
370
    -2
100
AcDbLine
 10
837.06255
 20
607.675
 30
0.0
 11
837.06255
 21
335.2864501953
 31
0.0
  0
LINE
  5
2F1
330
2EE
100
AcDbEntity
  8
寸法線
 62
     0
370
    -2
100
AcDbLine
 10
1587.06255
 20
365.2864501953
 30
0.0
 11
887.06255
 21
365.2864501953
 31
0.0
  0
INSERT
  5
2F2
330
2EE
100
AcDbEntity
  8
寸法線
  6
ByBlock
 62
     0
370
    -2
100
AcDbBlockReference
  2
_Open30
 10
1637.06255
 20
365.2864501953
 30
0.0
 41
50.0
 42
50.0
 43
50.0
  0
INSERT
  5
2F3
330
2EE
100
AcDbEntity
  8
寸法線
  6
ByBlock
 62
     0
370
    -2
100
AcDbBlockReference
  2
_Open30
 10
837.06255
 20
365.2864501953
 30
0.0
 41
50.0
 42
50.0
 43
50.0
 50
180.0
  0
MTEXT
  5
2F4
330
2EE
100
AcDbEntity
  8
寸法線
  6
Continuous
 62
     0
100
AcDbMText
 10
1237.06255
 20
405.2864501953
 30
0.0
 40
60.0
 41
0.0
 46
0.0
 71
     5
 72
     1
  1
\A1;800
 73
     1
 44
1.0
  0
POINT
  5
2F5
330
2EE
100
AcDbEntity
  8
Defpoints
  6
Continuous
 62
     0
100
AcDbPoint
 10
1637.06255
 20
637.675
 30
0.0
  0
POINT
  5
2F6
330
2EE
100
AcDbEntity
  8
Defpoints
  6
Continuous
 62
     0
100
AcDbPoint
 10
837.06255
 20
637.675
 30
0.0
  0
POINT
  5
2F7
330
2EE
100
AcDbEntity
  8
Defpoints
  6
Continuous
 62
     0
100
AcDbPoint
 10
837.06255
 20
365.2864501953
 30
0.0
  0
ENDBLK
  5
2FA
330
2EE
100
AcDbEntity
  8
0
  6
Continuous
100
AcDbBlockEnd
  0
BLOCK
  5
306
330
2FB
100
AcDbEntity
  8
0
  6
Continuous
100
AcDbBlockBegin
  2
*D26
 70
     1
 10
0.0
 20
0.0
 30
0.0
  3
*D26
  1
Acad:XRef
  0
LINE
  5
2FC
330
2FB
100
AcDbEntity
  8
寸法線
 62
     0
370
    -2
100
AcDbLine
 10
1567.06255
 20
1157.675
 30
0.0
 11
1817.06255
 21
1157.675
 31
0.0
  0
LINE
  5
2FD
330
2FB
100
AcDbEntity
  8
寸法線
 62
     0
370
    -2
100
AcDbLine
 10
1667.06255
 20
637.675
 30
0.0
 11
1817.06255
 21
637.675
 31
0.0
  0
LINE
  5
2FE
330
2FB
100
AcDbEntity
  8
寸法線
 62
     0
370
    -2
100
AcDbLine
 10
1787.06255
 20
1107.675
 30
0.0
 11
1787.06255
 21
687.675
 31
0.0
  0
INSERT
  5
2FF
330
2FB
100
AcDbEntity
  8
寸法線
  6
ByBlock
 62
     0
370
    -2
100
AcDbBlockReference
  2
_Open30
 10
1787.06255
 20
1157.675
 30
0.0
 41
50.0
 42
50.0
 43
50.0
 50
90.0
  0
INSERT
  5
300
330
2FB
100
AcDbEntity
  8
寸法線
  6
ByBlock
 62
     0
370
    -2
100
AcDbBlockReference
  2
_Open30
 10
1787.06255
 20
637.675
 30
0.0
 41
50.0
 42
50.0
 43
50.0
 50
270.0
  0
MTEXT
  5
301
330
2FB
100
AcDbEntity
  8
寸法線
  6
Continuous
 62
     0
100
AcDbMText
 10
1747.06255
 20
897.675
 30
0.0
 40
60.0
 41
0.0
 46
0.0
 71
     5
 72
     1
  1
\A1;520
 11
0.0
 21
1.0
 31
0.0
 73
     1
 44
1.0
  0
POINT
  5
302
330
2FB
100
AcDbEntity
  8
Defpoints
  6
Continuous
 62
     0
100
AcDbPoint
 10
1537.06255
 20
1157.675
 30
0.0
  0
POINT
  5
303
330
2FB
100
AcDbEntity
  8
Defpoints
  6
Continuous
 62
     0
100
AcDbPoint
 10
1637.06255
 20
637.675
 30
0.0
  0
POINT
  5
304
330
2FB
100
AcDbEntity
  8
Defpoints
  6
Continuous
 62
     0
100
AcDbPoint
 10
1787.06255
 20
637.675
 30
0.0
  0
ENDBLK
  5
307
330
2FB
100
AcDbEntity
  8
0
  6
Continuous
100
AcDbBlockEnd
  0
BLOCK
  5
313
330
308
100
AcDbEntity
  8
0
  6
Continuous
100
AcDbBlockBegin
  2
*D27
 70
     1
 10
0.0
 20
0.0
 30
0.0
  3
*D27
  1
Acad:XRef
  0
LINE
  5
309
330
308
100
AcDbEntity
  8
寸法線
 62
     0
370
    -2
100
AcDbLine
 10
940.6189
 20
658.9140020833
 30
0.0
 11
625.9025914062
 21
658.9140020833
 31
0.0
  0
LINE
  5
30A
330
308
100
AcDbEntity
  8
寸法線
 62
     0
370
    -2
100
AcDbLine
 10
996.0625
 20
1258.9138020833
 30
0.0
 11
625.9025914062
 21
1258.9138020833
 31
0.0
  0
LINE
  5
30B
330
308
100
AcDbEntity
  8
寸法線
 62
     0
370
    -2
100
AcDbLine
 10
655.9025914062
 20
708.9140020833
 30
0.0
 11
655.9025914062
 21
1208.9138020833
 31
0.0
  0
INSERT
  5
30C
330
308
100
AcDbEntity
  8
寸法線
  6
ByBlock
 62
     0
370
    -2
100
AcDbBlockReference
  2
_Open30
 10
655.9025914062
 20
658.9140020833
 30
0.0
 41
50.0
 42
50.0
 43
50.0
 50
270.0
  0
INSERT
  5
30D
330
308
100
AcDbEntity
  8
寸法線
  6
ByBlock
 62
     0
370
    -2
100
AcDbBlockReference
  2
_Open30
 10
655.9025914062
 20
1258.9138020833
 30
0.0
 41
50.0
 42
50.0
 43
50.0
 50
90.0
  0
MTEXT
  5
30E
330
308
100
AcDbEntity
  8
寸法線
  6
Continuous
 62
     0
100
AcDbMText
 10
615.9025914062
 20
928.8489597315
 30
0.0
 40
60.0
 41
0.0
 46
0.0
 71
     5
 72
     1
  1
\A1;600
 11
0.0
 21
1.0
 31
0.0
 73
     1
 44
1.0
  0
POINT
  5
30F
330
308
100
AcDbEntity
  8
Defpoints
  6
Continuous
 62
     0
100
AcDbPoint
 10
970.6189
 20
658.9140020833
 30
0.0
  0
POINT
  5
310
330
308
100
AcDbEntity
  8
Defpoints
  6
Continuous
 62
     0
100
AcDbPoint
 10
1026.0625
 20
1258.9138020833
 30
0.0
  0
POINT
  5
311
330
308
100
AcDbEntity
  8
Defpoints
  6
Continuous
 62
     0
100
AcDbPoint
 10
655.9025914062
 20
1258.9138020833
 30
0.0
  0
ENDBLK
  5
314
330
308
100
AcDbEntity
  8
0
  6
Continuous
100
AcDbBlockEnd
  0
BLOCK
  5
322
330
321
100
AcDbEntity
  8
0
100
AcDbBlockBegin
  2
_Open30
 70
     0
 10
0.0
 20
0.0
 30
0.0
  3
_Open30
  1

  0
LINE
  5
323
330
321
100
AcDbEntity
  8
0
  6
Continuous
 62
     0
370
    -2
100
AcDbLine
 10
-1.0
 20
0.26794919
 30
0.0
 11
0.0
 21
0.0
 31
0.0
  0
LINE
  5
324
330
321
100
AcDbEntity
  8
0
  6
Continuous
 62
     0
370
    -2
100
AcDbLine
 10
0.0
 20
0.0
 30
0.0
 11
-1.0
 21
-0.26794919
 31
0.0
  0
LINE
  5
325
330
321
100
AcDbEntity
  8
0
  6
Continuous
 62
     0
370
    -2
100
AcDbLine
 10
0.0
 20
0.0
 30
0.0
 11
-1.0
 21
0.0
 31
0.0
  0
ENDBLK
  5
326
330
321
100
AcDbEntity
  8
0
100
AcDbBlockEnd
  0
ENDSEC
  0
SECTION
  2
ENTITIES
  0
LINE
  5
29
330
A
100
AcDbEntity
  8
LAYER0
  6
Continuous
100
AcDbLine
 10
3119.8111779096
 20
128.1649267535
 30
0.0
 11
3262.5469243314
 21
128.165212225
 31
0.0
  0
LINE
  5
2B
330
A
100
AcDbEntity
  8
LAYER5
  6
BORDER
 62
     3
 48
2.0
100
AcDbLine
 10
3144.7103166667
 20
2096.3228666667
 30
0.0
 11
3162.7103166667
 21
2096.3228666667
 31
0.0
  0
CIRCLE
  5
2C
330
A
100
AcDbEntity
  8
LAYER0_00000000
  6
Continuous
100
AcDbCircle
 10
3153.7103166667
 20
2096.3228666667
 30
0.0
 40
9.0
  0
LINE
  5
2D
330
A
100
AcDbEntity
  8
LAYER0_00000000
  6
Continuous
100
AcDbLine
 10
2903.7106166667
 20
1846.3231666667
 30
0.0
 11
3403.7101166667
 21
1846.3231666667
 31
0.0
  0
LINE
  5
2E
330
A
100
AcDbEntity
  8
LAYER0_00000000
  6
Continuous
100
AcDbLine
 10
3403.7101166667
 20
2346.3226666667
 30
0.0
 11
2903.7106166667
 21
2346.3226666667
 31
0.0
  0
LINE
  5
2F
330
A
100
AcDbEntity
  8
LAYER0_00000000
  6
DASHDOT
 62
     3
 48
5.0
100
AcDbLine
 10
2879.3771166667
 20
2096.3228416667
 30
0.0
 11
3428.0435166667
 21
2096.3228916667
 31
0.0
  0
LINE
  5
30
330
A
100
AcDbEntity
  8
LAYER0_00000000
  6
DASHDOT
 62
     3
 48
5.0
100
AcDbLine
 10
3153.7103416667
 20
1828.9896666667
 30
0.0
 11
3153.7102916667
 21
2363.6560666667
 31
0.0
  0
LINE
  5
31
330
A
100
AcDbEntity
  8
LAYER0_00000000
  6
Continuous
100
AcDbLine
 10
2903.7106166667
 20
2346.3226666667
 30
0.0
 11
2903.7106166667
 21
1846.3231666667
 31
0.0
  0
CIRCLE
  5
32
330
A
100
AcDbEntity
  8
LAYER0_00000000
  6
Continuous
100
AcDbCircle
 10
2953.7106166667
 20
1896.3231666667
 30
0.0
 40
11.0
  0
LINE
  5
34
330
A
100
AcDbEntity
  8
LAYER5
  6
BORDER
 62
     3
 48
2.0
100
AcDbLine
 10
2953.7106166667
 20
1917.3230666667
 30
0.0
 11
2953.7106166667
 21
1875.3231666667
 31
0.0
  0
LINE
  5
35
330
A
100
AcDbEntity
  8
LAYER0_00000000
  6
Continuous
 62
     3
100
AcDbLine
 10
3259.3041166667
 20
2189.2723666667
 30
0.0
 11
3532.3969166667
 21
2088.6382666667
 31
0.0
  0
LINE
  5
36
330
A
100
AcDbEntity
  8
LAYER5
  6
BORDER
 62
     3
 48
2.0
100
AcDbLine
 10
3253.7102166667
 20
2086.3228666667
 30
0.0
 11
3253.7102166667
 21
2106.3228666667
 31
0.0
  0
LINE
  5
37
330
A
100
AcDbEntity
  8
LAYER5
  6
BORDER
 62
     3
 48
2.0
100
AcDbLine
 10
3253.7102166667
 20
2186.3227666667
 30
0.0
 11
3253.7102166667
 21
2206.3227666667
 31
0.0
  0
LINE
  5
38
330
A
100
AcDbEntity
  8
LAYER5
  6
BORDER
 62
     3
 48
2.0
100
AcDbLine
 10
3263.7102166667
 20
2196.3227666667
 30
0.0
 11
3243.7103166667
 21
2196.3227666667
 31
0.0
  0
ARC
  5
39
330
A
100
AcDbEntity
  8
LAYER0_00000000
  6
Continuous
100
AcDbCircle
 10
3199.4103166667
 20
2050.6229666667
 30
0.0
 40
4.3
100
AcDbArc
 50
270.0
 51
0.0
  0
LINE
  5
3A
330
A
100
AcDbEntity
  8
LAYER0_00000000
  6
Continuous
100
AcDbLine
 10
3203.7103166667
 20
2142.0228666667
 30
0.0
 11
3203.7103166667
 21
2050.6229666667
 31
0.0
  0
LINE
  5
3B
330
A
100
AcDbEntity
  8
LAYER0_00000000
  6
Continuous
100
AcDbLine
 10
3203.7103166667
 20
2246.3227666667
 30
0.0
 11
3203.7103166667
 21
2141.5228666667
 31
0.0
  0
LINE
  5
3C
330
A
100
AcDbEntity
  8
LAYER0_00000000
  6
Continuous
100
AcDbLine
 10
3403.7101166667
 20
1846.3231666667
 30
0.0
 11
3403.7101166667
 21
2346.3226666667
 31
0.0
  0
LINE
  5
3D
330
A
100
AcDbEntity
  8
LAYER5
  6
BORDER
 62
     3
 48
2.0
100
AcDbLine
 10
3353.7101166667
 20
1917.3230666667
 30
0.0
 11
3353.7101166667
 21
1875.3231666667
 31
0.0
  0
CIRCLE
  5
3E
330
A
100
AcDbEntity
  8
LAYER0_00000000
  6
Continuous
100
AcDbCircle
 10
3353.7101166667
 20
1896.3231666667
 30
0.0
 40
11.0
  0
LINE
  5
40
330
A
100
AcDbEntity
  8
LAYER2
  6
Continuous
 62
     3
100
AcDbLine
 10
3413.7101166667
 20
1940.8335666667
 30
0.0
 11
3533.0695166667
 21
1787.3661666667
 31
0.0
  0
LINE
  5
41
330
A
100
AcDbEntity
  8
LAYER0_00000000
  6
Continuous
 62
     3
100
AcDbLine
 10
3586.274808227904
 20
2426.820614915483
 30
0.0
 11
4084.389282510124
 21
2426.820614915483
 31
0.0
  0
LINE
  5
42
330
A
100
AcDbEntity
  8
LAYER2
  6
Continuous
 62
     3
100
AcDbLine
 10
4084.389282510124
 20
2253.255771591208
 30
0.0
 11
3525.889850637225
 21
2253.255771591208
 31
0.0
  0
LINE
  5
43
330
A
100
AcDbEntity
  8
LAYER0_00000000
  6
Continuous
100
AcDbLine
 10
3106.0104166667
 20
2142.0228666667
 30
0.0
 11
3106.0104166667
 21
2050.6229666667
 31
0.0
  0
LINE
  5
44
330
A
100
AcDbEntity
  8
LAYER0_00000000
  6
Continuous
100
AcDbLine
 10
3203.7103166667
 20
2050.8228666667
 30
0.0
 11
3203.7103166667
 21
1946.3230666667
 31
0.0
  0
LINE
  5
45
330
A
100
AcDbEntity
  8
LAYER0_00000000
  6
Continuous
100
AcDbLine
 10
3201.4103166667
 20
2142.0228666667
 30
0.0
 11
3201.4103166667
 21
2050.6229666667
 31
0.0
  0
CIRCLE
  5
46
330
A
100
AcDbEntity
  8
LAYER0_00000000
  6
Continuous
100
AcDbCircle
 10
3253.7102166667
 20
2096.3228666667
 30
0.0
 40
9.0
  0
LINE
  5
47
330
A
100
AcDbEntity
  8
LAYER0_00000000
  6
Continuous
 62
     3
100
AcDbLine
 10
3303.7102166667
 20
2197.2152464894
 30
0.0
 11
3329.653635341672
 21
2211.149559186592
 31
0.0
  0
LINE
  5
48
330
A
100
AcDbEntity
  8
LAYER0_00000000
  6
Continuous
100
AcDbLine
 10
3203.7103166667
 20
2246.3227666667
 30
0.0
 11
3303.7102166667
 21
2246.3227666667
 31
0.0
  0
LINE
  5
49
330
A
100
AcDbEntity
  8
LAYER0_00000000
  6
Continuous
 62
     3
100
AcDbLine
 10
3259.3041166667
 20
2189.2723666667
 30
0.0
 11
3286.5692166667
 21
2188.0344666667
 31
0.0
  0
LINE
  5
4A
330
A
100
AcDbEntity
  8
LAYER5
  6
BORDER
 62
     3
 48
2.0
100
AcDbLine
 10
3243.7103166667
 20
2096.3228666667
 30
0.0
 11
3263.7102166667
 21
2096.3228666667
 31
0.0
  0
LINE
  5
4B
330
A
100
AcDbEntity
  8
LAYER0_00000000
  6
Continuous
100
AcDbLine
 10
3103.7104166667
 20
2142.0228666667
 30
0.0
 11
3103.7104166667
 21
2050.6229666667
 31
0.0
  0
LINE
  5
4C
330
A
100
AcDbEntity
  8
LAYER0_00000000
  6
Continuous
100
AcDbLine
 10
3003.7105166667
 20
2246.3227666667
 30
0.0
 11
3103.7104166667
 21
2246.3227666667
 31
0.0
  0
LINE
  5
4D
330
A
100
AcDbEntity
  8
LAYER0_00000000
  6
Continuous
100
AcDbLine
 10
3003.7105166667
 20
2246.3227666667
 30
0.0
 11
3003.7105166667
 21
1946.3230666667
 31
0.0
  0
LINE
  5
4E
330
A
100
AcDbEntity
  8
LAYER0_00000000
  6
Continuous
100
AcDbLine
 10
3093.7104166667
 20
2246.3227666667
 30
0.0
 11
3093.7104166667
 21
1946.3230666667
 31
0.0
  0
LINE
  5
4F
330
A
100
AcDbEntity
  8
LAYER0_00000000
  6
Continuous
 62
     3
100
AcDbLine
 10
3403.7101166667
 20
1958.1540666667
 30
0.0
 11
3411.3233166667
 21
1928.6668666667
 31
0.0
  0
LINE
  5
50
330
A
100
AcDbEntity
  8
LAYER0_00000000
  6
Continuous
 62
     3
100
AcDbLine
 10
3427.5968166667
 20
1938.0002666667
 30
0.0
 11
3403.7101166667
 21
1958.1540666667
 31
0.0
  0
CIRCLE
  5
51
330
A
100
AcDbEntity
  8
LAYER0_00000000
  6
Continuous
100
AcDbCircle
 10
3253.7102166667
 20
1996.3229666667
 30
0.0
 40
9.0
  0
LINE
  5
52
330
A
100
AcDbEntity
  8
LAYER5
  6
BORDER
 62
     3
 48
2.0
100
AcDbLine
 10
3332.7102166667
 20
1896.3231666667
 30
0.0
 11
3374.7101166667
 21
1896.3231666667
 31
0.0
  0
LINE
  5
53
330
A
100
AcDbEntity
  8
LAYER0_00000000
  6
Continuous
100
AcDbLine
 10
3203.7103166667
 20
1946.3230666667
 30
0.0
 11
3303.7102166667
 21
1946.3230666667
 31
0.0
  0
LINE
  5
54
330
A
100
AcDbEntity
  8
LAYER0_00000000
  6
Continuous
 62
     3
100
AcDbLine
 10
3303.7102166667
 20
2197.2152464894
 30
0.0
 11
3333.454686876719
 21
2198.316962123152
 31
0.0
  0
LINE
  5
55
330
A
100
AcDbEntity
  8
LAYER5
  6
BORDER
 62
     3
 48
2.0
100
AcDbLine
 10
3353.7101166667
 20
2317.3226666667
 30
0.0
 11
3353.7101166667
 21
2275.3226666667
 31
0.0
  0
LINE
  5
56
330
A
100
AcDbEntity
  8
LAYER5
  6
BORDER
 62
     3
 48
2.0
100
AcDbLine
 10
3063.7104166667
 20
2196.3227666667
 30
0.0
 11
3043.7105166667
 21
2196.3227666667
 31
0.0
  0
ARC
  5
57
330
A
100
AcDbEntity
  8
LAYER0_00000000
  6
Continuous
100
AcDbCircle
 10
3108.0104166667
 20
2142.0228666667
 30
0.0
 40
2.0
100
AcDbArc
 50
90.0
 51
180.0
  0
CIRCLE
  5
58
330
A
100
AcDbEntity
  8
LAYER0_00000000
  6
Continuous
100
AcDbCircle
 10
3053.7105166667
 20
2196.3227666667
 30
0.0
 40
9.0
  0
ARC
  5
59
330
A
100
AcDbEntity
  8
LAYER0_00000000
  6
Continuous
100
AcDbCircle
 10
3108.0104166667
 20
2142.0228666667
 30
0.0
 40
4.3
100
AcDbArc
 50
90.0
 51
180.0
  0
LINE
  5
5A
330
A
100
AcDbEntity
  8
LAYER5
  6
BORDER
 62
     3
 48
2.0
100
AcDbLine
 10
3043.7105166667
 20
2096.3228666667
 30
0.0
 11
3063.7104166667
 21
2096.3228666667
 31
0.0
  0
LINE
  5
5B
330
A
100
AcDbEntity
  8
LAYER5
  6
BORDER
 62
     3
 48
2.0
100
AcDbLine
 10
2932.7106166667
 20
1896.3231666667
 30
0.0
 11
2974.7105166667
 21
1896.3231666667
 31
0.0
  0
LINE
  5
5C
330
A
100
AcDbEntity
  8
LAYER5
  6
BORDER
 62
     3
 48
2.0
100
AcDbLine
 10
3043.7105166667
 20
1996.3229666667
 30
0.0
 11
3063.7104166667
 21
1996.3229666667
 31
0.0
  0
LINE
  5
5D
330
A
100
AcDbEntity
  8
LAYER5
  6
BORDER
 62
     3
 48
2.0
100
AcDbLine
 10
3053.7105166667
 20
1986.3230666667
 30
0.0
 11
3053.7105166667
 21
2006.3229666667
 31
0.0
  0
LINE
  5
5E
330
A
100
AcDbEntity
  8
LAYER0_00000000
  6
Continuous
100
AcDbLine
 10
3003.7105166667
 20
1946.3230666667
 30
0.0
 11
3103.7104166667
 21
1946.3230666667
 31
0.0
  0
CIRCLE
  5
5F
330
A
100
AcDbEntity
  8
LAYER0_00000000
  6
Continuous
100
AcDbCircle
 10
3053.7105166667
 20
1996.3229666667
 30
0.0
 40
9.0
  0
LINE
  5
60
330
A
100
AcDbEntity
  8
LAYER0_00000000
  6
Continuous
100
AcDbLine
 10
3108.0104166667
 20
2046.3229666667
 30
0.0
 11
3199.4103166667
 21
2046.3229666667
 31
0.0
  0
LINE
  5
61
330
A
100
AcDbEntity
  8
LAYER0_00000000
  6
Continuous
100
AcDbLine
 10
3108.0104166667
 20
2144.0228666667
 30
0.0
 11
3199.4103166667
 21
2144.0228666667
 31
0.0
  0
LINE
  5
62
330
A
100
AcDbEntity
  8
LAYER0_00000000
  6
Continuous
100
AcDbLine
 10
3108.0104166667
 20
2146.3228666667
 30
0.0
 11
3199.4103166667
 21
2146.3228666667
 31
0.0
  0
ARC
  5
63
330
A
100
AcDbEntity
  8
LAYER0_00000000
  6
Continuous
100
AcDbCircle
 10
3108.0104166667
 20
2050.6229666667
 30
0.0
 40
2.0
100
AcDbArc
 50
180.0
 51
270.0
  0
ARC
  5
64
330
A
100
AcDbEntity
  8
LAYER0_00000000
  6
Continuous
100
AcDbCircle
 10
3108.0104166667
 20
2050.6229666667
 30
0.0
 40
4.3
100
AcDbArc
 50
180.0
 51
270.0
  0
LINE
  5
65
330
A
100
AcDbEntity
  8
LAYER0_00000000
  6
Continuous
100
AcDbLine
 10
3108.0104166667
 20
2048.6229666667
 30
0.0
 11
3199.4103166667
 21
2048.6229666667
 31
0.0
  0
LINE
  5
66
330
A
100
AcDbEntity
  8
LAYER0_00000000
  6
Continuous
 62
     3
100
AcDbLine
 10
3361.3264166667
 20
2304.2594666667
 30
0.0
 11
3390.5394166667
 21
2312.8868666667
 31
0.0
  0
LINE
  5
67
330
A
100
AcDbEntity
  8
LAYER0_00000000
  6
Continuous
 62
     3
100
AcDbLine
 10
3361.3264166667
 20
2304.2594666667
 30
0.0
 11
3586.274808227904
 21
2426.820614915483
 31
0.0
  0
LINE
  5
68
330
A
100
AcDbEntity
  8
LAYER0_00000000
  6
Continuous
100
AcDbLine
 10
2870.0236216713
 20
584.9158896455
 30
0.0
 11
2870.0236216713
 21
520.6848037557
 31
0.0
  0
LINE
  5
6A
330
A
100
AcDbEntity
  8
LAYER4
  6
Continuous
100
AcDbLine
 10
4233.2975173939
 20
128.1669964219
 30
0.0
 11
3590.8391411017
 21
128.165783168
 31
0.0
  0
LINE
  5
6B
330
A
100
AcDbEntity
  8
LAYER0_00000000
  6
Continuous
100
AcDbLine
 10
2820.0661104237
 20
327.9942580654
 30
0.0
 11
4233.15
 21
327.9942580654
 31
0.0
  0
LINE
  5
6C
330
A
100
AcDbEntity
  8
LAYER4
  6
Continuous
100
AcDbLine
 10
4233.15
 20
520.6875157349
 30
0.0
 11
2820.0661104237
 21
520.6848751236
 31
0.0
  0
LINE
  5
6D
330
A
100
AcDbEntity
  8
LAYER0_00000000
  6
Continuous
100
AcDbLine
 10
3119.8111779096
 20
327.9942580654
 30
0.0
 11
3119.8111779096
 21
520.6848037557
 31
0.0
  0
LINE
  5
6E
330
A
100
AcDbEntity
  8
LAYER0_00000000
  6
Continuous
100
AcDbLine
 10
2748.6982372127
 20
392.2253439552
 30
0.0
 11
3119.8111779096
 21
392.2253439552
 31
0.0
  0
LINE
  5
6F
330
A
100
AcDbEntity
  8
LAYER0_00000000
  6
Continuous
100
AcDbLine
 10
3119.8111779096
 20
456.4564298451
 30
0.0
 11
2748.6982372127
 21
456.4564298451
 31
0.0
  0
LINE
  5
70
330
A
100
AcDbEntity
  8
LAYER0_00000000
  6
Continuous
100
AcDbLine
 10
3103.7104166667
 20
2246.3227666667
 30
0.0
 11
3103.7104166667
 21
2143.9228666667
 31
0.0
  0
LINE
  5
71
330
A
100
AcDbEntity
  8
LAYER5
  6
BORDER
 62
     3
 48
2.0
100
AcDbLine
 10
3153.7103166667
 20
2087.3228666667
 30
0.0
 11
3153.7103166667
 21
2105.3228666667
 31
0.0
  0
ARC
  5
72
330
A
100
AcDbEntity
  8
LAYER0_00000000
  6
Continuous
100
AcDbCircle
 10
3199.4103166667
 20
2142.0228666667
 30
0.0
 40
4.3
100
AcDbArc
 50
0.0
 51
90.0
  0
CIRCLE
  5
73
330
A
100
AcDbEntity
  8
LAYER0_00000000
  6
Continuous
100
AcDbCircle
 10
3053.7105166667
 20
2096.3228666667
 30
0.0
 40
9.0
  0
LINE
  5
74
330
A
100
AcDbEntity
  8
LAYER5
  6
BORDER
 62
     3
 48
2.0
100
AcDbLine
 10
3053.7105166667
 20
2186.3227666667
 30
0.0
 11
3053.7105166667
 21
2206.3227666667
 31
0.0
  0
LINE
  5
75
330
A
100
AcDbEntity
  8
LAYER5
  6
BORDER
 62
     3
 48
2.0
100
AcDbLine
 10
3053.7105166667
 20
2086.3228666667
 30
0.0
 11
3053.7105166667
 21
2106.3228666667
 31
0.0
  0
CIRCLE
  5
76
330
A
100
AcDbEntity
  8
LAYER0_00000000
  6
Continuous
100
AcDbCircle
 10
2953.7106166667
 20
2296.3226666667
 30
0.0
 40
11.0
  0
LINE
  5
77
330
A
100
AcDbEntity
  8
LAYER5
  6
BORDER
 62
     3
 48
2.0
100
AcDbLine
 10
2932.7106166667
 20
2296.3226666667
 30
0.0
 11
2974.7105166667
 21
2296.3226666667
 31
0.0
  0
LINE
  5
78
330
A
100
AcDbEntity
  8
LAYER5
  6
BORDER
 62
     3
 48
2.0
100
AcDbLine
 10
2953.7106166667
 20
2317.3226666667
 30
0.0
 11
2953.7106166667
 21
2275.3226666667
 31
0.0
  0
ARC
  5
79
330
A
100
AcDbEntity
  8
LAYER0_00000000
  6
Continuous
100
AcDbCircle
 10
3199.4103166667
 20
2142.0228666667
 30
0.0
 40
2.0
100
AcDbArc
 50
0.0
 51
90.0
  0
LINE
  5
7A
330
A
100
AcDbEntity
  8
LAYER2
  6
Continuous
 62
     3
100
AcDbLine
 10
3835.590121519155
 20
1787.3661666667
 30
0.0
 11
3533.0695166667
 21
1787.3661666667
 31
0.0
  0
LINE
  5
7B
330
A
100
AcDbEntity
  8
LAYER0_00000000
  6
Continuous
 62
     3
100
AcDbLine
 10
3303.7102166667
 20
2197.2152464894
 30
0.0
 11
3525.889850637225
 21
2253.255771591208
 31
0.0
  0
LINE
  5
7C
330
A
100
AcDbEntity
  8
LAYER0_00000000
  6
Continuous
100
AcDbLine
 10
3213.7103166667
 20
2246.3227666667
 30
0.0
 11
3213.7103166667
 21
1946.3230666667
 31
0.0
  0
ARC
  5
7D
330
A
100
AcDbEntity
  8
LAYER0_00000000
  6
Continuous
100
AcDbCircle
 10
3199.4103166667
 20
2050.6229666667
 30
0.0
 40
2.0
100
AcDbArc
 50
270.0
 51
0.0
  0
LINE
  5
7E
330
A
100
AcDbEntity
  8
LAYER0_00000000
  6
Continuous
 62
     3
100
AcDbLine
 10
3532.3969166667
 20
2088.6382666667
 30
0.0
 11
4084.389282510124
 21
2088.6382666667
 31
0.0
  0
LINE
  5
7F
330
A
100
AcDbEntity
  8
LAYER0_00000000
  6
Continuous
 62
     3
100
AcDbLine
 10
3259.3041166667
 20
2189.2723666667
 30
0.0
 11
3281.0197166667
 21
2173.5307666667
 31
0.0
  0
LINE
  5
80
330
A
100
AcDbEntity
  8
LAYER5
  6
BORDER
 62
     3
 48
2.0
100
AcDbLine
 10
3253.7102166667
 20
1986.3230666667
 30
0.0
 11
3253.7102166667
 21
2006.3229666667
 31
0.0
  0
LINE
  5
81
330
A
100
AcDbEntity
  8
LAYER5
  6
BORDER
 62
     3
 48
2.0
100
AcDbLine
 10
3243.7103166667
 20
1996.3229666667
 30
0.0
 11
3263.7102166667
 21
1996.3229666667
 31
0.0
  0
LINE
  5
82
330
A
100
AcDbEntity
  8
LAYER5
  6
BORDER
 62
     3
 48
2.0
100
AcDbLine
 10
1137.0627
 20
2302.424925
 30
0.0
 11
1137.0627
 21
2322.424925
 31
0.0
  0
CIRCLE
  5
83
330
A
100
AcDbEntity
  8
LAYER0_00000000
  6
Continuous
100
AcDbCircle
 10
1137.0627
 20
2212.425025
 30
0.0
 40
9.0
  0
LINE
  5
84
330
A
100
AcDbEntity
  8
LAYER5
  6
BORDER
 62
     3
 48
2.0
100
AcDbLine
 10
1416.0624
 20
2412.424825
 30
0.0
 11
1458.0623
 21
2412.424825
 31
0.0
  0
CIRCLE
  5
85
330
A
100
AcDbEntity
  8
LAYER0_00000000
  6
Continuous
100
AcDbCircle
 10
1137.0627
 20
2112.425125
 30
0.0
 40
9.0
  0
LINE
  5
86
330
A
100
AcDbEntity
  8
LAYER6
  6
Continuous
 62
     3
100
AcDbLine
 10
1137.0627
 20
2102.425225
 30
0.0
 11
1137.0627
 21
2122.425125
 31
0.0
  0
LINE
  5
87
330
A
100
AcDbEntity
  8
LAYER6
  6
Continuous
 62
     3
100
AcDbLine
 10
1127.0627
 20
2112.425125
 30
0.0
 11
1147.0626
 21
2112.425125
 31
0.0
  0
LINE
  5
88
330
A
100
AcDbEntity
  8
LAYER6
  6
Continuous
 62
     3
100
AcDbLine
 10
1016.0628
 20
2012.425325
 30
0.0
 11
1058.0627
 21
2012.425325
 31
0.0
  0
CIRCLE
  5
89
330
A
100
AcDbEntity
  8
LAYER0_00000000
  6
Continuous
100
AcDbCircle
 10
3353.7101166667
 20
2296.3226666667
 30
0.0
 40
11.0
  0
LINE
  5
8A
330
A
100
AcDbEntity
  8
LAYER0_00000000
  6
Continuous
100
AcDbLine
 10
3119.8111779096
 20
424.3408869001
 30
0.0
 11
3628.932507345867
 21
424.33953091055
 31
0.0
  0
LINE
  5
8B
330
A
100
AcDbEntity
  8
LAYER4
  6
Continuous
100
AcDbLine
 10
3590.8391411017
 20
128.165783168
 30
0.0
 11
3262.5469243314
 21
128.165212225
 31
0.0
  0
LINE
  5
8C
330
A
100
AcDbEntity
  8
LAYER4
  6
Continuous
100
AcDbLine
 10
2748.6982372127
 20
317.2863651046
 30
0.0
 11
2748.6982372127
 21
422.9108174567
 31
0.0
  0
LINE
  5
8D
330
A
100
AcDbEntity
  8
LAYER4
  6
Continuous
100
AcDbLine
 10
2820.0661104237
 20
520.6848751236
 30
0.0
 11
2748.6982372127
 21
520.6848037557
 31
0.0
  0
LINE
  5
8E
330
A
100
AcDbEntity
  8
LAYER4
  6
Continuous
100
AcDbLine
 10
2820.0661104237
 20
520.6848751236
 30
0.0
 11
2748.6982372127
 21
520.6848037557
 31
0.0
  0
LINE
  5
8F
330
A
100
AcDbEntity
  8
LAYER4
  6
Continuous
100
AcDbLine
 10
4233.1498666358
 20
592.0553889457
 30
0.0
 11
2748.6982372127
 21
592.0553889457
 31
0.0
  0
LINE
  5
90
330
A
100
AcDbEntity
  8
LAYER4
  6
Continuous
100
AcDbLine
 10
90.9917410004
 20
-14.56875
 30
0.0
 11
4233.15
 21
-14.56875
 31
0.0
  0
LINE
  5
91
330
A
100
AcDbEntity
  8
LAYER0_00000000
  6
Continuous
100
AcDbLine
 10
3862.0370593032
 20
584.9158896455
 30
0.0
 11
3862.0370593032
 21
520.686873424
 31
0.0
  0
LINE
  5
92
330
A
100
AcDbEntity
  8
LAYER4
  6
Continuous
100
AcDbLine
 10
4233.15
 20
-14.56875
 30
0.0
 11
4233.15
 21
2920.7140983009
 31
0.0
  0
LINE
  5
93
330
A
100
AcDbEntity
  8
LAYER0_00000000
  6
Continuous
100
AcDbLine
 10
3490.9241186064
 20
592.054675267
 30
0.0
 11
3490.9241186064
 21
520.6861597453
 31
0.0
  0
LINE
  5
94
330
A
100
AcDbEntity
  8
LAYER0_00000000
  6
Continuous
100
AcDbLine
 10
3490.9241186064
 20
584.9158896455
 30
0.0
 11
3490.9241186064
 21
520.6861597453
 31
0.0
  0
LINE
  5
95
330
A
100
AcDbEntity
  8
LAYER0_00000000
  6
Continuous
100
AcDbLine
 10
3103.7104166667
 20
2050.8228666667
 30
0.0
 11
3103.7104166667
 21
1946.3230666667
 31
0.0
  0
LINE
  5
96
330
A
100
AcDbEntity
  8
LAYER5
  6
BORDER
 62
     3
 48
2.0
100
AcDbLine
 10
3332.7102166667
 20
2296.3226666667
 30
0.0
 11
3374.7101166667
 21
2296.3226666667
 31
0.0
  0
LINE
  5
97
330
A
100
AcDbEntity
  8
LAYER0_00000000
  6
Continuous
 62
     3
100
AcDbLine
 10
3361.3264166667
 20
2304.2594666667
 30
0.0
 11
3382.9132166667
 21
2325.1349666667
 31
0.0
  0
LINE
  5
98
330
A
100
AcDbEntity
  8
LAYER0_00000000
  6
Continuous
100
AcDbLine
 10
2748.6982372127
 20
584.9158896455
 30
0.0
 11
2748.6982372127
 21
520.6848037557
 31
0.0
  0
LINE
  5
99
330
A
100
AcDbEntity
  8
LAYER0_00000000
  6
Continuous
100
AcDbLine
 10
2748.6982372127
 20
592.0533192774
 30
0.0
 11
2748.6982372127
 21
520.6848037557
 31
0.0
  0
LINE
  5
9A
330
A
100
AcDbEntity
  8
LAYER0_00000000
  6
Continuous
100
AcDbLine
 10
2870.0236216713
 20
592.053533381
 30
0.0
 11
2870.0236216713
 21
520.6850178593
 31
0.0
  0
LINE
  5
9C
330
A
100
AcDbEntity
  8
ﾚｲﾔｰ1
  6
Continuous
100
AcDbLine
 10
1537.0624811725
 20
1912.4250022175
 30
0.0
 11
1637.06255
 21
1812.425
 31
0.0
  0
LINE
  5
9D
330
A
100
AcDbEntity
  8
ﾚｲﾔｰ1
  6
Continuous
100
AcDbLine
 10
937.0624811725
 20
1912.4250022175
 30
0.0
 11
837.06255
 21
1812.425
 31
0.0
  0
CIRCLE
  5
9E
330
A
100
AcDbEntity
  8
LAYER0_00000000
  6
Continuous
100
AcDbCircle
 10
1337.0624
 20
2212.425025
 30
0.0
 40
9.0
  0
CIRCLE
  5
9F
330
A
100
AcDbEntity
  8
LAYER0_00000000
  6
Continuous
100
AcDbCircle
 10
1437.0623
 20
2012.425325
 30
0.0
 40
11.0
  0
LINE
  5
A0
330
A
100
AcDbEntity
  8
LAYER5
  6
BORDER
 62
     3
 48
2.0
100
AcDbLine
 10
1437.0623
 20
2033.425225
 30
0.0
 11
1437.0623
 21
1991.425325
 31
0.0
  0
LINE
  5
A1
330
A
100
AcDbEntity
  8
LAYER0_00000000
  6
Continuous
100
AcDbLine
 10
1487.0623
 20
1962.425325
 30
0.0
 11
1487.0623
 21
2462.424825
 31
0.0
  0
LINE
  5
A2
330
A
100
AcDbEntity
  8
LAYER5
  6
BORDER
 62
     3
 48
2.0
100
AcDbLine
 10
1037.0628
 20
2033.425225
 30
0.0
 11
1037.0628
 21
1991.425325
 31
0.0
  0
CIRCLE
  5
A3
330
A
100
AcDbEntity
  8
LAYER0_00000000
  6
Continuous
100
AcDbCircle
 10
1037.0628
 20
2012.425325
 30
0.0
 40
11.0
  0
LINE
  5
A4
330
A
100
AcDbEntity
  8
LAYER0_00000000
  6
Continuous
100
AcDbLine
 10
987.0628
 20
2462.424825
 30
0.0
 11
987.0628
 21
1962.425325
 31
0.0
  0
LINE
  5
A5
330
A
100
AcDbEntity
  8
LAYER0_00000000
  6
Continuous
100
AcDbLine
 10
1487.0623
 20
2462.424825
 30
0.0
 11
987.0628
 21
2462.424825
 31
0.0
  0
LINE
  5
A6
330
A
100
AcDbEntity
  8
LAYER4
  6
Continuous
100
AcDbLine
 10
3119.8111779096
 20
128.1649267535
 30
0.0
 11
2748.6982372127
 21
128.1642130748
 31
0.0
  0
LINE
  5
A7
330
A
100
AcDbEntity
  8
LAYER0_00000000
  6
Continuous
100
AcDbLine
 10
3505.1976932485
 20
-14.56875
 30
0.0
 11
3505.1976932485
 21
128.1669964219
 31
0.0
  0
LINE
  5
A8
330
A
100
AcDbEntity
  8
LAYER4
  6
Continuous
100
AcDbLine
 10
3433.8298200376
 20
128.1669964219
 30
0.0
 11
3433.8298200376
 21
-14.56875
 31
0.0
  0
LINE
  5
A9
330
A
100
AcDbEntity
  8
LAYER0_00000000
  6
Continuous
100
AcDbLine
 10
3628.932507345867
 20
327.9942580654
 30
0.0
 11
3628.932507345867
 21
520.6848037557
 31
0.0
  0
LINE
  5
AA
330
A
100
AcDbEntity
  8
LAYER4
  6
Continuous
100
AcDbLine
 10
2748.6982372127
 20
430.0476047778
 30
0.0
 11
2748.6982372127
 21
520.6848037557
 31
0.0
  0
LINE
  5
AB
330
A
100
AcDbEntity
  8
LAYER4
  6
Continuous
100
AcDbLine
 10
2820.0661104237
 20
327.9942580654
 30
0.0
 11
2820.0661104237
 21
128.1642130748
 31
0.0
  0
LINE
  5
AC
330
A
100
AcDbEntity
  8
LAYER4
  6
Continuous
100
AcDbLine
 10
2870.0236216713
 20
519.9711250236
 30
0.0
 11
2870.0236216713
 21
327.2806507012
 31
0.0
  0
LINE
  5
AD
330
A
100
AcDbEntity
  8
LAYER0_00000000
  6
Continuous
100
AcDbLine
 10
2820.0661104237
 20
327.9942580654
 30
0.0
 11
2748.6982372127
 21
327.9942580654
 31
0.0
  0
LINE
  5
AE
330
A
100
AcDbEntity
  8
LAYER0_00000000
  6
Continuous
100
AcDbLine
 10
3303.7102166667
 20
2246.3227666667
 30
0.0
 11
3303.7102166667
 21
1946.3230666667
 31
0.0
  0
CIRCLE
  5
AF
330
A
100
AcDbEntity
  8
LAYER0_00000000
  6
Continuous
100
AcDbCircle
 10
3253.7102166667
 20
2196.3227666667
 30
0.0
 40
9.0
  0
LINE
  5
B0
330
A
100
AcDbEntity
  8
LAYER0_00000000
  6
Continuous
 62
     3
100
AcDbLine
 10
3403.7101166667
 20
1958.1540666667
 30
0.0
 11
3413.7101166667
 21
1940.8335666667
 31
0.0
  0
LINE
  5
B1
330
A
100
AcDbEntity
  8
LAYER4
  6
Continuous
100
AcDbLine
 10
2748.6982372127
 20
422.9108174567
 30
0.0
 11
2748.6982372127
 21
430.0476047778
 31
0.0
  0
LINE
  5
B2
330
A
100
AcDbEntity
  8
LAYER0_00000000
  6
Continuous
100
AcDbLine
 10
3284.825321921119
 20
520.6848037557
 30
0.0
 11
3284.825321921119
 21
327.9942580654
 31
0.0
  0
LINE
  5
B3
330
A
100
AcDbEntity
  8
LAYER4
  6
Continuous
100
AcDbLine
 10
90.9917410004
 20
2920.7140983009
 30
0.0
 11
90.9917410004
 21
-14.56875
 31
0.0
  0
LINE
  5
B4
330
A
100
AcDbEntity
  8
LAYER4
  6
Continuous
100
AcDbLine
 10
4233.15
 20
2920.7140983009
 30
0.0
 11
90.9917410004
 21
2920.7140983009
 31
0.0
  0
LINE
  5
B5
330
A
100
AcDbEntity
  8
LAYER5
  6
BORDER
 62
     3
 48
2.0
100
AcDbLine
 10
1137.0627
 20
2202.425025
 30
0.0
 11
1137.0627
 21
2222.425025
 31
0.0
  0
LINE
  5
B6
330
A
100
AcDbEntity
  8
LAYER0_00000000
  6
Continuous
100
AcDbLine
 10
987.0625
 20
1213.9138020833
 30
0.0
 11
1487.0626
 21
1213.9138020833
 31
0.0
  0
LINE
  5
B7
330
A
100
AcDbEntity
  8
LAYER0_00000000
  6
Continuous
100
AcDbLine
 10
987.0625
 20
1201.9138020833
 30
0.0
 11
987.0625
 21
1213.9138020833
 31
0.0
  0
LINE
  5
B8
330
A
100
AcDbEntity
  8
LAYER0_00000000
  6
Continuous
100
AcDbLine
 10
1048.0624
 20
691.9140020833
 30
0.0
 11
1048.0624
 21
1201.9138020833
 31
0.0
  0
LINE
  5
B9
330
A
100
AcDbEntity
  8
LAYER0_00000000
  6
Continuous
100
AcDbLine
 10
1026.0625
 20
1228.9138020833
 30
0.0
 11
1026.0625
 21
1258.9138020833
 31
0.0
  0
LINE
  5
BA
330
A
100
AcDbEntity
  8
LAYER0_00000000
  6
Continuous
100
AcDbLine
 10
1026.0625
 20
691.9140020833
 30
0.0
 11
1026.0625
 21
1201.9138020833
 31
0.0
  0
LINE
  5
BB
330
A
100
AcDbEntity
  8
LAYER0_00000000
  6
Continuous
100
AcDbLine
 10
1459.0624
 20
1228.9138020833
 30
0.0
 11
1415.0626
 21
1228.9138020833
 31
0.0
  0
LINE
  5
BD
330
A
100
AcDbEntity
  8
LAYER5
  6
BORDER
 62
     3
 48
5.0
100
AcDbLine
 10
1037.0626
 20
691.9140020833
 30
0.0
 11
1037.0626
 21
1278.9139020833
 31
0.0
  0
LINE
  5
BE
330
A
100
AcDbEntity
  8
LAYER0_00000000
  6
Continuous
100
AcDbLine
 10
1048.0624
 20
1228.9138020833
 30
0.0
 11
1048.0624
 21
1258.9138020833
 31
0.0
  0
LINE
  5
BF
330
A
100
AcDbEntity
  8
LAYER0_00000000
  6
Continuous
100
AcDbLine
 10
1059.0625
 20
1213.9138020833
 30
0.0
 11
1059.0625
 21
1228.9138020833
 31
0.0
  0
LINE
  5
C0
330
A
100
AcDbEntity
  8
LAYER6
  6
Continuous
100
AcDbLine
 10
1127.0627
 20
2212.425025
 30
0.0
 11
1147.0626
 21
2212.425025
 31
0.0
  0
CIRCLE
  5
C1
330
A
100
AcDbEntity
  8
LAYER0_00000000
  6
Continuous
100
AcDbCircle
 10
1137.0627
 20
2312.424925
 30
0.0
 40
9.0
  0
LINE
  5
C2
330
A
100
AcDbEntity
  8
LAYER5
  6
BORDER
 62
     3
 48
2.0
100
AcDbLine
 10
1147.0626
 20
2312.424925
 30
0.0
 11
1127.0627
 21
2312.424925
 31
0.0
  0
LINE
  5
C3
330
A
100
AcDbEntity
  8
ﾚｲﾔｰ1
  6
Continuous
100
AcDbLine
 10
837.06255
 20
1812.425
 30
0.0
 11
837.06255
 21
2612.425
 31
0.0
  0
LINE
  5
C4
330
A
100
AcDbEntity
  8
ﾚｲﾔｰ1
  6
Continuous
100
AcDbLine
 10
1637.06255
 20
1812.425
 30
0.0
 11
837.06255
 21
1812.425
 31
0.0
  0
LINE
  5
C5
330
A
100
AcDbEntity
  8
ﾚｲﾔｰ1
  6
Continuous
100
AcDbLine
 10
1637.06255
 20
2612.425
 30
0.0
 11
1637.06255
 21
1812.425
 31
0.0
  0
LINE
  5
C6
330
A
100
AcDbEntity
  8
ﾚｲﾔｰ1
  6
Continuous
100
AcDbLine
 10
837.06255
 20
2612.425
 30
0.0
 11
1637.06255
 21
2612.425
 31
0.0
  0
LINE
  5
C7
330
A
100
AcDbEntity
  8
LAYER0_00000000
  6
DASHDOT
 62
     3
 48
5.0
100
AcDbLine
 10
1237.0625607314
 20
1775.2102786686
 30
0.0
 11
1237.0624663645
 21
2649.6397713314
 31
0.0
  0
LINE
  5
C8
330
A
100
AcDbEntity
  8
LAYER0_00000000
  6
Continuous
100
AcDbLine
 10
3747.8484621657
 20
584.9158896455
 30
0.0
 11
3747.8484621657
 21
520.6866593204
 31
0.0
  0
LINE
  5
C9
330
A
100
AcDbEntity
  8
LAYER0_00000000
  6
Continuous
100
AcDbLine
 10
3747.8484621657
 20
592.0551748421
 30
0.0
 11
3747.8484621657
 21
520.6866593204
 31
0.0
  0
LINE
  5
CA
330
A
100
AcDbEntity
  8
LAYER0_00000000
  6
Continuous
100
AcDbLine
 10
3862.0370593032
 20
592.0553889457
 30
0.0
 11
3862.0370593032
 21
520.686873424
 31
0.0
  0
LINE
  5
CB
330
A
100
AcDbEntity
  8
ﾚｲﾔｰ1
  6
Continuous
100
AcDbLine
 10
937.0624811725
 20
1912.4250022175
 30
0.0
 11
1537.0624811725
 21
1912.4250022175
 31
0.0
  0
LINE
  5
CC
330
A
100
AcDbEntity
  8
ﾚｲﾔｰ1
  6
Continuous
100
AcDbLine
 10
1537.0624811725
 20
2512.4250022175
 30
0.0
 11
937.0624811725
 21
2512.4250022175
 31
0.0
  0
LINE
  5
CD
330
A
100
AcDbEntity
  8
ﾚｲﾔｰ1
  6
Continuous
100
AcDbLine
 10
937.0624811725
 20
2512.4250022175
 30
0.0
 11
837.06255
 21
2612.425
 31
0.0
  0
LINE
  5
CE
330
A
100
AcDbEntity
  8
ﾚｲﾔｰ1
  6
Continuous
100
AcDbLine
 10
1537.0624811725
 20
2512.4250022175
 30
0.0
 11
1637.06255
 21
2612.425
 31
0.0
  0
LINE
  5
CF
330
A
100
AcDbEntity
  8
LAYER0_00000000
  6
Continuous
100
AcDbLine
 10
1503.5062
 20
658.9140020833
 30
0.0
 11
1459.0624
 21
658.9140020833
 31
0.0
  0
LINE
  5
D0
330
A
100
AcDbEntity
  8
LAYER0_00000000
  6
Continuous
100
AcDbLine
 10
970.6189
 20
680.9139020833
 30
0.0
 11
1015.0624
 21
680.9139020833
 31
0.0
  0
ARC
  5
D1
330
A
100
AcDbEntity
  8
LAYER0_00000000
  6
Continuous
100
AcDbCircle
 10
1015.0624
 20
691.9140020833
 30
0.0
 40
33.0
100
AcDbArc
 50
270.0
 51
0.0
  0
ARC
  5
D2
330
A
100
AcDbEntity
  8
LAYER0_00000000
  6
Continuous
100
AcDbCircle
 10
1015.0624
 20
691.9140020833
 30
0.0
 40
11.0001
100
AcDbArc
 50
270.0
 51
0.0
  0
ARC
  5
D3
330
A
100
AcDbEntity
  8
LAYER0_00000000
  6
Continuous
100
AcDbCircle
 10
1459.0624
 20
691.9140020833
 30
0.0
 40
33.0
100
AcDbArc
 50
180.0
 51
270.0
  0
ARC
  5
D4
330
A
100
AcDbEntity
  8
LAYER0_00000000
  6
Continuous
100
AcDbCircle
 10
1459.0624
 20
691.9140020833
 30
0.0
 40
11.0001
100
AcDbArc
 50
180.0
 51
270.0
  0
LINE
  5
D5
330
A
100
AcDbEntity
  8
LAYER5
  6
BORDER
 62
     3
 48
2.0
100
AcDbLine
 10
1015.0624
 20
669.9138020833
 30
0.0
 11
950.6188
 21
669.9138020833
 31
0.0
  0
ARC
  5
D6
330
A
100
AcDbEntity
  8
LAYER5
  6
BORDER
 62
     3
 48
5.0
100
AcDbCircle
 10
1015.0624
 20
691.9140020833
 30
0.0
 40
21.9999
100
AcDbArc
 50
270.0
 51
0.0
  0
LINE
  5
D7
330
A
100
AcDbEntity
  8
LAYER0_00000000
  6
Continuous
100
AcDbLine
 10
970.6189
 20
658.9140020833
 30
0.0
 11
1015.0624
 21
658.9140020833
 31
0.0
  0
LINE
  5
D8
330
A
100
AcDbEntity
  8
LAYER0_00000000
  6
Continuous
100
AcDbLine
 10
970.6189
 20
658.9140020833
 30
0.0
 11
970.6189
 21
680.9139020833
 31
0.0
  0
LINE
  5
D9
330
A
100
AcDbEntity
  8
LAYER0_00000000
  6
Continuous
100
AcDbLine
 10
987.0628
 20
1962.425325
 30
0.0
 11
1487.0623
 21
1962.425325
 31
0.0
  0
LINE
  5
DA
330
A
100
AcDbEntity
  8
LAYER5
  6
BORDER
 62
     3
 48
2.0
100
AcDbLine
 10
1347.0624
 20
2312.424925
 30
0.0
 11
1327.0625
 21
2312.424925
 31
0.0
  0
LINE
  5
DB
330
A
100
AcDbEntity
  8
LAYER5
  6
BORDER
 62
     3
 48
2.0
100
AcDbLine
 10
1337.0624
 20
2302.424925
 30
0.0
 11
1337.0624
 21
2322.424925
 31
0.0
  0
LINE
  5
DC
330
A
100
AcDbEntity
  8
LAYER5
  6
BORDER
 62
     3
 48
2.0
100
AcDbLine
 10
1337.0624
 20
2202.425025
 30
0.0
 11
1337.0624
 21
2222.425025
 31
0.0
  0
CIRCLE
  5
DD
330
A
100
AcDbEntity
  8
LAYER0_00000000
  6
Continuous
100
AcDbCircle
 10
1437.0623
 20
2412.424825
 30
0.0
 40
11.0
  0
LINE
  5
DE
330
A
100
AcDbEntity
  8
LAYER5
  6
BORDER
 62
     3
 48
2.0
100
AcDbLine
 10
1437.0623
 20
2433.424825
 30
0.0
 11
1437.0623
 21
2391.424825
 31
0.0
  0
LINE
  5
DF
330
A
100
AcDbEntity
  8
LAYER5
  6
BORDER
 62
     3
 48
2.0
100
AcDbLine
 10
1416.0624
 20
2012.425325
 30
0.0
 11
1458.0623
 21
2012.425325
 31
0.0
  0
CIRCLE
  5
E0
330
A
100
AcDbEntity
  8
LAYER0_00000000
  6
Continuous
100
AcDbCircle
 10
1337.0624
 20
2112.425125
 30
0.0
 40
9.0
  0
LINE
  5
E1
330
A
100
AcDbEntity
  8
LAYER4
  6
Continuous
100
AcDbLine
 10
2855.036368297
 20
128.1669964219
 30
0.0
 11
2748.6982372127
 21
128.1669964219
 31
0.0
  0
LINE
  5
E2
330
A
100
AcDbEntity
  8
LAYER4
  6
Continuous
100
AcDbLine
 10
2748.6982372127
 20
-14.56875
 30
0.0
 11
2748.6982372127
 21
128.1669964219
 31
0.0
  0
LINE
  5
E3
330
A
100
AcDbEntity
  8
LAYER4
  6
Continuous
100
AcDbLine
 10
2748.6982372127
 20
128.1642130748
 30
0.0
 11
2748.6982372127
 21
327.9942580654
 31
0.0
  0
CIRCLE
  5
E4
330
A
100
AcDbEntity
  8
LAYER0_00000000
  6
Continuous
100
AcDbCircle
 10
1337.0624
 20
2312.424925
 30
0.0
 40
9.0
  0
LINE
  5
E5
330
A
100
AcDbEntity
  8
LAYER5
  6
BORDER
 62
     3
 48
2.0
100
AcDbLine
 10
1037.0628
 20
2433.424825
 30
0.0
 11
1037.0628
 21
2391.424825
 31
0.0
  0
LINE
  5
E6
330
A
100
AcDbEntity
  8
LAYER5
  6
BORDER
 62
     3
 48
2.0
100
AcDbLine
 10
1016.0628
 20
2412.424825
 30
0.0
 11
1058.0627
 21
2412.424825
 31
0.0
  0
CIRCLE
  5
E7
330
A
100
AcDbEntity
  8
LAYER0_00000000
  6
Continuous
100
AcDbCircle
 10
1037.0628
 20
2412.424825
 30
0.0
 40
11.0
  0
LINE
  5
E8
330
A
100
AcDbEntity
  8
LAYER0_00000000
  6
Continuous
100
AcDbLine
 10
1426.0624
 20
1101.9138020833
 30
0.0
 11
1048.0624
 21
1101.9138020833
 31
0.0
  0
LINE
  5
E9
330
A
100
AcDbEntity
  8
LAYER5
  6
BORDER
 62
     3
100
AcDbLine
 10
1437.0625
 20
791.9139020833
 30
0.0
 11
1037.0626
 21
791.9139020833
 31
0.0
  0
LINE
  5
EA
330
A
100
AcDbEntity
  8
LAYER5
  6
BORDER
 62
     3
 48
5.0
100
AcDbLine
 10
1437.0625
 20
1112.9139020833
 30
0.0
 11
1037.0626
 21
1112.9139020833
 31
0.0
  0
LINE
  5
EB
330
A
100
AcDbEntity
  8
LAYER0_00000000
  6
Continuous
100
AcDbLine
 10
1048.0624
 20
1258.9138020833
 30
0.0
 11
1026.0622
 21
1258.9138020833
 31
0.0
  0
LINE
  5
EC
330
A
100
AcDbEntity
  8
LAYER0_00000000
  6
Continuous
100
AcDbLine
 10
1448.0626
 20
1258.9138020833
 30
0.0
 11
1426.0624
 21
1258.9138020833
 31
0.0
  0
LINE
  5
ED
330
A
100
AcDbEntity
  8
LAYER5
  6
BORDER
 62
     3
 48
2.0
100
AcDbLine
 10
1327.0625
 20
2112.425125
 30
0.0
 11
1347.0624
 21
2112.425125
 31
0.0
  0
LINE
  5
EE
330
A
100
AcDbEntity
  8
LAYER6
  6
Continuous
100
AcDbLine
 10
1327.0625
 20
2212.425025
 30
0.0
 11
1347.0624
 21
2212.425025
 31
0.0
  0
LINE
  5
EF
330
A
100
AcDbEntity
  8
LAYER5
  6
BORDER
 62
     3
 48
2.0
100
AcDbLine
 10
1337.0624
 20
2102.425225
 30
0.0
 11
1337.0624
 21
2122.425125
 31
0.0
  0
LINE
  5
F0
330
A
100
AcDbEntity
  8
LAYER5
  6
BORDER
 62
     3
 48
5.0
100
AcDbLine
 10
1437.0625
 20
691.9140020833
 30
0.0
 11
1437.0625
 21
1278.9139020833
 31
0.0
  0
LINE
  5
F1
330
A
100
AcDbEntity
  8
LAYER0_00000000
  6
Continuous
100
AcDbLine
 10
1503.5062
 20
658.9140020833
 30
0.0
 11
1503.5062
 21
680.9139020833
 31
0.0
  0
LINE
  5
F2
330
A
100
AcDbEntity
  8
LAYER0_00000000
  6
Continuous
100
AcDbLine
 10
1015.0624
 20
1228.9138020833
 30
0.0
 11
1059.0625
 21
1228.9138020833
 31
0.0
  0
LINE
  5
F3
330
A
100
AcDbEntity
  8
LAYER0_00000000
  6
Continuous
100
AcDbLine
 10
1015.0624
 20
1213.9138020833
 30
0.0
 11
1015.0624
 21
1228.9138020833
 31
0.0
  0
LINE
  5
F4
330
A
100
AcDbEntity
  8
LAYER0_00000000
  6
Continuous
100
AcDbLine
 10
1426.0624
 20
691.9140020833
 30
0.0
 11
1426.0624
 21
1201.9138020833
 31
0.0
  0
LINE
  5
F5
330
A
100
AcDbEntity
  8
LAYER0_00000000
  6
Continuous
100
AcDbLine
 10
1448.0626
 20
1228.9138020833
 30
0.0
 11
1448.0626
 21
1258.9138020833
 31
0.0
  0
LINE
  5
F6
330
A
100
AcDbEntity
  8
LAYER0_00000000
  6
Continuous
100
AcDbLine
 10
1426.0624
 20
1228.9138020833
 30
0.0
 11
1426.0624
 21
1258.9138020833
 31
0.0
  0
LINE
  5
F7
330
A
100
AcDbEntity
  8
LAYER0_00000000
  6
Continuous
100
AcDbLine
 10
1487.0626
 20
1201.9138020833
 30
0.0
 11
1487.0626
 21
1213.9138020833
 31
0.0
  0
LINE
  5
F8
330
A
100
AcDbEntity
  8
LAYER0_00000000
  6
Continuous
100
AcDbLine
 10
1459.0624
 20
1213.9138020833
 30
0.0
 11
1459.0624
 21
1228.9138020833
 31
0.0
  0
LINE
  5
F9
330
A
100
AcDbEntity
  8
LAYER5
  6
BORDER
 62
     3
 48
5.0
100
AcDbLine
 10
1237.06255
 20
578.9705729167
 30
0.0
 11
1237.06255
 21
1329.31494375
 31
0.0
  0
LINE
  5
FA
330
A
100
AcDbEntity
  8
LAYER0_00000000
  6
DASHDOT
 62
     3
 48
5.0
100
AcDbLine
 10
771.1947902952
 20
2212.4249825454
 30
0.0
 11
1706.1000004128
 21
2212.4250677434
 31
0.0
  0
LINE
  5
FB
330
A
100
AcDbEntity
  8
ﾚｲﾔｰ1
  6
Continuous
100
AcDbLine
 10
1537.0624811725
 20
1912.4250022175
 30
0.0
 11
1537.0624811725
 21
2512.4250022175
 31
0.0
  0
LINE
  5
FC
330
A
100
AcDbEntity
  8
ﾚｲﾔｰ1
  6
Continuous
100
AcDbLine
 10
937.0624811725
 20
2512.4250022175
 30
0.0
 11
937.0624811725
 21
1912.4250022175
 31
0.0
  0
LINE
  5
FD
330
A
100
AcDbEntity
  8
LAYER0_00000000
  6
Continuous
100
AcDbLine
 10
837.06255
 20
637.675
 30
0.0
 11
1637.06255
 21
637.675
 31
0.0
  0
ARC
  5
FE
330
A
100
AcDbEntity
  8
LAYER5
  6
BORDER
 62
     3
 48
5.0
100
AcDbCircle
 10
1459.0624
 20
691.9140020833
 30
0.0
 40
21.9999
100
AcDbArc
 50
180.0
 51
270.0
  0
LINE
  5
FF
330
A
100
AcDbEntity
  8
LAYER5
  6
BORDER
 62
     3
 48
2.0
100
AcDbLine
 10
1459.0624
 20
669.9138020833
 30
0.0
 11
1523.506
 21
669.9138020833
 31
0.0
  0
LINE
  5
100
330
A
100
AcDbEntity
  8
LAYER0_00000000
  6
Continuous
100
AcDbLine
 10
1503.5062
 20
680.9139020833
 30
0.0
 11
1459.0624
 21
680.9139020833
 31
0.0
  0
MTEXT
  5
101
330
A
100
AcDbEntity
  8
LAYER0_00000000
  6
Continuous
100
AcDbMText
 10
2760.6902989036
 20
196.794789889
 30
0.0
 40
35.0
 41
68.3315709364
 46
0.0
 71
     1
 72
     1
  1
\W0.8;\fＭＳ Ｐゴシック;\W1.0;称
 73
     1
 44
1.0
  0
MTEXT
  5
102
330
A
100
AcDbEntity
  8
LAYER0_00000000
  6
Continuous
100
AcDbMText
 10
2968.170185028344
 20
575.9191656752624
 30
0.0
 40
35.0
 41
875.9199319934
 46
0.0
 71
     1
 72
     1
  1
\W0.8;\fＭＳ Ｐゴシック;\W1.0;品　　　　　　　　　　名
 73
     1
 44
1.0
  0
DIMENSION
  5
115
330
A
100
AcDbEntity
  8
寸法線
 62
     3
100
AcDbDimension
280
     0
  2
*D14
 10
3353.7101166667
 20
2500.2513020833
 30
0.0
 11
3153.7103666667
 21
2500.2513020833
 31
0.0
 70
   160
  1
400
 71
     5
 42
399.9994999999999
 73
     0
 74
     0
 75
     0
  3
sunpou
100
AcDbAlignedDimension
 13
2953.7106166667
 23
2317.3226666667
 33
0.0
 14
3353.7101166667
 24
2317.3226666667
 34
0.0
100
AcDbRotatedDimension
1001
ACAD
1000
DSTYLE
1002
{
1070
   347
1005
0
1070
   346
1005
0
1070
   345
1005
0
1070
   340
1005
17
1070
   341
1005
321
1002
}
  0
DIMENSION
  5
126
330
A
100
AcDbEntity
  8
寸法線
 62
     3
100
AcDbDimension
280
     0
  2
*D15
 10
3053.7105166667
 20
1509.5794270833
 30
0.0
 11
3153.7103666667
 21
1509.5794270833
 31
0.0
 70
   160
  1
200
 71
     5
 42
199.9996999999998
 73
     0
 74
     0
 75
     0
  3
sunpou
100
AcDbAlignedDimension
 13
3253.7102166667
 23
1986.3230666667
 33
0.0
 14
3053.7105166667
 24
1986.3230666667
 34
0.0
100
AcDbRotatedDimension
1001
ACAD
1000
DSTYLE
1002
{
1070
   347
1005
0
1070
   346
1005
0
1070
   345
1005
0
1070
   340
1005
17
1070
   341
1005
321
1002
}
  0
DIMENSION
  5
137
330
A
100
AcDbEntity
  8
寸法線
 62
     3
100
AcDbDimension
280
     0
  2
*D16
 10
3103.7104166667
 20
1689.2372395833
 30
0.0
 11
3129.105378847638
 21
1733.65579481226
 31
0.0
 70
   160
  1
100
 71
     5
 42
99.9998999999998
 73
     0
 74
     0
 75
     0
  3
sunpou
100
AcDbAlignedDimension
 13
3203.7103166667
 23
1946.3230666667
 33
0.0
 14
3103.7104166667
 24
1946.3230666667
 34
0.0
100
AcDbRotatedDimension
1001
ACAD
1000
DSTYLE
1002
{
1070
   279
1070
     2
1070
   172
1070
     1
1070
   347
1005
0
1070
   346
1005
0
1070
   345
1005
0
1070
   340
1005
17
1070
   341
1005
321
1002
}
  0
DIMENSION
  5
148
330
A
100
AcDbEntity
  8
寸法線
 62
     3
100
AcDbDimension
280
     0
  2
*D17
 10
2381.668227047626
 20
2346.3226666667
 30
0.0
 11
2381.668227047626
 21
2096.3229166667
 31
0.0
 70
   160
  1
500
 71
     5
 42
499.9995000000001
 73
     0
 74
     0
 75
     0
  3
sunpou
100
AcDbAlignedDimension
 13
2903.7106166667
 23
1846.3231666667
 33
0.0
 14
2903.7106166667
 24
2346.3226666667
 34
0.0
 50
90.0
100
AcDbRotatedDimension
1001
ACAD
1000
DSTYLE
1002
{
1070
   347
1005
0
1070
   346
1005
0
1070
   345
1005
0
1070
   340
1005
17
1070
   341
1005
321
1002
}
  0
DIMENSION
  5
159
330
A
100
AcDbEntity
  8
寸法線
 62
     3
100
AcDbDimension
280
     0
  2
*D18
 10
2547.269407043716
 20
2296.3226666667
 30
0.0
 11
2547.269407043716
 21
2101.296574362295
 31
0.0
 70
   160
  1
400
 71
     5
 42
399.9995000000001
 73
     0
 74
     0
 75
     0
  3
sunpou
100
AcDbAlignedDimension
 13
2932.7106166667
 23
1896.3231666667
 33
0.0
 14
2932.7106166667
 24
2296.3226666667
 34
0.0
 50
90.0
100
AcDbRotatedDimension
1001
ACAD
1000
DSTYLE
1002
{
1070
   347
1005
0
1070
   346
1005
0
1070
   345
1005
0
1070
   340
1005
17
1070
   341
1005
321
1002
}
  0
DIMENSION
  5
16A
330
A
100
AcDbEntity
  8
寸法線
 62
     3
100
AcDbDimension
280
     0
  2
*D19
 10
2696.148831698739
 20
2246.3227666667
 30
0.0
 11
2696.148831698739
 21
2096.3229166667
 31
0.0
 70
   160
  1
300
 71
     5
 42
299.9996999999998
 73
     0
 74
     0
 75
     0
  3
sunpou
100
AcDbAlignedDimension
 13
3003.7105166667
 23
1946.3230666667
 33
0.0
 14
3003.7105166667
 24
2246.3227666667
 34
0.0
 50
90.0
100
AcDbRotatedDimension
1001
ACAD
1000
DSTYLE
1002
{
1070
   347
1005
0
1070
   346
1005
0
1070
   345
1005
0
1070
   340
1005
17
1070
   341
1005
321
1002
}
  0
DIMENSION
  5
17B
330
A
100
AcDbEntity
  8
寸法線
 62
     3
100
AcDbDimension
280
     0
  2
*D20
 10
3403.7101166667
 20
2662.18203125
 30
0.0
 11
3153.7103666667
 21
2662.18203125
 31
0.0
 70
   160
  1
500
 71
     5
 42
499.9994999999999
 73
     0
 74
     0
 75
     0
  3
sunpou
100
AcDbAlignedDimension
 13
2903.7106166667
 23
2346.3226666667
 33
0.0
 14
3403.7101166667
 24
2346.3226666667
 34
0.0
100
AcDbRotatedDimension
1001
ACAD
1000
DSTYLE
1002
{
1070
   347
1005
0
1070
   346
1005
0
1070
   345
1005
0
1070
   340
1005
17
1070
   341
1005
321
1002
}
  0
DIMENSION
  5
18D
330
A
100
AcDbEntity
  8
寸法線
 62
     3
100
AcDbDimension
280
     0
  2
*D21
 10
1848.0489618854
 20
1912.4250022175
 30
0.0
 11
1848.0489618854
 21
2212.4250022175
 31
0.0
 70
   160
  1
<>
 71
     5
 42
600.0000000000002
 73
     0
 74
     0
 75
     0
  3
sunpou
100
AcDbAlignedDimension
 13
1537.0624811725
 23
2512.4250022175
 33
0.0
 14
1537.0624811725
 24
1912.4250022175
 34
0.0
 50
90.0
100
AcDbRotatedDimension
1001
ACAD
1000
DSTYLE
1002
{
1070
   347
1005
0
1070
   346
1005
0
1070
   345
1005
0
1070
   340
1005
17
1070
   341
1005
321
1002
}
  0
DIMENSION
  5
19E
330
A
100
AcDbEntity
  8
寸法線
 62
     3
100
AcDbDimension
280
     0
  2
*D22
 10
683.0885568359
 20
2412.424825
 30
0.0
 11
683.0885568359
 21
2212.425075
 31
0.0
 70
   160
  1
<>
 71
     5
 42
399.9995000000001
 73
     0
 74
     0
 75
     0
  3
sunpou
100
AcDbAlignedDimension
 13
1026.0628
 23
2012.425325
 33
0.0
 14
1016.0628
 24
2412.424825
 34
0.0
 50
90.0
100
AcDbRotatedDimension
1001
ACAD
1000
DSTYLE
1002
{
1070
   347
1005
0
1070
   346
1005
0
1070
   345
1005
0
1070
   340
1005
17
1070
   341
1005
321
1002
}
  0
DIMENSION
  5
1AF
330
A
100
AcDbEntity
  8
寸法線
 62
     3
100
AcDbDimension
280
     0
  2
*D23
 10
1037.0628
 20
1670.4760452148
 30
0.0
 11
1237.06255
 21
1670.4760452148
 31
0.0
 70
   160
  1
<>
 71
     5
 42
399.9995000000001
 73
     0
 74
     0
 75
     0
  3
sunpou
100
AcDbAlignedDimension
 13
1437.0623
 23
1991.425325
 33
0.0
 14
1037.0628
 24
1991.425325
 34
0.0
100
AcDbRotatedDimension
1001
ACAD
1000
DSTYLE
1002
{
1070
   347
1005
0
1070
   346
1005
0
1070
   345
1005
0
1070
   340
1005
17
1070
   341
1005
321
1002
}
  0
DIMENSION
  5
1C0
330
A
100
AcDbEntity
  8
寸法線
 62
     3
100
AcDbDimension
280
     0
  2
*D24
 10
2004.6823009766
 20
1812.425
 30
0.0
 11
2004.6823009766
 21
2212.425
 31
0.0
 70
   160
  1
<>
 71
     5
 42
800.0000000000002
 73
     0
 74
     0
 75
     0
  3
sunpou
100
AcDbAlignedDimension
 13
1637.06255
 23
2612.425
 33
0.0
 14
1637.06255
 24
1812.425
 34
0.0
 50
90.0
100
AcDbRotatedDimension
1001
ACAD
1000
DSTYLE
1002
{
1070
   347
1005
0
1070
   346
1005
0
1070
   345
1005
0
1070
   340
1005
17
1070
   341
1005
321
1002
}
  0
DIMENSION
  5
1D1
330
A
100
AcDbEntity
  8
寸法線
 62
     3
100
AcDbDimension
280
     0
  2
*D25
 10
837.06255
 20
365.2864501953
 30
0.0
 11
1237.06255
 21
365.2864501953
 31
0.0
 70
   160
  1
<>
 71
     5
 42
800.0000000000001
 73
     0
 74
     0
 75
     0
  3
sunpou
100
AcDbAlignedDimension
 13
1637.06255
 23
637.675
 33
0.0
 14
837.06255
 24
637.675
 34
0.0
100
AcDbRotatedDimension
1001
ACAD
1000
DSTYLE
1002
{
1070
   347
1005
0
1070
   346
1005
0
1070
   345
1005
0
1070
   340
1005
17
1070
   341
1005
321
1002
}
  0
DIMENSION
  5
1E2
330
A
100
AcDbEntity
  8
寸法線
 62
     3
100
AcDbDimension
280
     0
  2
*D26
 10
1787.06255
 20
637.675
 30
0.0
 11
1787.06255
 21
897.675
 31
0.0
 70
   160
  1
<>
 71
     5
 42
520.0
 73
     0
 74
     0
 75
     0
  3
sunpou
100
AcDbAlignedDimension
 13
1537.06255
 23
1157.675
 33
0.0
 14
1637.06255
 24
637.675
 34
0.0
 50
90.0
100
AcDbRotatedDimension
1001
ACAD
1000
DSTYLE
1002
{
1070
   347
1005
0
1070
   346
1005
0
1070
   345
1005
0
1070
   340
1005
17
1070
   341
1005
321
1002
}
  0
DIMENSION
  5
1F3
330
A
100
AcDbEntity
  8
寸法線
 62
     3
100
AcDbDimension
280
     0
  2
*D27
 10
655.9025914062
 20
1258.9138020833
 30
0.0
 11
655.9025914062
 21
928.8489597315
 31
0.0
 70
   160
  1
<>
 71
     5
 42
599.9997999999999
 73
     0
 74
     0
 75
     0
  3
sunpou
100
AcDbAlignedDimension
 13
970.6189
 23
658.9140020833
 33
0.0
 14
1026.0625
 24
1258.9138020833
 34
0.0
 50
90.0
100
AcDbRotatedDimension
1001
ACAD
1000
DSTYLE
1002
{
1070
   347
1005
0
1070
   346
1005
0
1070
   345
1005
0
1070
   340
1005
17
1070
   341
1005
321
1002
}
  0
LINE
  5
1F4
330
A
100
AcDbEntity
  8
LAYER0_00000000
  6
Continuous
100
AcDbLine
 10
837.06255
 20
637.675
 30
0.0
 11
937.06255
 21
1157.675
 31
0.0
  0
LINE
  5
1F5
330
A
100
AcDbEntity
  8
LAYER0_00000000
  6
Continuous
100
AcDbLine
 10
1637.06255
 20
637.675
 30
0.0
 11
1537.06255
 21
1157.675
 31
0.0
  0
LINE
  5
1F6
330
A
100
AcDbEntity
  8
LAYER0_00000000
  6
Continuous
100
AcDbLine
 10
937.06255
 20
1157.675
 30
0.0
 11
1537.06255
 21
1157.675
 31
0.0
  0
LINE
  5
1F7
330
A
100
AcDbEntity
  8
LAYER0_00000000
  6
Continuous
100
AcDbLine
 10
987.0625
 20
1201.9138020833
 30
0.0
 11
1487.0626
 21
1201.9138020833
 31
0.0
  0
LINE
  5
1F8
330
A
100
AcDbEntity
  8
LAYER0_00000000
  6
Continuous
100
AcDbLine
 10
1448.0626
 20
691.9140020833
 30
0.0
 11
1448.0626
 21
1201.9138020833
 31
0.0
  0
LINE
  5
1F9
330
A
100
AcDbEntity
  8
LAYER0_00000000
  6
Continuous
100
AcDbLine
 10
1415.0626
 20
1213.9138020833
 30
0.0
 11
1415.0626
 21
1228.9138020833
 31
0.0
  0
LINE
  5
1FA
330
A
100
AcDbEntity
  8
LAYER0_00000000
  6
Continuous
100
AcDbLine
 10
1426.0624
 20
802.9140020833
 30
0.0
 11
1048.0624
 21
802.9140020833
 31
0.0
  0
LINE
  5
1FB
330
A
100
AcDbEntity
  8
LAYER0_00000000
  6
Continuous
100
AcDbLine
 10
1426.0624
 20
780.9138020833
 30
0.0
 11
1048.0624
 21
780.9138020833
 31
0.0
  0
LINE
  5
1FC
330
A
100
AcDbEntity
  8
LAYER0_00000000
  6
Continuous
100
AcDbLine
 10
1426.0624
 20
1123.9140020833
 30
0.0
 11
1048.0624
 21
1123.9140020833
 31
0.0
  0
MTEXT
  5
1FD
330
A
100
AcDbEntity
  8
ﾚｲﾔｰ1
  6
Continuous
100
AcDbMText
 10
3586.274808227904
 20
2169.342381091712
 30
0.0
 40
60.0
 41
441.0601262575233
 46
0.0
 71
     1
 72
     1
  1
{\fＭＳ Ｐゴシック|b0|i0|c128|p49;６－φ２０孔}
 73
     1
 44
1.0
  0
MTEXT
  5
1FE
330
A
100
AcDbEntity
  8
LAYER4
  6
Continuous
100
AcDbMText
 10
3659.075747724626
 20
86.04734606064976
 30
0.0
 40
60.0
 41
657.7760648614
 46
0.0
 71
     1
 72
     1
  1
\W0.8;\fＭＳ Ｐゴシック;\W1.0;０1１２０１９
 73
     1
 44
1.0
  0
MTEXT
  5
1FF
330
A
100
AcDbEntity
  8
LAYER4
  6
Continuous
100
AcDbMText
 10
2952.879206285101
 20
272.8413588822249
 30
0.0
 40
60.0
 41
1579.7690376477
 46
0.0
 71
     1
 72
     1
  1
\W0.8;\fＭＳ Ｐゴシック;\W1.0;ＮＫパネルゲート用基礎ブロック
 73
     1
 44
1.0
  0
MTEXT
  5
200
330
A
100
AcDbEntity
  8
LAYER0_00000000
  6
Continuous
100
AcDbMText
 10
3922.170545164578
 20
576.6557754495843
 30
0.0
 40
35.0
 41
426.615735693
 46
0.0
 71
     1
 72
     1
  1
\W0.8;\fＭＳ Ｐゴシック;\W1.0;備　　　　考
 73
     1
 44
1.0
  0
MTEXT
  5
201
330
A
100
AcDbEntity
  8
LAYER4
  6
Continuous
100
AcDbMText
 10
2812.635353909201
 20
89.99933588186244
 30
0.0
 40
50.0
 41
894.0811161871
 46
0.0
 71
     1
 72
     1
  1
\W0.8;\fＭＳ Ｐゴシック;\W1.0;日本機電株式会社
 73
     1
 44
1.0
  0
MTEXT
  5
202
330
A
100
AcDbEntity
  8
LAYER0_00000000
  6
Continuous
100
AcDbMText
 10
3446.7413363415
 20
46.8620216611
 30
0.0
 40
35.0
 41
67.9564888714
 46
0.0
 71
     1
 72
     1
  1
\W0.8;\fＭＳ Ｐゴシック;\W1.0;番
 73
     1
 44
1.0
  0
MTEXT
  5
203
330
A
100
AcDbEntity
  8
LAYER0_00000000
  6
Continuous
100
AcDbMText
 10
3451.382669172691
 20
109.5459966071695
 30
0.0
 40
35.0
 41
67.9564888714
 46
0.0
 71
     1
 72
     1
  1
\W0.8;\fＭＳ Ｐゴシック;\W1.0;図
 73
     1
 44
1.0
  0
MTEXT
  5
204
330
A
100
AcDbEntity
  8
ﾚｲﾔｰ1
  6
Continuous
100
AcDbMText
 10
2953.3813996488
 20
1327.103898285
 30
0.0
 40
60.0
 41
1234.0009190497
 46
0.0
 71
     1
 72
     1
  1
\W0.8;\fＭＳ Ｐゴシック;\W1.0;基礎ブロックの大きさ
 73
     1
 44
1.0
  0
MTEXT
  5
205
330
A
100
AcDbEntity
  8
ﾚｲﾔｰ1
  6
Continuous
100
AcDbMText
 10
2969.7359569223
 20
1114.618259956
 30
0.0
 40
60.0
 41
1291.3354215971
 46
0.0
 71
     1
 72
     1
  1
\W0.8;\fＭＳ Ｐゴシック;\W1.0;上面　　　□６００\P底面　　　□８００\P高さ　　　　Ｈ＝５２０\P質量　　　５３０ｋｇ
 73
     1
 44
1.0
  0
MTEXT
  5
206
330
A
100
AcDbEntity
  8
ﾚｲﾔｰ1
  6
Continuous
100
AcDbMText
 10
3586.274808227904
 20
2510.000106850465
 30
0.0
 40
60.0
 41
516.8070615197445
 46
0.0
 71
     1
 72
     1
  1
{\fＭＳ Ｐゴシック|b0|i0|c128|p49;４－φ２２孔}
 73
     1
 44
1.0
  0
MTEXT
  5
207
330
A
100
AcDbEntity
  8
ﾚｲﾔｰ1
  6
Continuous
100
AcDbMText
 10
3586.274808227904
 20
2322.182503957171
 30
0.0
 40
60.0
 41
496.2987655889987
 46
0.0
 71
     1
 72
     1
  1
\W0.8;\fＭＳ Ｐゴシック;\W1.0;Ｌ100x100x10
 73
     1
 44
1.0
  0
MTEXT
  5
208
330
A
100
AcDbEntity
  8
ﾚｲﾔｰ1
  6
Continuous
100
AcDbMText
 10
3557.823291766388
 20
1860.644148561807
 30
0.0
 40
60.0
 41
317.141914125
 46
0.0
 71
     1
 72
     1
  1
\W0.8;\fＭＳ Ｐゴシック;\W1.0;ＰＬ１２ｔ
 73
     1
 44
1.0
  0
MTEXT
  5
209
330
A
100
AcDbEntity
  8
LAYER0_00000000
  6
Continuous
100
AcDbMText
 10
3519.559609709991
 20
577.1797854724688
 30
0.0
 40
35.0
 41
403.8124615098
 46
0.0
 71
     1
 72
     1
  1
\W0.8;\fＭＳ Ｐゴシック;\W1.0;材　　　質
 73
     1
 44
1.0
  0
MTEXT
  5
20A
330
A
100
AcDbEntity
  8
LAYER0_00000000
  6
Continuous
100
AcDbMText
 10
3758.678238771814
 20
577.1797854724688
 30
0.0
 40
35.0
 41
187.126563559
 46
0.0
 71
     1
 72
     1
  1
\W0.8;\fＭＳ Ｐゴシック;\W1.0;数量
 73
     1
 44
1.0
  0
MTEXT
  5
20B
330
A
100
AcDbEntity
  8
LAYER0_00000000
  6
Continuous
100
AcDbMText
 10
3337.385155062829
 20
484.3645497221937
 30
0.0
 40
35.0
 41
326.6450117695
 46
0.0
 71
     1
 72
     1
  1
\W0.8;\fＭＳ Ｐゴシック;\W1.0;2001. 1. 20
 73
     1
 44
1.0
  0
MTEXT
  5
20C
330
A
100
AcDbEntity
  8
LAYER0_00000000
  6
Continuous
100
AcDbMText
 10
2760.8333181391
 20
573.8647649341
 30
0.0
 40
35.0
 41
178.6570300569
 46
0.0
 71
     1
 72
     1
  1
\W0.8;\fＭＳ Ｐゴシック;\W1.0;番号
 73
     1
 44
1.0
  0
MTEXT
  5
20D
330
A
100
AcDbEntity
  8
LAYER4
  6
Continuous
100
AcDbMText
 10
4165.3748568944
 20
422.0795349671
 30
0.0
 40
37.3047615051
 41
76.7405396292
 46
0.0
 71
     1
 72
     1
  1
\W0.8;\fＭＳ Ｐゴシック;\W1.0;殿
 73
     1
 44
1.0
  0
MTEXT
  5
20E
330
A
100
AcDbEntity
  8
LAYER0_00000000
  6
Continuous
100
AcDbMText
 10
3338.404621824776
 20
393.0928369602
 30
0.0
 40
35.0
 41
320.3862368414
 46
0.0
 71
     1
 72
     1
  1
\W0.8;\fＭＳ Ｐゴシック;\W1.0;1/15
 73
     1
 44
1.0
  0
MTEXT
  5
20F
330
A
100
AcDbEntity
  8
LAYER0_00000000
  6
Continuous
100
AcDbMText
 10
2925.454926366134
 20
382.3238339153249
 30
0.0
 40
35.0
 41
247.7065044349
 46
0.0
 71
     1
 72
     1
  1
\W0.8;\fＭＳ Ｐゴシック;\W1.0;横　山
 73
     1
 44
1.0
  0
MTEXT
  5
210
330
A
100
AcDbEntity
  8
LAYER0_00000000
  6
Continuous
100
AcDbMText
 10
3132.188065459443
 20
488.2159399909
 30
0.0
 40
25.0
 41
218.8804589373
 46
0.0
 71
     1
 72
     1
  1
\W0.8;\fＭＳ Ｐゴシック;\W1.0;作図月日
 73
     1
 44
1.0
  0
MTEXT
  5
211
330
A
100
AcDbEntity
  8
LAYER0_00000000
  6
Continuous
100
AcDbMText
 10
3148.278019274241
 20
399.048219686
 30
0.0
 40
35.0
 41
367.2174991252
 46
0.0
 71
     1
 72
     1
  1
\W0.8;\fＭＳ Ｐゴシック;\W1.0;尺 度
 73
     1
 44
1.0
  0
MTEXT
  5
212
330
A
100
AcDbEntity
  8
LAYER0_00000000
  6
Continuous
100
AcDbMText
 10
2759.8817702856
 20
378.461608037
 30
0.0
 40
35.0
 41
145.6625984576
 46
0.0
 71
     1
 72
     1
  1
\W0.8;\fＭＳ Ｐゴシック;\W1.0;作図
 73
     1
 44
1.0
  0
MTEXT
  5
213
330
A
100
AcDbEntity
  8
LAYER0_00000000
  6
Continuous
100
AcDbMText
 10
2760.8333181391
 20
443.7132545138
 30
0.0
 40
35.0
 41
144.4041764214
 46
0.0
 71
     1
 72
     1
  1
\W0.8;\fＭＳ Ｐゴシック;\W1.0;検図
 73
     1
 44
1.0
  0
MTEXT
  5
214
330
A
100
AcDbEntity
  8
LAYER0_00000000
  6
Continuous
100
AcDbMText
 10
2760.8333181391
 20
508.0418289184
 30
0.0
 40
35.0
 41
144.4041764214
 46
0.0
 71
     1
 72
     1
  1
\W0.8;\fＭＳ Ｐゴシック;\W1.0;承認
 73
     1
 44
1.0
  0
MTEXT
  5
215
330
A
100
AcDbEntity
  8
LAYER0_00000000
  6
Continuous
100
AcDbMText
 10
2758.535916915
 20
305.8812264028
 30
0.0
 40
35.0
 41
71.1807411163
 46
0.0
 71
     1
 72
     1
  1
\W0.8;\fＭＳ Ｐゴシック;\W1.0;名
 73
     1
 44
1.0
  0
ENDSEC
  0
SECTION
  2
OBJECTS
  0
DICTIONARY
  5
19
330
0
100
AcDbDictionary
281
     1
  3
ACAD_DETAILVIEWSTYLE
350
393
  3
ACAD_DGNDEFINITIONS
350
31B
  3
ACAD_DWFDEFINITIONS
350
31A
  3
ACAD_GROUP
350
1A
  3
ACAD_LAYOUT
350
239
  3
ACAD_MATERIAL
350
255
  3
ACAD_MLEADERSTYLE
350
259
  3
ACAD_MLINESTYLE
350
1B
  3
ACAD_PDFDEFINITIONS
350
319
  3
ACAD_PLOTSETTINGS
350
216
  3
ACAD_PLOTSTYLENAME
350
316
  3
ACAD_SCALELIST
350
217
  3
ACAD_SECTIONVIEWSTYLE
350
394
  3
ACAD_TABLESTYLE
350
318
  3
ACAD_VISUALSTYLE
350
23C
  3
AcDbVariableDictionary
350
38F
  0
DICTIONARY
  5
393
102
{ACAD_REACTORS
330
19
102
}
330
19
100
AcDbDictionary
281
     1
  0
DICTIONARY
  5
31B
102
{ACAD_REACTORS
330
19
102
}
330
19
100
AcDbDictionary
281
     1
  0
DICTIONARY
  5
31A
102
{ACAD_REACTORS
330
19
102
}
330
19
100
AcDbDictionary
281
     1
  0
DICTIONARY
  5
1A
102
{ACAD_REACTORS
330
19
102
}
330
19
100
AcDbDictionary
281
     1
  0
DICTIONARY
  5
239
102
{ACAD_REACTORS
330
19
102
}
330
19
100
AcDbDictionary
281
     1
  3
Model
350
23A
  3
レイアウト 1
350
23B
  0
DICTIONARY
  5
255
102
{ACAD_REACTORS
330
19
102
}
330
19
100
AcDbDictionary
281
     1
  3
ByBlock
350
257
  3
ByLayer
350
256
  3
Global
350
258
  0
DICTIONARY
  5
259
102
{ACAD_REACTORS
330
19
102
}
330
19
100
AcDbDictionary
281
     1
  3
Standard
350
25A
  0
DICTIONARY
  5
1B
102
{ACAD_REACTORS
330
19
102
}
330
19
100
AcDbDictionary
281
     1
  3
STANDARD
350
1C
  0
DICTIONARY
  5
319
102
{ACAD_REACTORS
330
19
102
}
330
19
100
AcDbDictionary
281
     1
  0
DICTIONARY
  5
216
102
{ACAD_REACTORS
330
19
102
}
330
19
100
AcDbDictionary
281
     1
  0
ACDBDICTIONARYWDFLT
  5
316
102
{ACAD_REACTORS
330
19
102
}
330
19
100
AcDbDictionary
281
     1
  3
Normal
350
317
100
AcDbDictionaryWithDefault
340
317
  0
DICTIONARY
  5
217
102
{ACAD_REACTORS
330
19
102
}
330
19
100
AcDbDictionary
281
     1
  3
A0
350
218
  3
A1
350
219
  3
A2
350
21A
  3
A3
350
21B
  3
A4
350
21C
  3
A5
350
21D
  3
A6
350
21E
  3
A7
350
21F
  3
A8
350
220
  3
A9
350
221
  3
B0
350
222
  3
B1
350
223
  3
B2
350
224
  3
B3
350
225
  3
B4
350
226
  3
B5
350
227
  3
B6
350
228
  3
B7
350
229
  3
B8
350
22A
  3
B9
350
22B
  3
C0
350
22C
  3
C1
350
22D
  3
C2
350
22E
  3
C3
350
22F
  3
C4
350
230
  3
C5
350
231
  3
C6
350
232
  3
C7
350
233
  3
C8
350
234
  3
C9
350
235
  3
D0
350
236
  3
D1
350
237
  3
D2
350
238
  0
DICTIONARY
  5
394
102
{ACAD_REACTORS
330
19
102
}
330
19
100
AcDbDictionary
281
     1
  0
DICTIONARY
  5
318
102
{ACAD_REACTORS
330
19
102
}
330
19
100
AcDbDictionary
281
     1
  0
DICTIONARY
  5
23C
102
{ACAD_REACTORS
330
19
102
}
330
19
100
AcDbDictionary
281
     1
  3
2dWireframe
350
241
  3
Basic
350
244
  3
Brighten
350
248
  3
ColorChange
350
24C
  3
Conceptual
350
246
  3
Dim
350
247
  3
EdgeColorOff
350
24F
  3
Facepattern
350
24B
  3
Flat
350
23D
  3
FlatWithEdges
350
23E
  3
Gouraud
350
23F
  3
GouraudWithEdges
350
240
  3
Hidden
350
243
  3
JitterOff
350
24D
  3
Linepattern
350
24A
  3
OverhangOff
350
24E
  3
Realistic
350
245
  3
Shaded
350
254
  3
Shaded with edges
350
253
  3
Shades of Gray
350
250
  3
Sketchy
350
251
  3
Thicken
350
249
  3
Wireframe
350
242
  3
X-Ray
350
252
  0
DICTIONARY
  5
38F
102
{ACAD_REACTORS
330
19
102
}
330
19
100
AcDbDictionary
281
     1
  3
CANNOSCALE
350
390
  3
CMLEADERSTYLE
350
391
  3
MSLTSCALE
350
392
  0
LAYOUT
  5
23A
102
{ACAD_REACTORS
330
239
102
}
330
239
100
AcDbPlotSettings
  1

  2
RICOH MP 401SPF JPN
  4
User256
  6

 40
5.1
 41
5.1
 42
5.1
 43
5.1
 44
210.0
 45
297.0
 46
0.0
 47
2.424962342695238
 48
90.9917410004
 49
-14.56875
140
4233.15
141
2920.7140983009
142
1.0
143
14.69110534685135
 70
  1716
 72
     1
 73
     1
 74
     4
  7
monochrome.ctb
 75
     0
 76
     0
 77
     2
 78
   300
147
0.0680683976045631
148
-90.9917410004
149
14.56875
100
AcDbLayout
  1
Model
 70
     0
 71
     0
 10
0.0
 20
0.0
 11
0.0
 21
0.0
 12
0.0
 22
0.0
 32
0.0
 14
90.9917410004
 24
-14.56875
 34
0.0
 15
4233.2975173939
 25
2920.7140983009
 35
0.0
146
0.0
 13
0.0
 23
0.0
 33
0.0
 16
1.0
 26
0.0
 36
0.0
 17
0.0
 27
1.0
 37
0.0
 76
     0
330
A
331
15
1001
ACAD_PSEXT
1000
RICOH MP 401SPF JPN
1000
RICOH RPCS V4 Generic Driver
1000
WSD-b6a95287-baf7-4712-bd05-3193c0e37118.003a
1000
No Setting
1070
     0
  0
LAYOUT
  5
23B
102
{ACAD_REACTORS
330
239
102
}
330
239
100
AcDbPlotSettings
  1

  2
none_device
  4
ISO_A4_(210.00_x_297.00_MM)
  6

 40
20.0
 41
7.5
 42
7.5
 43
20.0
 44
210.0
 45
297.0
 46
0.0
 47
0.0
 48
0.0
 49
0.0
140
0.0
141
0.0
142
1.0
143
1.0
 70
   688
 72
     0
 73
     1
 74
     5
  7
monochrome.ctb
 75
    16
 76
     0
 77
     2
 78
   300
147
1.0
148
0.0
149
0.0
100
AcDbLayout
  1
レイアウト 1
 70
     0
 71
     1
 10
0.0
 20
0.0
 11
12.0
 21
9.0
 12
0.0
 22
0.0
 32
0.0
 14
1000000000000000E+20
 24
1000000000000000E+20
 34
1000000000000000E+20
 15
-1000000000000000E+20
 25
-1000000000000000E+20
 35
-1000000000000000E+20
146
0.0
 13
0.0
 23
0.0
 33
0.0
 16
1.0
 26
0.0
 36
0.0
 17
0.0
 27
1.0
 37
0.0
 76
     0
330
B
  0
MATERIAL
  5
257
102
{ACAD_REACTORS
330
255
102
}
330
255
100
AcDbMaterial
  1
ByBlock
 72
     1
 94
      127
  0
MATERIAL
  5
256
102
{ACAD_REACTORS
330
255
102
}
330
255
100
AcDbMaterial
  1
ByLayer
 72
     1
 94
      127
  0
MATERIAL
  5
258
102
{ACAD_REACTORS
330
255
102
}
330
255
100
AcDbMaterial
  1
Global
 72
     1
 94
      127
  0
MLEADERSTYLE
  5
25A
102
{ACAD_REACTORS
330
259
102
}
330
259
100
AcDbMLeaderStyle
179
     2
170
     2
171
     1
172
     0
 90
        2
 40
0.0
 41
0.0
173
     1
 91
-1056964608
340
13
 92
       -2
290
     1
 42
0.09
291
     1
 43
0.36
  3
Standard
341
0
 44
0.18
300

342
17
174
     1
178
     6
175
     1
176
     0
 93
-1056964608
 45
0.18
292
     0
297
     0
 46
0.18
343
0
 94
-1056964608
 47
1.0
 49
1.0
140
1.0
293
     1
141
0.0
294
     1
177
     0
142
1.0
295
     0
296
     0
143
0.125
271
     0
272
     9
273
     9
298
     0
1001
ACAD_MLEADERVER
1070
     2
  0
MLINESTYLE
  5
1C
102
{ACAD_REACTORS
330
1B
102
}
330
1B
100
AcDbMlineStyle
  2
STANDARD
 70
     0
  3

 62
     0
 51
90.0
 52
90.0
 71
     2
 49
0.5
 62
   256
  6
BYLAYER
 49
-0.5
 62
   256
  6
BYLAYER
  0
ACDBPLACEHOLDER
  5
317
102
{ACAD_REACTORS
330
316
102
}
330
316
  0
SCALE
  5
218
102
{ACAD_REACTORS
330
217
102
}
330
217
100
AcDbScale
 70
     0
300
1:1
140
1.0
141
1.0
290
     1
  0
SCALE
  5
219
102
{ACAD_REACTORS
330
217
102
}
330
217
100
AcDbScale
 70
     0
300
1:2
140
1.0
141
2.0
290
     0
  0
SCALE
  5
21A
102
{ACAD_REACTORS
330
217
102
}
330
217
100
AcDbScale
 70
     0
300
1:4
140
1.0
141
4.0
290
     0
  0
SCALE
  5
21B
102
{ACAD_REACTORS
330
217
102
}
330
217
100
AcDbScale
 70
     0
300
1:5
140
1.0
141
5.0
290
     0
  0
SCALE
  5
21C
102
{ACAD_REACTORS
330
217
102
}
330
217
100
AcDbScale
 70
     0
300
1:8
140
1.0
141
8.0
290
     0
  0
SCALE
  5
21D
102
{ACAD_REACTORS
330
217
102
}
330
217
100
AcDbScale
 70
     0
300
1:10
140
1.0
141
10.0
290
     0
  0
SCALE
  5
21E
102
{ACAD_REACTORS
330
217
102
}
330
217
100
AcDbScale
 70
     0
300
1:16
140
1.0
141
16.0
290
     0
  0
SCALE
  5
21F
102
{ACAD_REACTORS
330
217
102
}
330
217
100
AcDbScale
 70
     0
300
1:20
140
1.0
141
20.0
290
     0
  0
SCALE
  5
220
102
{ACAD_REACTORS
330
217
102
}
330
217
100
AcDbScale
 70
     0
300
1:30
140
1.0
141
30.0
290
     0
  0
SCALE
  5
221
102
{ACAD_REACTORS
330
217
102
}
330
217
100
AcDbScale
 70
     0
300
1:40
140
1.0
141
40.0
290
     0
  0
SCALE
  5
222
102
{ACAD_REACTORS
330
217
102
}
330
217
100
AcDbScale
 70
     0
300
1:50
140
1.0
141
50.0
290
     0
  0
SCALE
  5
223
102
{ACAD_REACTORS
330
217
102
}
330
217
100
AcDbScale
 70
     0
300
1:100
140
1.0
141
100.0
290
     0
  0
SCALE
  5
224
102
{ACAD_REACTORS
330
217
102
}
330
217
100
AcDbScale
 70
     0
300
2:1
140
2.0
141
1.0
290
     0
  0
SCALE
  5
225
102
{ACAD_REACTORS
330
217
102
}
330
217
100
AcDbScale
 70
     0
300
4:1
140
4.0
141
1.0
290
     0
  0
SCALE
  5
226
102
{ACAD_REACTORS
330
217
102
}
330
217
100
AcDbScale
 70
     0
300
8:1
140
8.0
141
1.0
290
     0
  0
SCALE
  5
227
102
{ACAD_REACTORS
330
217
102
}
330
217
100
AcDbScale
 70
     0
300
10:1
140
10.0
141
1.0
290
     0
  0
SCALE
  5
228
102
{ACAD_REACTORS
330
217
102
}
330
217
100
AcDbScale
 70
     0
300
100:1
140
100.0
141
1.0
290
     0
  0
SCALE
  5
229
102
{ACAD_REACTORS
330
217
102
}
330
217
100
AcDbScale
 70
     0
300
1/128" = 1'-0"
140
0.0078125
141
12.0
290
     0
  0
SCALE
  5
22A
102
{ACAD_REACTORS
330
217
102
}
330
217
100
AcDbScale
 70
     0
300
1/64" = 1'-0"
140
0.015625
141
12.0
290
     0
  0
SCALE
  5
22B
102
{ACAD_REACTORS
330
217
102
}
330
217
100
AcDbScale
 70
     0
300
1/32" = 1'-0"
140
0.03125
141
12.0
290
     0
  0
SCALE
  5
22C
102
{ACAD_REACTORS
330
217
102
}
330
217
100
AcDbScale
 70
     0
300
1/16" = 1'-0"
140
0.0625
141
12.0
290
     0
  0
SCALE
  5
22D
102
{ACAD_REACTORS
330
217
102
}
330
217
100
AcDbScale
 70
     0
300
3/32" = 1'-0"
140
0.09375
141
12.0
290
     0
  0
SCALE
  5
22E
102
{ACAD_REACTORS
330
217
102
}
330
217
100
AcDbScale
 70
     0
300
1/8" = 1'-0"
140
0.125
141
12.0
290
     0
  0
SCALE
  5
22F
102
{ACAD_REACTORS
330
217
102
}
330
217
100
AcDbScale
 70
     0
300
3/16" = 1'-0"
140
0.1875
141
12.0
290
     0
  0
SCALE
  5
230
102
{ACAD_REACTORS
330
217
102
}
330
217
100
AcDbScale
 70
     0
300
1/4" = 1'-0"
140
0.25
141
12.0
290
     0
  0
SCALE
  5
231
102
{ACAD_REACTORS
330
217
102
}
330
217
100
AcDbScale
 70
     0
300
3/8" = 1'-0"
140
0.375
141
12.0
290
     0
  0
SCALE
  5
232
102
{ACAD_REACTORS
330
217
102
}
330
217
100
AcDbScale
 70
     0
300
1/2" = 1'-0"
140
0.5
141
12.0
290
     0
  0
SCALE
  5
233
102
{ACAD_REACTORS
330
217
102
}
330
217
100
AcDbScale
 70
     0
300
3/4" = 1'-0"
140
0.75
141
12.0
290
     0
  0
SCALE
  5
234
102
{ACAD_REACTORS
330
217
102
}
330
217
100
AcDbScale
 70
     0
300
1" = 1'-0"
140
1.0
141
12.0
290
     0
  0
SCALE
  5
235
102
{ACAD_REACTORS
330
217
102
}
330
217
100
AcDbScale
 70
     0
300
1-1/2" = 1'-0"
140
1.5
141
12.0
290
     0
  0
SCALE
  5
236
102
{ACAD_REACTORS
330
217
102
}
330
217
100
AcDbScale
 70
     0
300
3" = 1'-0"
140
3.0
141
12.0
290
     0
  0
SCALE
  5
237
102
{ACAD_REACTORS
330
217
102
}
330
217
100
AcDbScale
 70
     0
300
6" = 1'-0"
140
6.0
141
12.0
290
     0
  0
SCALE
  5
238
102
{ACAD_REACTORS
330
217
102
}
330
217
100
AcDbScale
 70
     0
300
1'-0" = 1'-0"
140
12.0
141
12.0
290
     0
  0
VISUALSTYLE
  5
241
102
{ACAD_REACTORS
330
23C
102
}
330
23C
100
AcDbVisualStyle
  2
2dWireframe
 70
     4
177
     3
291
     0
 70
    58
 90
        0
176
     1
 90
        2
176
     1
 90
        0
176
     1
 90
        0
176
     1
 40
0.6
176
     1
 40
30.0
176
     1
 62
     7
420
 16777215
176
     1
 90
        1
176
     1
 90
        4
176
     1
 62
     7
176
     1
 62
   257
176
     1
 90
        1
176
     1
 90
        1
176
     1
 40
1.0
176
     1
 90
        0
176
     1
 62
   257
176
     1
 40
1.0
176
     1
 90
        1
176
     1
 90
        6
176
     1
 90
        2
176
     1
 62
     7
176
     1
 90
        5
176
     1
 90
        0
176
     1
 90
        0
176
     1
290
     0
176
     1
 90
        1
176
     1
 40
0.0
176
     1
 90
        0
176
     1
290
     1
176
     1
290
     1
176
     1
290
     0
176
     1
290
     0
176
     1
290
     0
176
     1
290
     0
176
     1
290
     0
176
     1
290
     0
176
     1
290
     0
176
     1
 90
       50
176
     1
 40
0.0
176
     1
 40
1.0
176
     1
 90
        0
176
     1
 62
    18
420
        0
176
     1
 90
       50
176
     1
 90
        3
176
     1
 62
     5
420
      255
176
     1
290
     0
176
     1
 90
       50
176
     1
 90
       50
176
     1
 90
       50
176
     1
290
     0
176
     1
 90
       50
176
     1
 62
   256
176
     0
 40
1.0
176
     0
 90
        2
176
     1
  1
strokes_ogs.tif
176
     1
290
     0
176
     1
 40
1.0
176
     1
 40
1.0
176
     1
  0
VISUALSTYLE
  5
244
102
{ACAD_REACTORS
330
23C
102
}
330
23C
100
AcDbVisualStyle
  2
Basic
 70
     7
177
     3
291
     1
 70
    58
 90
        1
176
     1
 90
        0
176
     1
 90
        1
176
     1
 90
        0
176
     1
 40
0.6
176
     1
 40
30.0
176
     1
 62
     7
420
 16777215
176
     1
 90
        0
176
     1
 90
        4
176
     1
 62
     7
176
     1
 62
   257
176
     1
 90
        1
176
     1
 90
        1
176
     1
 40
1.0
176
     1
 90
        8
176
     1
 62
     7
176
     1
 40
1.0
176
     1
 90
        1
176
     1
 90
        6
176
     1
 90
        2
176
     1
 62
     7
176
     1
 90
        5
176
     1
 90
        0
176
     1
 90
        0
176
     1
290
     0
176
     1
 90
        1
176
     1
 40
0.0
176
     1
 90
        0
176
     1
290
     0
176
     1
290
     1
176
     1
290
     1
176
     1
290
     0
176
     1
290
     0
176
     1
290
     0
176
     1
290
     0
176
     1
290
     0
176
     1
290
     0
176
     1
 90
       50
176
     1
 40
0.0
176
     1
 40
1.0
176
     1
 90
        0
176
     1
 62
    18
420
        0
176
     1
 90
       50
176
     1
 90
        3
176
     1
 62
     5
420
      255
176
     1
290
     0
176
     1
 90
       50
176
     1
 90
       50
176
     1
 90
       50
176
     1
290
     0
176
     1
 90
       50
176
     1
 62
   256
176
     0
 40
1.0
176
     0
 90
        2
176
     1
  1
strokes_ogs.tif
176
     1
290
     0
176
     1
 40
1.0
176
     1
 40
1.0
176
     1
  0
VISUALSTYLE
  5
248
102
{ACAD_REACTORS
330
23C
102
}
330
23C
100
AcDbVisualStyle
  2
Brighten
 70
    12
177
     3
291
     1
 70
    58
 90
        2
176
     1
 90
        2
176
     1
 90
        0
176
     1
 90
        0
176
     1
 40
0.6
176
     1
 40
30.0
176
     1
 62
     7
420
 16777215
176
     1
 90
        1
176
     1
 90
        4
176
     1
 62
     7
176
     1
 62
   257
176
     1
 90
        1
176
     1
 90
        1
176
     1
 40
1.0
176
     1
 90
        8
176
     1
 62
     7
176
     1
 40
1.0
176
     1
 90
        1
176
     1
 90
        6
176
     1
 90
        2
176
     1
 62
     7
176
     1
 90
        5
176
     1
 90
        0
176
     1
 90
        0
176
     1
290
     0
176
     1
 90
        1
176
     1
 40
50.0
176
     1
 90
        0
176
     1
290
     0
176
     1
290
     1
176
     1
290
     1
176
     1
290
     0
176
     1
290
     0
176
     1
290
     0
176
     1
290
     0
176
     1
290
     0
176
     1
290
     0
176
     1
 90
       50
176
     1
 40
0.0
176
     1
 40
1.0
176
     1
 90
        0
176
     1
 62
    18
420
        0
176
     1
 90
       50
176
     1
 90
        3
176
     1
 62
     5
420
      255
176
     1
290
     0
176
     1
 90
       50
176
     1
 90
       50
176
     1
 90
       50
176
     1
290
     0
176
     1
 90
       50
176
     1
 62
   256
176
     0
 40
1.0
176
     0
 90
        2
176
     1
  1
strokes_ogs.tif
176
     1
290
     0
176
     1
 40
1.0
176
     1
 40
1.0
176
     1
  0
VISUALSTYLE
  5
24C
102
{ACAD_REACTORS
330
23C
102
}
330
23C
100
AcDbVisualStyle
  2
ColorChange
 70
    16
177
     3
291
     1
 70
    58
 90
        2
176
     1
 90
        2
176
     1
 90
        3
176
     1
 90
        0
176
     1
 40
0.6
176
     1
 40
30.0
176
     1
 62
     8
420
  8421504
176
     1
 90
        1
176
     1
 90
        4
176
     1
 62
     7
176
     1
 62
   257
176
     1
 90
        1
176
     1
 90
        1
176
     1
 40
1.0
176
     1
 90
        8
176
     1
 62
     8
420
  8421504
176
     1
 40
1.0
176
     1
 90
        1
176
     1
 90
        6
176
     1
 90
        2
176
     1
 62
     7
176
     1
 90
        5
176
     1
 90
        0
176
     1
 90
        0
176
     1
290
     0
176
     1
 90
        1
176
     1
 40
0.0
176
     1
 90
        0
176
     1
290
     0
176
     1
290
     1
176
     1
290
     1
176
     1
290
     0
176
     1
290
     0
176
     1
290
     0
176
     1
290
     0
176
     1
290
     0
176
     1
290
     0
176
     1
 90
       50
176
     1
 40
0.0
176
     1
 40
1.0
176
     1
 90
        0
176
     1
 62
    18
420
        0
176
     1
 90
       50
176
     1
 90
        3
176
     1
 62
     5
420
      255
176
     1
290
     0
176
     1
 90
       50
176
     1
 90
       50
176
     1
 90
       50
176
     1
290
     0
176
     1
 90
       50
176
     1
 62
   256
176
     0
 40
1.0
176
     0
 90
        2
176
     1
  1
strokes_ogs.tif
176
     1
290
     0
176
     1
 40
1.0
176
     1
 40
1.0
176
     1
  0
VISUALSTYLE
  5
246
102
{ACAD_REACTORS
330
23C
102
}
330
23C
100
AcDbVisualStyle
  2
Conceptual
 70
     9
177
     3
291
     0
 70
    58
 90
        3
176
     1
 90
        2
176
     1
 90
        0
176
     1
 90
        0
176
     1
 40
0.6
176
     1
 40
30.0
176
     1
 62
     7
420
 16777215
176
     1
 90
        2
176
     1
 90
        2
176
     1
 62
     7
176
     1
 62
   257
176
     1
 90
        1
176
     1
 90
        1
176
     1
 40
40.0
176
     1
 90
        8
176
     1
 62
     7
176
     1
 40
1.0
176
     1
 90
        1
176
     1
 90
        6
176
     1
 90
        2
176
     1
 62
     7
176
     1
 90
        3
176
     1
 90
        0
176
     1
 90
        0
176
     1
290
     0
176
     1
 90
        1
176
     1
 40
0.0
176
     1
 90
        0
176
     1
290
     0
176
     1
290
     1
176
     1
290
     1
176
     1
290
     0
176
     1
290
     0
176
     1
290
     0
176
     1
290
     0
176
     1
290
     0
176
     1
290
     0
176
     1
 90
       50
176
     1
 40
0.0
176
     1
 40
1.0
176
     1
 90
        0
176
     1
 62
    18
420
        0
176
     1
 90
       50
176
     1
 90
        3
176
     1
 62
     5
420
      255
176
     1
290
     0
176
     1
 90
       50
176
     1
 90
       50
176
     1
 90
       50
176
     1
290
     0
176
     1
 90
       50
176
     1
 62
   256
176
     0
 40
1.0
176
     0
 90
        2
176
     1
  1
strokes_ogs.tif
176
     1
290
     0
176
     1
 40
1.0
176
     1
 40
1.0
176
     1
  0
VISUALSTYLE
  5
247
102
{ACAD_REACTORS
330
23C
102
}
330
23C
100
AcDbVisualStyle
  2
Dim
 70
    11
177
     3
291
     1
 70
    58
 90
        2
176
     1
 90
        2
176
     1
 90
        0
176
     1
 90
        0
176
     1
 40
0.6
176
     1
 40
30.0
176
     1
 62
     7
420
 16777215
176
     1
 90
        1
176
     1
 90
        4
176
     1
 62
     7
176
     1
 62
   257
176
     1
 90
        1
176
     1
 90
        1
176
     1
 40
1.0
176
     1
 90
        8
176
     1
 62
     7
176
     1
 40
1.0
176
     1
 90
        1
176
     1
 90
        6
176
     1
 90
        2
176
     1
 62
     7
176
     1
 90
        5
176
     1
 90
        0
176
     1
 90
        0
176
     1
290
     0
176
     1
 90
        1
176
     1
 40
-50.0
176
     1
 90
        0
176
     1
290
     0
176
     1
290
     1
176
     1
290
     1
176
     1
290
     0
176
     1
290
     0
176
     1
290
     0
176
     1
290
     0
176
     1
290
     0
176
     1
290
     0
176
     1
 90
       50
176
     1
 40
0.0
176
     1
 40
1.0
176
     1
 90
        0
176
     1
 62
    18
420
        0
176
     1
 90
       50
176
     1
 90
        3
176
     1
 62
     5
420
      255
176
     1
290
     0
176
     1
 90
       50
176
     1
 90
       50
176
     1
 90
       50
176
     1
290
     0
176
     1
 90
       50
176
     1
 62
   256
176
     0
 40
1.0
176
     0
 90
        2
176
     1
  1
strokes_ogs.tif
176
     1
290
     0
176
     1
 40
1.0
176
     1
 40
1.0
176
     1
  0
VISUALSTYLE
  5
24F
102
{ACAD_REACTORS
330
23C
102
}
330
23C
100
AcDbVisualStyle
  2
EdgeColorOff
 70
    22
177
     3
291
     1
 70
    58
 90
        2
176
     0
 90
        2
176
     0
 90
        0
176
     0
 90
        0
176
     0
 40
0.6
176
     0
 40
30.0
176
     0
 62
     7
420
 16777215
176
     0
 90
        1
176
     0
 90
        4
176
     0
 62
     7
176
     0
 62
   257
176
     0
 90
        1
176
     0
 90
        1
176
     0
 40
1.0
176
     0
 90
        8
176
     0
 62
     7
176
     0
 40
1.0
176
     0
 90
        1
176
     0
 90
        6
176
     0
 90
        2
176
     0
 62
     7
176
     0
 90
        5
176
     0
 90
        0
176
     0
 90
        0
176
     0
290
     0
176
     0
 90
        1
176
     0
 40
0.0
176
     0
 90
        0
176
     0
290
     0
176
     1
290
     1
176
     1
290
     1
176
     1
290
     0
176
     1
290
     0
176
     1
290
     0
176
     1
290
     0
176
     1
290
     0
176
     1
290
     0
176
     1
 90
       50
176
     1
 40
0.0
176
     1
 40
1.0
176
     1
 90
        0
176
     1
 62
    18
420
        0
176
     1
 90
       50
176
     1
 90
        3
176
     1
 62
     5
420
      255
176
     1
290
     0
176
     1
 90
       50
176
     1
 90
       50
176
     1
 90
       50
176
     1
290
     0
176
     1
 90
       50
176
     1
 62
   256
176
     0
 40
1.0
176
     0
 90
        2
176
     1
  1
strokes_ogs.tif
176
     1
290
     0
176
     1
 40
1.0
176
     1
 40
1.0
176
     1
  0
VISUALSTYLE
  5
24B
102
{ACAD_REACTORS
330
23C
102
}
330
23C
100
AcDbVisualStyle
  2
Facepattern
 70
    15
177
     3
291
     1
 70
    58
 90
        2
176
     1
 90
        2
176
     1
 90
        0
176
     1
 90
        0
176
     1
 40
0.6
176
     1
 40
30.0
176
     1
 62
     7
420
 16777215
176
     1
 90
        1
176
     1
 90
        4
176
     1
 62
     7
176
     1
 62
   257
176
     1
 90
        1
176
     1
 90
        1
176
     1
 40
1.0
176
     1
 90
        8
176
     1
 62
     7
176
     1
 40
1.0
176
     1
 90
        1
176
     1
 90
        6
176
     1
 90
        2
176
     1
 62
     7
176
     1
 90
        5
176
     1
 90
        0
176
     1
 90
        0
176
     1
290
     0
176
     1
 90
        1
176
     1
 40
0.0
176
     1
 90
        0
176
     1
290
     0
176
     1
290
     1
176
     1
290
     1
176
     1
290
     0
176
     1
290
     0
176
     1
290
     0
176
     1
290
     0
176
     1
290
     0
176
     1
290
     0
176
     1
 90
       50
176
     1
 40
0.0
176
     1
 40
1.0
176
     1
 90
        0
176
     1
 62
    18
420
        0
176
     1
 90
       50
176
     1
 90
        3
176
     1
 62
     5
420
      255
176
     1
290
     0
176
     1
 90
       50
176
     1
 90
       50
176
     1
 90
       50
176
     1
290
     0
176
     1
 90
       50
176
     1
 62
   256
176
     0
 40
1.0
176
     0
 90
        2
176
     1
  1
strokes_ogs.tif
176
     1
290
     0
176
     1
 40
1.0
176
     1
 40
1.0
176
     1
  0
VISUALSTYLE
  5
23D
102
{ACAD_REACTORS
330
23C
102
}
330
23C
100
AcDbVisualStyle
  2
Flat
 70
     0
177
     3
291
     1
 70
    58
 90
        2
176
     1
 90
        1
176
     1
 90
        1
176
     1
 90
        2
176
     1
 40
0.6
176
     1
 40
30.0
176
     1
 62
     7
420
 16777215
176
     1
 90
        0
176
     1
 90
        4
176
     1
 62
     7
176
     1
 62
   257
176
     1
 90
        1
176
     1
 90
        1
176
     1
 40
1.0
176
     1
 90
        8
176
     1
 62
     7
176
     1
 40
1.0
176
     1
 90
        1
176
     1
 90
        6
176
     1
 90
        2
176
     1
 62
     7
176
     1
 90
        5
176
     1
 90
        0
176
     1
 90
        0
176
     1
290
     0
176
     1
 90
       13
176
     1
 40
0.0
176
     1
 90
        0
176
     1
290
     0
176
     1
290
     1
176
     1
290
     1
176
     1
290
     0
176
     1
290
     0
176
     1
290
     0
176
     1
290
     0
176
     1
290
     0
176
     1
290
     0
176
     1
 90
       50
176
     1
 40
0.0
176
     1
 40
1.0
176
     1
 90
        0
176
     1
 62
    18
420
        0
176
     1
 90
       50
176
     1
 90
        3
176
     1
 62
     5
420
      255
176
     1
290
     0
176
     1
 90
       50
176
     1
 90
       50
176
     1
 90
       50
176
     1
290
     0
176
     1
 90
       50
176
     1
 62
   256
176
     0
 40
1.0
176
     0
 90
        2
176
     1
  1
strokes_ogs.tif
176
     1
290
     0
176
     1
 40
1.0
176
     1
 40
1.0
176
     1
  0
VISUALSTYLE
  5
23E
102
{ACAD_REACTORS
330
23C
102
}
330
23C
100
AcDbVisualStyle
  2
FlatWithEdges
 70
     1
177
     3
291
     1
 70
    58
 90
        2
176
     1
 90
        1
176
     1
 90
        1
176
     1
 90
        2
176
     1
 40
0.6
176
     1
 40
30.0
176
     1
 62
     7
420
 16777215
176
     1
 90
        1
176
     1
 90
        4
176
     1
 62
     7
176
     1
 62
   257
176
     1
 90
        1
176
     1
 90
        1
176
     1
 40
1.0
176
     1
 90
        0
176
     1
 62
   257
176
     1
 40
1.0
176
     1
 90
        1
176
     1
 90
        6
176
     1
 90
        2
176
     1
 62
     7
176
     1
 90
        5
176
     1
 90
        0
176
     1
 90
        0
176
     1
290
     0
176
     1
 90
       13
176
     1
 40
0.0
176
     1
 90
        0
176
     1
290
     0
176
     1
290
     1
176
     1
290
     1
176
     1
290
     0
176
     1
290
     0
176
     1
290
     0
176
     1
290
     0
176
     1
290
     0
176
     1
290
     0
176
     1
 90
       50
176
     1
 40
0.0
176
     1
 40
1.0
176
     1
 90
        0
176
     1
 62
    18
420
        0
176
     1
 90
       50
176
     1
 90
        3
176
     1
 62
     5
420
      255
176
     1
290
     0
176
     1
 90
       50
176
     1
 90
       50
176
     1
 90
       50
176
     1
290
     0
176
     1
 90
       50
176
     1
 62
   256
176
     0
 40
1.0
176
     0
 90
        2
176
     1
  1
strokes_ogs.tif
176
     1
290
     0
176
     1
 40
1.0
176
     1
 40
1.0
176
     1
  0
VISUALSTYLE
  5
23F
102
{ACAD_REACTORS
330
23C
102
}
330
23C
100
AcDbVisualStyle
  2
Gouraud
 70
     2
177
     3
291
     1
 70
    58
 90
        2
176
     1
 90
        2
176
     1
 90
        1
176
     1
 90
        2
176
     1
 40
0.6
176
     1
 40
30.0
176
     1
 62
     7
420
 16777215
176
     1
 90
        0
176
     1
 90
        4
176
     1
 62
     7
176
     1
 62
   257
176
     1
 90
        1
176
     1
 90
        1
176
     1
 40
1.0
176
     1
 90
        0
176
     1
 62
     7
176
     1
 40
1.0
176
     1
 90
        1
176
     1
 90
        6
176
     1
 90
        2
176
     1
 62
     7
176
     1
 90
        5
176
     1
 90
        0
176
     1
 90
        0
176
     1
290
     0
176
     1
 90
       13
176
     1
 40
0.0
176
     1
 90
        0
176
     1
290
     0
176
     1
290
     1
176
     1
290
     1
176
     1
290
     0
176
     1
290
     0
176
     1
290
     0
176
     1
290
     0
176
     1
290
     0
176
     1
290
     0
176
     1
 90
       50
176
     1
 40
0.0
176
     1
 40
1.0
176
     1
 90
        0
176
     1
 62
    18
420
        0
176
     1
 90
       50
176
     1
 90
        3
176
     1
 62
     5
420
      255
176
     1
290
     0
176
     1
 90
       50
176
     1
 90
       50
176
     1
 90
       50
176
     1
290
     0
176
     1
 90
       50
176
     1
 62
   256
176
     0
 40
1.0
176
     0
 90
        2
176
     1
  1
strokes_ogs.tif
176
     1
290
     0
176
     1
 40
1.0
176
     1
 40
1.0
176
     1
  0
VISUALSTYLE
  5
240
102
{ACAD_REACTORS
330
23C
102
}
330
23C
100
AcDbVisualStyle
  2
GouraudWithEdges
 70
     3
177
     3
291
     1
 70
    58
 90
        2
176
     1
 90
        2
176
     1
 90
        1
176
     1
 90
        2
176
     1
 40
0.6
176
     1
 40
30.0
176
     1
 62
     7
420
 16777215
176
     1
 90
        1
176
     1
 90
        4
176
     1
 62
     7
176
     1
 62
   257
176
     1
 90
        1
176
     1
 90
        1
176
     1
 40
1.0
176
     1
 90
        0
176
     1
 62
   257
176
     1
 40
1.0
176
     1
 90
        1
176
     1
 90
        6
176
     1
 90
        2
176
     1
 62
     7
176
     1
 90
        5
176
     1
 90
        0
176
     1
 90
        0
176
     1
290
     0
176
     1
 90
       13
176
     1
 40
0.0
176
     1
 90
        0
176
     1
290
     0
176
     1
290
     1
176
     1
290
     1
176
     1
290
     0
176
     1
290
     0
176
     1
290
     0
176
     1
290
     0
176
     1
290
     0
176
     1
290
     0
176
     1
 90
       50
176
     1
 40
0.0
176
     1
 40
1.0
176
     1
 90
        0
176
     1
 62
    18
420
        0
176
     1
 90
       50
176
     1
 90
        3
176
     1
 62
     5
420
      255
176
     1
290
     0
176
     1
 90
       50
176
     1
 90
       50
176
     1
 90
       50
176
     1
290
     0
176
     1
 90
       50
176
     1
 62
   256
176
     0
 40
1.0
176
     0
 90
        2
176
     1
  1
strokes_ogs.tif
176
     1
290
     0
176
     1
 40
1.0
176
     1
 40
1.0
176
     1
  0
VISUALSTYLE
  5
243
102
{ACAD_REACTORS
330
23C
102
}
330
23C
100
AcDbVisualStyle
  2
Hidden
 70
     6
177
     3
291
     0
 70
    58
 90
        1
176
     1
 90
        2
176
     1
 90
        2
176
     1
 90
        0
176
     1
 40
0.6
176
     1
 40
30.0
176
     1
 62
     7
420
 16777215
176
     1
 90
        2
176
     1
 90
        2
176
     1
 62
     7
176
     1
 62
   257
176
     1
 90
        2
176
     1
 90
        1
176
     1
 40
40.0
176
     1
 90
        0
176
     1
 62
   257
176
     1
 40
1.0
176
     1
 90
        1
176
     1
 90
        6
176
     1
 90
        2
176
     1
 62
     7
176
     1
 90
        3
176
     1
 90
        0
176
     1
 90
        0
176
     1
290
     0
176
     1
 90
        1
176
     1
 40
0.0
176
     1
 90
        0
176
     1
290
     0
176
     1
290
     1
176
     1
290
     1
176
     1
290
     0
176
     1
290
     0
176
     1
290
     0
176
     1
290
     0
176
     1
290
     0
176
     1
290
     0
176
     1
 90
       50
176
     1
 40
0.0
176
     1
 40
1.0
176
     1
 90
        0
176
     1
 62
    18
420
        0
176
     1
 90
       50
176
     1
 90
        3
176
     1
 62
     5
420
      255
176
     1
290
     0
176
     1
 90
       50
176
     1
 90
       50
176
     1
 90
       50
176
     1
290
     0
176
     1
 90
       50
176
     1
 62
   256
176
     0
 40
1.0
176
     0
 90
        2
176
     1
  1
strokes_ogs.tif
176
     1
290
     0
176
     1
 40
1.0
176
     1
 40
1.0
176
     1
  0
VISUALSTYLE
  5
24D
102
{ACAD_REACTORS
330
23C
102
}
330
23C
100
AcDbVisualStyle
  2
JitterOff
 70
    20
177
     3
291
     1
 70
    58
 90
        2
176
     0
 90
        2
176
     0
 90
        0
176
     0
 90
        0
176
     0
 40
0.6
176
     0
 40
30.0
176
     0
 62
     7
420
 16777215
176
     0
 90
        1
176
     0
 90
        4
176
     0
 62
     7
176
     0
 62
   257
176
     0
 90
        1
176
     0
 90
        1
176
     0
 40
1.0
176
     0
 90
       10
176
     0
 62
     7
176
     0
 40
1.0
176
     0
 90
        1
176
     0
 90
        6
176
     0
 90
        2
176
     0
 62
     7
176
     0
 90
        5
176
     0
 90
        0
176
     0
 90
        0
176
     0
290
     0
176
     0
 90
        1
176
     0
 40
0.0
176
     0
 90
        0
176
     0
290
     0
176
     1
290
     1
176
     1
290
     1
176
     1
290
     0
176
     1
290
     0
176
     1
290
     0
176
     1
290
     0
176
     1
290
     0
176
     1
290
     0
176
     1
 90
       50
176
     1
 40
0.0
176
     1
 40
1.0
176
     1
 90
        0
176
     1
 62
    18
420
        0
176
     1
 90
       50
176
     1
 90
        3
176
     1
 62
     5
420
      255
176
     1
290
     0
176
     1
 90
       50
176
     1
 90
       50
176
     1
 90
       50
176
     1
290
     0
176
     1
 90
       50
176
     1
 62
   256
176
     0
 40
1.0
176
     0
 90
        2
176
     1
  1
strokes_ogs.tif
176
     1
290
     0
176
     1
 40
1.0
176
     1
 40
1.0
176
     1
  0
VISUALSTYLE
  5
24A
102
{ACAD_REACTORS
330
23C
102
}
330
23C
100
AcDbVisualStyle
  2
Linepattern
 70
    14
177
     3
291
     1
 70
    58
 90
        2
176
     1
 90
        2
176
     1
 90
        0
176
     1
 90
        0
176
     1
 40
0.6
176
     1
 40
30.0
176
     1
 62
     7
420
 16777215
176
     1
 90
        1
176
     1
 90
        4
176
     1
 62
     7
176
     1
 62
   257
176
     1
 90
        7
176
     1
 90
        7
176
     1
 40
1.0
176
     1
 90
        8
176
     1
 62
     7
176
     1
 40
1.0
176
     1
 90
        1
176
     1
 90
        6
176
     1
 90
        2
176
     1
 62
     7
176
     1
 90
        5
176
     1
 90
        0
176
     1
 90
        0
176
     1
290
     0
176
     1
 90
        1
176
     1
 40
0.0
176
     1
 90
        0
176
     1
290
     0
176
     1
290
     1
176
     1
290
     1
176
     1
290
     0
176
     1
290
     0
176
     1
290
     0
176
     1
290
     0
176
     1
290
     0
176
     1
290
     0
176
     1
 90
       50
176
     1
 40
0.0
176
     1
 40
1.0
176
     1
 90
        0
176
     1
 62
    18
420
        0
176
     1
 90
       50
176
     1
 90
        3
176
     1
 62
     5
420
      255
176
     1
290
     0
176
     1
 90
       50
176
     1
 90
       50
176
     1
 90
       50
176
     1
290
     0
176
     1
 90
       50
176
     1
 62
   256
176
     0
 40
1.0
176
     0
 90
        2
176
     1
  1
strokes_ogs.tif
176
     1
290
     0
176
     1
 40
1.0
176
     1
 40
1.0
176
     1
  0
VISUALSTYLE
  5
24E
102
{ACAD_REACTORS
330
23C
102
}
330
23C
100
AcDbVisualStyle
  2
OverhangOff
 70
    21
177
     3
291
     1
 70
    58
 90
        2
176
     0
 90
        2
176
     0
 90
        0
176
     0
 90
        0
176
     0
 40
0.6
176
     0
 40
30.0
176
     0
 62
     7
420
 16777215
176
     0
 90
        1
176
     0
 90
        4
176
     0
 62
     7
176
     0
 62
   257
176
     0
 90
        1
176
     0
 90
        1
176
     0
 40
1.0
176
     0
 90
        9
176
     0
 62
     7
176
     0
 40
1.0
176
     0
 90
        1
176
     0
 90
        6
176
     0
 90
        2
176
     0
 62
     7
176
     0
 90
        5
176
     0
 90
        0
176
     0
 90
        0
176
     0
290
     0
176
     0
 90
        1
176
     0
 40
0.0
176
     0
 90
        0
176
     0
290
     0
176
     1
290
     1
176
     1
290
     1
176
     1
290
     0
176
     1
290
     0
176
     1
290
     0
176
     1
290
     0
176
     1
290
     0
176
     1
290
     0
176
     1
 90
       50
176
     1
 40
0.0
176
     1
 40
1.0
176
     1
 90
        0
176
     1
 62
    18
420
        0
176
     1
 90
       50
176
     1
 90
        3
176
     1
 62
     5
420
      255
176
     1
290
     0
176
     1
 90
       50
176
     1
 90
       50
176
     1
 90
       50
176
     1
290
     0
176
     1
 90
       50
176
     1
 62
   256
176
     0
 40
1.0
176
     0
 90
        2
176
     1
  1
strokes_ogs.tif
176
     1
290
     0
176
     1
 40
1.0
176
     1
 40
1.0
176
     1
  0
VISUALSTYLE
  5
245
102
{ACAD_REACTORS
330
23C
102
}
330
23C
100
AcDbVisualStyle
  2
Realistic
 70
     8
177
     3
291
     0
 70
    58
 90
        2
176
     1
 90
        3
176
     1
 90
        0
176
     1
 90
        2
176
     1
 40
0.6
176
     1
 40
30.0
176
     1
 62
     7
420
 16777215
176
     1
 90
        0
176
     1
 90
        0
176
     1
 62
     7
176
     1
 62
   257
176
     1
 90
        1
176
     1
 90
        1
176
     1
 40
1.0
176
     1
 90
        8
176
     1
 62
   257
176
     1
 40
1.0
176
     1
 90
        1
176
     1
 90
        6
176
     1
 90
        2
176
     1
 62
     7
176
     1
 90
        3
176
     1
 90
        0
176
     1
 90
        0
176
     1
290
     0
176
     1
 90
       13
176
     1
 40
0.0
176
     1
 90
        0
176
     1
290
     0
176
     1
290
     1
176
     1
290
     1
176
     1
290
     0
176
     1
290
     0
176
     1
290
     0
176
     1
290
     0
176
     1
290
     0
176
     1
290
     0
176
     1
 90
       50
176
     1
 40
0.0
176
     1
 40
1.0
176
     1
 90
        0
176
     1
 62
    18
420
        0
176
     1
 90
       50
176
     1
 90
        3
176
     1
 62
     5
420
      255
176
     1
290
     0
176
     1
 90
       50
176
     1
 90
       50
176
     1
 90
       50
176
     1
290
     0
176
     1
 90
       50
176
     1
 62
   256
176
     0
 40
1.0
176
     0
 90
        2
176
     1
  1
strokes_ogs.tif
176
     1
290
     0
176
     1
 40
1.0
176
     1
 40
1.0
176
     1
  0
VISUALSTYLE
  5
254
102
{ACAD_REACTORS
330
23C
102
}
330
23C
100
AcDbVisualStyle
  2
Shaded
 70
    27
177
     3
291
     0
 70
    58
 90
        2
176
     1
 90
        2
176
     1
 90
        1
176
     1
 90
        2
176
     1
 40
0.6
176
     1
 40
30.0
176
     1
 62
     7
420
 16777215
176
     1
 90
        0
176
     1
 90
        4
176
     1
 62
     7
176
     1
 62
   257
176
     1
 90
        1
176
     1
 90
        1
176
     1
 40
1.0
176
     1
 90
        8
176
     1
 62
   257
176
     1
 40
1.0
176
     1
 90
        1
176
     1
 90
        6
176
     1
 90
        2
176
     1
 62
   251
420
  5131854
176
     1
 90
        3
176
     1
 90
        0
176
     1
 90
        0
176
     1
290
     0
176
     1
 90
        5
176
     1
 40
0.0
176
     1
 90
        0
176
     1
290
     0
176
     1
290
     1
176
     1
290
     1
176
     1
290
     0
176
     1
290
     0
176
     1
290
     0
176
     1
290
     0
176
     1
290
     0
176
     1
290
     0
176
     1
 90
       50
176
     1
 40
0.0
176
     1
 40
1.0
176
     1
 90
        0
176
     1
 62
    18
420
        0
176
     1
 90
       50
176
     1
 90
        3
176
     1
 62
     5
420
      255
176
     1
290
     0
176
     1
 90
       50
176
     1
 90
       50
176
     1
 90
       50
176
     1
290
     0
176
     1
 90
       50
176
     1
 62
   256
176
     0
 40
1.0
176
     0
 90
        2
176
     1
  1
strokes_ogs.tif
176
     1
290
     0
176
     1
 40
1.0
176
     1
 40
1.0
176
     1
  0
VISUALSTYLE
  5
253
102
{ACAD_REACTORS
330
23C
102
}
330
23C
100
AcDbVisualStyle
  2
Shaded with edges
 70
    26
177
     3
291
     0
 70
    58
 90
        2
176
     1
 90
        2
176
     1
 90
        1
176
     1
 90
        2
176
     1
 40
0.6
176
     1
 40
30.0
176
     1
 62
     7
420
 16777215
176
     1
 90
        1
176
     1
 90
       10
176
     1
 62
     7
176
     1
 62
   257
176
     1
 90
        2
176
     1
 90
        1
176
     1
 40
1.0
176
     1
 90
        8
176
     1
 62
   257
176
     1
 40
1.0
176
     1
 90
        1
176
     1
 90
        6
176
     1
 90
        2
176
     1
 62
     7
176
     1
 90
        3
176
     1
 90
        0
176
     1
 90
        0
176
     1
290
     0
176
     1
 90
        5
176
     1
 40
0.0
176
     1
 90
        0
176
     1
290
     0
176
     1
290
     1
176
     1
290
     1
176
     1
290
     0
176
     1
290
     0
176
     1
290
     0
176
     1
290
     0
176
     1
290
     0
176
     1
290
     0
176
     1
 90
       50
176
     1
 40
0.0
176
     1
 40
1.0
176
     1
 90
        0
176
     1
 62
    18
420
        0
176
     1
 90
       50
176
     1
 90
        3
176
     1
 62
     5
420
      255
176
     1
290
     0
176
     1
 90
       50
176
     1
 90
       50
176
     1
 90
       50
176
     1
290
     0
176
     1
 90
       50
176
     1
 62
   256
176
     0
 40
1.0
176
     0
 90
        2
176
     1
  1
strokes_ogs.tif
176
     1
290
     0
176
     1
 40
1.0
176
     1
 40
1.0
176
     1
  0
VISUALSTYLE
  5
250
102
{ACAD_REACTORS
330
23C
102
}
330
23C
100
AcDbVisualStyle
  2
Shades of Gray
 70
    23
177
     3
291
     0
 70
    58
 90
        2
176
     1
 90
        2
176
     1
 90
        3
176
     1
 90
        0
176
     1
 40
0.6
176
     1
 40
30.0
176
     1
 62
     7
420
 16777215
176
     1
 90
        2
176
     1
 90
        2
176
     1
 62
     7
176
     1
 62
     7
176
     1
 90
        1
176
     1
 90
        1
176
     1
 40
40.0
176
     1
 90
        8
176
     1
 62
     7
176
     1
 40
1.0
176
     1
 90
        1
176
     1
 90
        6
176
     1
 90
        2
176
     1
 62
     7
176
     1
 90
        3
176
     1
 90
        0
176
     1
 90
        0
176
     1
290
     0
176
     1
 90
        1
176
     1
 40
0.0
176
     1
 90
        0
176
     1
290
     0
176
     1
290
     1
176
     1
290
     1
176
     1
290
     0
176
     1
290
     0
176
     1
290
     0
176
     1
290
     0
176
     1
290
     0
176
     1
290
     0
176
     1
 90
       50
176
     1
 40
0.0
176
     1
 40
1.0
176
     1
 90
        0
176
     1
 62
    18
420
        0
176
     1
 90
       50
176
     1
 90
        3
176
     1
 62
     5
420
      255
176
     1
290
     0
176
     1
 90
       50
176
     1
 90
       50
176
     1
 90
       50
176
     1
290
     0
176
     1
 90
       50
176
     1
 62
   256
176
     0
 40
1.0
176
     0
 90
        2
176
     1
  1
strokes_ogs.tif
176
     1
290
     0
176
     1
 40
1.0
176
     1
 40
1.0
176
     1
  0
VISUALSTYLE
  5
251
102
{ACAD_REACTORS
330
23C
102
}
330
23C
100
AcDbVisualStyle
  2
Sketchy
 70
    24
177
     3
291
     0
 70
    58
 90
        1
176
     1
 90
        2
176
     1
 90
        2
176
     1
 90
        0
176
     1
 40
0.6
176
     1
 40
30.0
176
     1
 62
     7
420
 16777215
176
     1
 90
        2
176
     1
 90
        2
176
     1
 62
     7
176
     1
 62
     7
176
     1
 90
        1
176
     1
 90
        1
176
     1
 40
40.0
176
     1
 90
       11
176
     1
 62
     7
176
     1
 40
1.0
176
     1
 90
        1
176
     1
 90
        6
176
     1
 90
        2
176
     1
 62
     7
176
     1
 90
        6
176
     1
 90
        0
176
     1
 90
        0
176
     1
290
     0
176
     1
 90
        1
176
     1
 40
0.0
176
     1
 90
        0
176
     1
290
     0
176
     1
290
     1
176
     1
290
     1
176
     1
290
     0
176
     1
290
     0
176
     1
290
     0
176
     1
290
     0
176
     1
290
     0
176
     1
290
     0
176
     1
 90
       50
176
     1
 40
0.0
176
     1
 40
1.0
176
     1
 90
        0
176
     1
 62
    18
420
        0
176
     1
 90
       50
176
     1
 90
        3
176
     1
 62
     5
420
      255
176
     1
290
     0
176
     1
 90
       50
176
     1
 90
       50
176
     1
 90
       50
176
     1
290
     0
176
     1
 90
       50
176
     1
 62
   256
176
     0
 40
1.0
176
     0
 90
        2
176
     1
  1
strokes_ogs.tif
176
     1
290
     0
176
     1
 40
1.0
176
     1
 40
1.0
176
     1
  0
VISUALSTYLE
  5
249
102
{ACAD_REACTORS
330
23C
102
}
330
23C
100
AcDbVisualStyle
  2
Thicken
 70
    13
177
     3
291
     1
 70
    58
 90
        2
176
     1
 90
        2
176
     1
 90
        0
176
     1
 90
        0
176
     1
 40
0.6
176
     1
 40
30.0
176
     1
 62
     7
420
 16777215
176
     1
 90
        1
176
     1
 90
        4
176
     1
 62
     7
176
     1
 62
   257
176
     1
 90
        1
176
     1
 90
        1
176
     1
 40
1.0
176
     1
 90
       12
176
     1
 62
     7
176
     1
 40
1.0
176
     1
 90
        1
176
     1
 90
        6
176
     1
 90
        2
176
     1
 62
     7
176
     1
 90
        5
176
     1
 90
        0
176
     1
 90
        0
176
     1
290
     0
176
     1
 90
        1
176
     1
 40
0.0
176
     1
 90
        0
176
     1
290
     0
176
     1
290
     1
176
     1
290
     1
176
     1
290
     0
176
     1
290
     0
176
     1
290
     0
176
     1
290
     0
176
     1
290
     0
176
     1
290
     0
176
     1
 90
       50
176
     1
 40
0.0
176
     1
 40
1.0
176
     1
 90
        0
176
     1
 62
    18
420
        0
176
     1
 90
       50
176
     1
 90
        3
176
     1
 62
     5
420
      255
176
     1
290
     0
176
     1
 90
       50
176
     1
 90
       50
176
     1
 90
       50
176
     1
290
     0
176
     1
 90
       50
176
     1
 62
   256
176
     0
 40
1.0
176
     0
 90
        2
176
     1
  1
strokes_ogs.tif
176
     1
290
     0
176
     1
 40
1.0
176
     1
 40
1.0
176
     1
  0
VISUALSTYLE
  5
242
102
{ACAD_REACTORS
330
23C
102
}
330
23C
100
AcDbVisualStyle
  2
Wireframe
 70
     5
177
     3
291
     0
 70
    58
 90
        0
176
     1
 90
        2
176
     1
 90
        0
176
     1
 90
        0
176
     1
 40
0.6
176
     1
 40
30.0
176
     1
 62
     7
420
 16777215
176
     1
 90
        1
176
     1
 90
        4
176
     1
 62
     7
176
     1
 62
   257
176
     1
 90
        1
176
     1
 90
        1
176
     1
 40
1.0
176
     1
 90
        0
176
     1
 62
   257
176
     1
 40
1.0
176
     1
 90
        1
176
     1
 90
        6
176
     1
 90
        2
176
     1
 62
     7
176
     1
 90
        5
176
     1
 90
        0
176
     1
 90
        0
176
     1
290
     0
176
     1
 90
        1
176
     1
 40
0.0
176
     1
 90
        0
176
     1
290
     0
176
     1
290
     1
176
     1
290
     1
176
     1
290
     0
176
     1
290
     0
176
     1
290
     0
176
     1
290
     0
176
     1
290
     0
176
     1
290
     0
176
     1
 90
       50
176
     1
 40
0.0
176
     1
 40
1.0
176
     1
 90
        0
176
     1
 62
    18
420
        0
176
     1
 90
       50
176
     1
 90
        3
176
     1
 62
     5
420
      255
176
     1
290
     0
176
     1
 90
       50
176
     1
 90
       50
176
     1
 90
       50
176
     1
290
     0
176
     1
 90
       50
176
     1
 62
   256
176
     0
 40
1.0
176
     0
 90
        2
176
     1
  1
strokes_ogs.tif
176
     1
290
     0
176
     1
 40
1.0
176
     1
 40
1.0
176
     1
  0
VISUALSTYLE
  5
252
102
{ACAD_REACTORS
330
23C
102
}
330
23C
100
AcDbVisualStyle
  2
X-Ray
 70
    25
177
     3
291
     0
 70
    58
 90
        2
176
     1
 90
        2
176
     1
 90
        1
176
     1
 90
        1
176
     1
 40
0.5
176
     1
 40
30.0
176
     1
 62
     7
420
 16777215
176
     1
 90
        1
176
     1
 90
        0
176
     1
 62
     7
176
     1
 62
   257
176
     1
 90
        1
176
     1
 90
        1
176
     1
 40
1.0
176
     1
 90
        8
176
     1
 62
     7
176
     1
 40
1.0
176
     1
 90
        1
176
     1
 90
        6
176
     1
 90
        2
176
     1
 62
     7
176
     1
 90
        3
176
     1
 90
        0
176
     1
 90
        0
176
     1
290
     0
176
     1
 90
       13
176
     1
 40
0.0
176
     1
 90
        0
176
     1
290
     0
176
     1
290
     1
176
     1
290
     1
176
     1
290
     0
176
     1
290
     0
176
     1
290
     0
176
     1
290
     0
176
     1
290
     0
176
     1
290
     0
176
     1
 90
       50
176
     1
 40
0.0
176
     1
 40
1.0
176
     1
 90
        0
176
     1
 62
    18
420
        0
176
     1
 90
       50
176
     1
 90
        3
176
     1
 62
     5
420
      255
176
     1
290
     0
176
     1
 90
       50
176
     1
 90
       50
176
     1
 90
       50
176
     1
290
     0
176
     1
 90
       50
176
     1
 62
   256
176
     0
 40
1.0
176
     0
 90
        2
176
     1
  1
strokes_ogs.tif
176
     1
290
     0
176
     1
 40
1.0
176
     1
 40
1.0
176
     1
  0
DICTIONARYVAR
  5
390
102
{ACAD_REACTORS
330
38F
102
}
330
38F
100
DictionaryVariables
280
     0
  1
1:1
  0
DICTIONARYVAR
  5
391
102
{ACAD_REACTORS
330
38F
102
}
330
38F
100
DictionaryVariables
280
     0
  1
Standard
  0
DICTIONARYVAR
  5
392
102
{ACAD_REACTORS
330
38F
102
}
330
38F
100
DictionaryVariables
280
     0
  1
0
  0
ENDSEC
  0
SECTION
  2
THUMBNAILIMAGE
 90
    16364
310
28000000B4000000550000000100080000000000C43B000000000000000000000001000000010000FFFFFF000000FF0000FFFF0000FF0000FFFF0000FF000000FF00FF000000000080808000C0C0C0000000FF007F7FFF000000A5005252A50000007F003F3F7F0000004C0026264C000000260013132600003FFF007F9FFF
310
000029A5005267A500001F7F003F4F7F0000134C00262F4C000009260013172600007FFF007FBFFF000052A500527CA500003F7F003F5F7F0000264C0026394C0000132600131C260000BFFF007FDFFF00007CA5005291A500005F7F003F6F7F0000394C0026424C00001C26001321260000FFFF007FFFFF0000A5A50052A5
310
A500007F7F003F7F7F00004C4C00264C4C00002626001326260000FFBF007FFFDF0000A57C0052A59100007F5F003F7F6F00004C3900264C420000261C001326210000FF7F007FFFBF0000A5520052A57C00007F3F003F7F5F00004C2600264C39000026130013261C0000FF3F007FFF9F0000A5290052A56700007F1F003F
310
7F4F00004C1300264C2F00002609001326170000FF00007FFF7F0000A5000052A55200007F00003F7F3F00004C0000264C260000260000132613003FFF00009FFF7F0029A5000067A552001F7F00004F7F3F00134C00002F4C260009260000172613007FFF0000BFFF7F0052A500007CA552003F7F00005F7F3F00264C0000
310
394C2600132600001C261300BFFF0000DFFF7F007CA5000091A552005F7F00006F7F3F00394C0000424C26001C26000021261300FFFF0000FFFF7F00A5A50000A5A552007F7F00007F7F3F004C4C00004C4C26002626000026261300FFBF0000FFDF7F00A57C0000A59152007F5F00007F6F3F004C3900004C422600261C00
310
0026211300FF7F0000FFBF7F00A5520000A57C52007F3F00007F5F3F004C2600004C39260026130000261C1300FF3F0000FF9F7F00A5290000A56752007F1F00007F4F3F004C1300004C2F26002609000026171300FF000000FF7F7F00A5000000A55252007F0000007F3F3F004C0000004C2626002600000026131300FF00
310
3F00FF7F9F00A5002900A55267007F001F007F3F4F004C0013004C262F002600090026131700FF007F00FF7FBF00A5005200A5527C007F003F007F3F5F004C0026004C2639002600130026131C00FF00BF00FF7FDF00A5007C00A55291007F005F007F3F6F004C0039004C26420026001C0026132100FF00FF00FF7FFF00A5
310
00A500A552A5007F007F007F3F7F004C004C004C264C002600260026132600BF00FF00DF7FFF007C00A5009152A5005F007F006F3F7F0039004C0042264C001C002600211326007F00FF00BF7FFF005200A5007C52A5003F007F005F3F7F0026004C0039264C00130026001C1326003F00FF009F7FFF002900A5006752A500
310
1F007F004F3F7F0013004C002F264C000900260017132600000000002D2D2D005B5B5B0089898900B7B7B700B3B3B30000000000000000000000000000000000000000000000000000000000000000070707070707070707070707070707070707070707070707070707070707070707070707070707070707070707070707
310
07070707070707070707070707070707070707070707070707070707070707070707070707070707070707070707070707070707070707070707070707070707070707070707070000000000000000000000000000000000000000000000000000000000000000000000000000000000000000000000000000000000000000
310
00000000000700000000000000000000000000000000000000000000000000000000000000000000000000000000000000000000000000000000000000000000000000000000000000000000000000000007000000000000000000000000000000000000070007000000000000000000000000000000000000000007000000
310
00000000000000000000000000000000000000000000000000000000000000000000000000000000000000000000000000000000000000000000070000000000000000000000000000000000000000000000000000000000000000000000000000000000000000000000000000000000000000000000000000000000000000
310
00000000000000070707070707070707070707070707070707070707070000000007070707070707070707070700000000070000000000000000000000000000000000000000000000000000000000000000000000000000000000000000000000000000000000000000000000000007000000000000000000000000000000
310
00000000000000000000000000000000000000000000000000000000000000000000000000000000000000000000000000000000000000000000000007070707070707070707070707070707070707070007000000000707070707070707070707070000000007000000000000000000000000000000000000000000000000
310
00000000000000000000000000000000000000000000000000000000000000000000000000070000000000000000000000000000000000000000000000000000000000000000000000000000000000000000000000000000000000000000000000000000000000000000000000000000000707070707070707070707070707
310
07070707070707070707070707070707070707070707070707070707070000000000000000000000000000000000000000000000000000000000000000000000000000000000000000000000000000000000000000000000000007000000000000000000000000000000000000000000000000000000000000000000000000
310
00000000000000000000000000000000000000000000000000000000000000000000000000000007000700000000000000000000000000000000000000000000000000000000000000000000000000000007000000000000000000000000000000000000000000000000000000000000000000000000000000000000000000
310
00000000000000000000000000000000070000000000000000000000000000000000000000000000000000000000000000000000000000000000000000000000000000000000000000000000000000000000000000000000000000000700070000000000000000000000000000000000000000000000000000000000000000
310
00000000000000070000000000000000000000000000000000000000000000000000000000000000000000000000000000000000000000000000000000000000000000000007000000000000000000000000000000000000000000000000000000000000000000000000000000000000000000000000000000000000000000
310
00000000000000000000000000000000000007000700000707070707070707070707070707070707070707070707070707070707070707070700000007000000000000000000000000000000000000000000000000000000000000000000000000000000000000000000000000000000000000000000000000000700000000
310
00000000000000000000000000000000000000000000000000000000000000000000000000000000000000000000000000000000000000000000000000000000000000000000000707070000070707070707070707070707070707070707070707070707070707070707070707070000000700000000000000000000000000
310
00000000000000000000000000000000000000000000000000000000000000000000000000000000000000000000000007000000000000000000000000000000000000000000000000000000000000000000000000000000000000000000000000000000000000000000000000000000000000000000000000000000070707
310
07070707070707070707070707070707070707070707070707070707070707070707070707070707000000000000000000000000000000000000000000000000000000000000000000000000000000000000000000000000000000000000000000000000000700000000000000000000000000000000000000000303030303
310
03030303030303030303030303030303030303000000000000000000000000000000000000000000000000000000000000000707070700070707070707070707070707070707000000000007000000000000000000000000000000000700000000000000000000000000000000000000000000000000000000000000000000
310
00000000000000000000000000000000000000000000000000000007000000000000000000000000000000000000000003000300000000000000000000000000000000000000030300000000000000000000000000000000000000000000000000000000000000070707070707070707070700000000070000000000000000
310
00070000000000000000000000000000000007000000000000000000000000000000000000000000000000000000000000000000000000000000000000000000000000000000000000000000000000000700000000000000000000000000000000000000000300000000000000000003030303000000000000000000030000
310
00000000000000000000000000000000000000000000000000000000000707070700000000000007070707070707070707070707070707000000000000000000000000000007070700000000000000000000000000000000000000000000000000000000000000000000000000000000000000000000000000000000000000
310
00000000000007000000000000000000000000000000000000000003000000000000000000030303030000000000000000000300000000000000000000000000000000000000000000000000000000000000070707070707070707070707070707070707070707070707000700000000000000000000000000000707070000
310
00000000000000000000000000000000000000000000000000000000000000000000000000000000000000000000000000000000000000000000000700000000000000000000000000000000000000000300000000000000000000000000000000000000000000030000000000000000000000000000000000000000000000
310
00000000000000000700000700000000000007000000000700000000000000000007000000000000000000000000000000000700000000000000000000000000000000000000000000000000000000000000000000000000000000000000000000000000000000000000000000000000070000000000000000000000000000
310
00000000000003000000000000000000000000000000000000000000000300000000000000000000000000000000000000000000000000000000000000070707070707070707070707070707070707070707070707070707070707070707070707070707070707070000000000000000000000000000000000000000000000
310
00000000000000000000000000000000000000000000000000000000000000000000000000000700000000000000000000000000000000000000000300000000000000000000000000000000000000000000030000000000000000000000000000000000000000000000000000000000000007000007000000000000000000
310
00000000000000000700000000000007000000070000000000000000000700000000000000000000000000000000000000000000000000000000000000000000000000000000000000000000000000000000000000000000000000070000000000000000000000000000000000000000030000000000000000000000030000
310
00000000000000000300000000000000000000000000000000000000000000000000000000000000070707070707070707070707070707070707070707070707070707070707070707070707070707070707070000000000000000000000000000000000000000000000000000000000000000000000000000000000000000
310
00000000000000000000000000000000000700000000000000000000000000000000000000000707070707070707070707070707070707070707070707070303030303000000000000000000000000000000000000000000000000000000000000000000000000000000000000000000000000000000000000000000000000
310
00000000000000000700000000000000000000000000000000000000000000000000000000000000000000000000000000000000000000000000000000000000000000000000070000000000000000000000000000030303030303070303030307030000000000030000000003070703000007000000030000000000000000
310
00000000000000000000000000000000000000000000000000000000000000000000000000000000000000000000000000000000000000000000000000070000000000000000000000000000000000000000000000000000000000000000000000000000000000000000000000000000000000000000000000000007000000
310
00000000000000000000000003000000000700000000070300000000000300000000030700000000070000000303000000000000000000000000000000000000000000000000000000000000000000000000000000000000000000000000000000000000000000000000000000000000000007000000000000000000000000
310
00000000000000000000000000000000000000000000000000000000000000000000000000000000000000000000000000070000000000000000000000000000000300000000000700000000030000000000030000000007070000000700000000030000000000000000000000000000000000000000000000000000000000
310
00000000070707070707070707070707070707070707070000000000000000000000000000000000070000000000000000000000000000000000000000000000000000000000000000000000000000000000000000000000000000000000000000000000000007000000000000000000000000000000030000000000070000
310
00000707070707070707070707070700000007000000000300000000000000000000000000000000000000000000000000000000000000000007070707070707070707070707070707070707000000000000000000000000000000000007000000000000000000000000000000000000000000000000000000000000000000
310
00000000000000000000000000000000000000000000000000000000070000000000000000000000000000000300000000000700000000070707070707070707070707070000000700000000030000000000000000000000000000000000000000000000000000000000000000000000000000000000000000000000000000
310
00000000000000000000000000000000000000070000000000000000000000000000000000000000000000000000000000000000000000000000000000000000000000000000000000000000000000000007000000000000000000000000000000030000000000070000000003000000000003000000000707000000070000
310
00000300000000000000000000000000000000000000000000000000000000000000000000000000000000000000000000000000000000000000000000000000000000000000000007000000000000000000000000000000000000000000000000000000000000000000000000000000000000000000000000000000000000
310
00000000000000070000000000000000000000000000000300000000000700000000030000000000030000000007070000000700000303030000000000000000000000000000000000000000000000000000000000000000000707070707070707070707070707070707070707070700000000000000000000000000000700
310
00000000000000000000000000000000000000000000000000000000000000000000000000000000000000000000000000000000000000000000000007000000000000000000000000000303030000000000000700000003000000000003000000000707000007000000030303000000000000000000000000000000000000
310
00000000000000000000000000000007070707070707070707070707070707070707070707000000000000000000000000000007000000000000000000000000000000000000000000000000000000000000000000000000000000000000000000000000000000000000000000000000000700000000000000000000000000
310
03030300000000000007000000030000000000030000000007070000070000000303030000000000000000000000000000000000000000000000000000000000000000000000000000000000000000000000000000000000000000000000000000000000000000000700000000000000000000000000000000000000000000
310
00000000000000000000000000000000000000000000000000000000000000000000000000000007000000000000000000000000000303030000000000000700000003000000000003000000000707000007000000000003000000000000000000000000000000000000000000000000000000000000000000070707070707
310
07070707070707070707070707000000000000000000000000000000000007000000000000000000000000000000000000000000000000000000000000000000000000000000000000000000000000000000000000000000000000000700000000000000000000000000000003000000000000070000000300000000000300
310
00000007070000070000000000030000000000000000000000000000000000000000000000000000000000000000000707070707070707070707070707070707070700000000000000000000000000000000000700000000000000000000000000000000000000000000000000000000000000000000000000000000000000
310
00000000000000000000000000000000000007000000000000000000000000000000030000000000000700000003000000000003000000000707000007000000000003000000000000000000000000000000000000000000000000000000000000000000000000000000000000000000000000000000000000000000000000
310
00000000000000000007000000000000000000000000000000000000000000000000000000000000000000000000000000000000000000000000000000000000000000000000000700000000000000000000000000000003000000000000000700000707070707070307070707070700070000000000000300000000000000
310
00000000000000000000000000000000000000000000000000000707070707070707070707070707070707070700000000000000000000000000000000000700000000000000000000000000000000000000000000000000000000000000000000000000000000000000000000000000000000000000000000000000070000
310
00000000000000000000000000030000000000000007000007070707070707070707070707000700000000000003030000000000000000000000000000000000000000000000000000000000000000070707070707070707070707070707070707070000000000000000000000000000000000070000000000000000000000
310
00000000000000000000000000000000000000000000000000000000000000000000000000000000000000000000000000000700000000000000000000000000000003000000000000000707070707070707070707070707070707070303030303030303000000000000000000000000000000000000000000000000000000
310
00000000000000000000000000000000000000000000000000000000000000000000000000000000000700000000000000000000000000000000000000000000000000000000000000000000000000000000000000000000000000000000000000000000000000070000000000000000000000000000000300000000000000
310
00070707070707070707070707070707070000000000000000000000000000000000000000000000000000000000000000000000000000000000000000000000000000000000000000000000000000000000000000000000000000000000070000000000000000000000000000000000000000000000000000000000000000
310
00000000000000000000000000000000000000000000000000000000000700000000000000000000000000000003000000000000000007070707070707070307070707070707000000000000000000000000000000000000000000000000000000000000000000000000000000000000000000000000000000000000000000
310
00000000000000000000000000000000000000000700000000000000000000000000000000000000000000000000000000000000000000000000000000000000000000000000000000000000000000000000070000000000000000000000000000030303030303030303030303030000000000030000000007070000000000
310
00000000000000000000000000000000000000000000000000000000000000000000000000000000000000000000000000000000000000000000000000000000000000000000000000070000000000000000000000000000000000000000000000000000000000000000000000000000000000000000000000000000000000
310
00000000000000000700000000000000000000000000000000000000000000000000000300000000000300000000030000000000000000000000000000000000000000000000000000000000000000000000000000000000000707070707070707070707070707070707070707070707000000000000000000000000000007
310
00000000000000000000000000000000000000000000000000000000000000000000000000000000000000000000000000000000000000000000000000070000000000000000000000000000000000000000000000000000000000000000030000000000000000000000000000000000000000000000000000000000000000
310
00000000000000000000000000000007070707070707070707070707070707070707070707070000000000000000000000000000070000000000000000000000000000000000000000000000000000000000000000000000000000000000000000000000000000000000000000000000000007000000000000000000000000
310
00000000000000000000000000000000000000000000000000000000000000000000000000000000000000000000000000000000000000000000000000000000000000000000000000000000000000000000000000000000000000000000000000000000000000000007000000000000000000000000000000000000000000
310
00000000000000000000000000000000000000000000000000000000000000000000000000000000070000000000000000000000000000000000000000000000000000000000000000000000000000000000000000000000000000000000000000000000000000000000000000000000000000000000000000000000000000
310
00000000000000000000000000000000000000000000000000000000000000070000000000000000000000000000000000000000000000000000000000000000000000000000000000000000000000000000000000000000000000000007000000000000000000000000000000000000000000000000000000000000000000
310
00000000000000000000000000000000000000000000000000000000000000000000000000000000000000000000000000000000000000000000000000000000000000000000000000000000000000000000000007000000000000000000000000000000000000000000000000000000000000000000000000000000000000
310
00000000000000000000000000000000000000070000000000000000000000000000000000000000000000000000000000000000000000000000000000000000000000000000000000000000000000000000000000000000000000000000000000000000000000030000000000030000000000000000000000000000000000
310
00000000000000000000070000000000000000000000000000000000000000000000000000000000000000000000000000000000000000000000000000000000000000000000000007000000000000000000000000000000000000000000000000000000000000000000000000000000000000000000000000000000000000
310
00000000000000000000000000000000000000000000000000000000000303030303030300000000000000000000000000000000000000000000000000000007000000000000000000000000000000000000000000000000000000000000000000000000000000000000000000000000000000000000000000000000000700
310
00000000000000000000000000000000000000000000000000000000000000000000000000000000000000000000000000000000000000000000000000000000000000000000000000000000000000000000030003030303030000000000000000000000000000000000000000000000000000000700000000000000000000
310
00000000000000000000000000000000000000000000000000000000000000000000000000000000000000000000000000000007000000000000000000000000000000000000000000000000000000000000000000000000000000000000000000000000000000000000000000000000000000000000000000000000000000
310
00000000000000000300030303030300000000000000000000000000000000000000000000000000000007000000000000000000000000000000000000000000000000000000000000000000000000000000000000000000000000000000000000000000000000000700000000000000000000000000000000000000000000
310
00000000000000000000000000000000000000000000000000000000000000000000000000000000000000000000000000000000000000000000000000030000000000030000000000000000000000000000000000000000000000000000000700000000000000000000000000000000000000000000000000000000000000
310
00000000000000000000000000000000000000000000000000000000000007000000000000000000000000000000000000000000000000000003030000000000000000030300000000000000000000000000000000000000000000000000000000000000000000000000000000000000000003000300000303000000000000
310
00000000000000000000000000000000000000000007000000000000000000000000000000000000000000000000000000000000000000000000000000000000000000000000000000000000000000000000000700000000000000000000000000000000000000000000000000000303030303030303030303030000000000
310
00000000000000000000000000000000000000000000000000000000000000000000000000000003030303030303030303000000000000000000000000000000000000000000000000000700000000000000000000000000000000000000000000000000000000000000000000000000000000000000000000000000000000
310
00000000000000000007000000000000000000000000000000000000000000000000000003000000030303030000000300000000000000000000000000000000000000000000000000000000000000000000000000000000000000000003000300000303000000000000000000000000000000000000000000000000000000
310
07000000000000000000000000000000000000000000000000000000000000000000000000000000000000000000000000000000000000000000000000000700000000000000000000000000000000000000000000000000000300000003030303000000030000000000000000000000000000000000000000000000000000
310
00000000000000000000000000000000000000030303030303030000000000000000000000000000000000000000000000000000000700000000000000000000000000000000000000000000000000000000000000000000000000000000000000000000000000000000000000000000000000070000000000000000000000
310
00000000000000000000000000000003000000000003000000000300000000000000000000000000000000000000000000000000000000000000000000000000000000000000000003030303030303000000000000000303030303030303030300000000000000000000070000000000000000000000000000000000000000
310
00000000000000000000000000000000000000000000000000000000000000000000000000000000000700000000000000000000000000000000000000000707070707070307070707070307070707030707070707030303030303030303030303000000000000000000000000000000000000000000000000000000000300
310
03030003030000000000000300070707070707070707000000000000000000000700000000000000000000000000000000000000000000000000000000000000000000000000000000000000000000000000000000000000000000000000070000000000000000000000000000000000000000070700000000030000000000
310
03000000000300000000070700000000000000000003030000000000000000030303030303030303030303030303030307070703070303070303070707070000030007070707070707070700000000000000000000070000000000000000000000000000000000000000000000000000000000000000000000000000000000
310
00000000000000000000000000000000000000000700000000000000000000000000000000000000000700070000000300000000000300000000030000000700070000000000000000000003000000000000000000030300000303030303030303030303030303000300030300030300030303000300000000000000000000
310
00000000000000000000000700000000000000000000000000000000000000000000000000000000000000000000000000000000000000000000000000000000000000000000000000070000000000000000000000000000000000000000070000070707030707070707070707070703070703030303030303030303030000
310
00030000000000000000000300000000030000000000000000000700030003000303000303000003070300000000000000000000000000000000000000000000070000000000000000000000000000000000000000000000000000000000000000000000000000000000000000000000000000000000000000000000000007
310
00000000000000000000000000000000000000000700000707070307070707070707070707030707070000070000000000030000000003000000000000000000030000000003000003030303030303030303030307030300030307070003000000000000000000000000000000000000000000000007000000000000000000
310
00000000000000000000000000000000000000000000000000000000000000000000000000000000000000000000000000000000070000000000000000000000000000000303030303030303030303030000000000030000000003030707000007000000000003000000000300000000000000000003000000000300000003
310
03000000000700000703030703000703000700070000000000000000000000000000000000000000000000070000000000000000000000000000000000000000000000000000000000000000000000000000000000000000000000000000000000000000000000000007000000000000000000000000000000000300000007
310
00000707000300000000000300000000030007070000070000000000030000000003000000000000000000030000000003000000030000000000070000070000070707070000070007000000000000000000000000000000000000000000000007000000000000000000000000000000000000000000000000000000000000
310
00000000000000000000000000000000000000000000000000000000000000070000000000000000000000000000000303000000070000070700000000000000030000000000000707000007000000000003000000000300000000000000030303000003030300030303000000000007000007000007030007000007000700
310
00000000000000000000000000000000000000000000070000000000000000000000000000000000000000000000000000000000000000000000000000000000000000000000000000000000000000000000000007000000000000000000000000000000000300000007000007070000000303000003000303000000070700
310
00070000000000030000000003000000000000000303030000030303000303030000000003070303070303070303070303070307030003030303030303030303030303030303030300000007000000000000000000000000000000000000000000000000000000000000000000000000000000000000000000000000000000
310
00000000000000000000070000000000000000000000000000000003000000070000070700000000030000030003000000000707000007000000000003000000000300000000000000030303000003030300030303000000000007000007000007070707000007000703030000070707070707070707070707070700000000
310
00070000000000000000000000000000000000000000000000000000000000000000000000000000000000000000000000000000000000000000000000000007000000000000000000000000000000000300000007000007070000000000000003000000000000070700000700000003030300030303030000000000000000
310
00030000000003000000030000000000070000070300070300070303070307000000000707070707070707070707070707000000000007000000000000000000000000000000000000000000000000000000000000000000000000000000000000000000000000000000000000000000000000000700000000000000000000
310
00000000030303000303030303070303030303030303030303030303030307030303030300030303000303030300000000000000000003000000000300000003030000000007000007030307030007070307030303000000000000000000000000000000000000000000000700000000000000000000000000000000000000
310
00000000000000000000000000000000000000000000000000000000000000000000000000000000000007000000000000000000000000000003030300000007000007070000000000000003000000000000070700000700000003030300030303030000000000000000000300000000030000030303030303030303030307
310
07070300070707070007000303030303030303030303030303030303030300000007000000000000000000000000000000000000000000000000000000000000000000000000000000000000000000000000000000000000000000000000000700000000000000000000000000000303030000000700000707000000000000
310
00030000000000000707000007000000000003000000000300000000000000000003000000000300000000000000000007000300000000030000000000030700000000000000000000000000000000000000000000000700000000000000000000000000000000000000000000000000000000000000000000000000000000
310
00000000000000000000000000000000000000000007000000000000000000000000000000000300000007000007070000000303000003000703000000070700000700000000000300000000030000000000000000000303000003030303030303030303030303030000000003000000000303030000000007070707070707
310
07070707070707070000000007000000000000000000000000000000000000000000000000000000000000000000000000000000000000000000000000000000000000000000000000000700000000000000000000000000000003030000000700000707000000000000000300000000000007070000070000000000030000
310
00000300000000000000000303030303030303030303030303030303070307070707030707070707030303030000070707070707070707070707070707000000000700000000000000000000000000000000000000000000000000000000000000000000000000000000000000000000000000000000000000000000000000
310
07000000000000000000000000000000030300000007000007070003000000000003000000000300070700000700000000000300000000030000000000000000000000000000000000000000000000000300030000000000000000000003030000030300000000000000000000000000000000000000070000000000000000
310
00000000000000000000000000000000000000000000000000000000000000000000000000000000000000000000000000000000000700000000000000000000000000000003030303030303030303030700000000000300000000030307070000070000000000030000000003000000000000000000000000000000000000
310
00000000000003000300000000000000000000030300000000030303030303030303030303030303030000000700000000000000000000000000000000000000000000000000000000000000000000000000000000000000000000000000000000000000000000000000070000000000000000000000000000000000000000
310
07000007070707070707070703070707070707070700000700000000000300000000030000000000000000000000000000000000000000000000000300030000000000000000000003030000000000000000000000000000000000000000000000070000000000000000000000000000000000000000000000000000000000
310
00000000000000000000000000000000000000000000000000000000000000000700000000000000000000000000000000000000000700000700000000000000000300000000000000070000070000000000030000000003000000000000000000000000000000000000000000000000030003030303030303030303030303
310
00000000070707070707070707070707070700000000000700000000000000000000000000000000000000000000000000000000000000000000000000000000000000000000000000000000000000000000000000070000000000000000000000000000000000000000070000070707070707070707070707070707070703
310
03030303030303030303000000030000000000000000000000000000000000000000000000000300030300000000000000000303030000000007070707070707070707070707070000000000070000000000000000000000000000000000000000000000000000000000000000000000000000000000000000000000000000
310
00000000000000000000000700000000000000000000000000000000000000000700070000000000000000000300000000000000000700070000000000000000000303000000000000000000000000000000000000000000000000030000000000030303030000000003000000000000000000000000000000000000000000
310
00000700000000000000000000000000000000000000000000000000000000000000000000000000000000000000000000000000000000000000000000000000070000000000000000000000000000000000000000070700000000000000000000030000000000000000000707000000000000000000030300000000000000
310
00000000000000000000000000000000000300000000000303030300000000030000000000000000000000000000000000000000000000070000000000000000000000000000000000000000000000000000000000000000000000000000000000000000000000000000000000000000000000000007000000000000000000
310
00000000000000000000000707070707070707070707070307070707070707070707030303030303030303030303000000000000000000000000000000000000000000000000030000000000000000000000000003000000000000000000000000000000000000000000000007000000000000000000000000000000000000
310
00000000000000000000000000000000000000000000000000000000000000000000000000000000000000070000000000000000000000000000000000000000000000000000000000000000030000000000000000000000000000000000000000000000000000000000000000000000000000000000000000000003030303
310
03030303030303030303030000000000000000000000000000000000000000000000070000000000000000000000000000000000000000000000000000000000000000000000000000000000000000000000000000000000000000000000000007000000000000000000000000000000000000000000000000000000000000
310
00000000000000000000000000000000000000000000000000000000000000000000000000000000000000000000000000030000000000030303030000000003000000000000000000000000000000000000000000000007000000000000000000000000000000000000000000000000000000000000000000000000000000
310
00000000000000000000000000000000000000000000070000000000000000000000000000000000000000000000000000000000000000000000000000000000000000000000000000000000000000000000000000000000000000000000000000000000000000000000000003030303000000000000000000000000000000
310
00000000000000000000000000070000000000000000000000000000000000000000000000000000000000000000000000000000000000000000000000000000000000000000000000000007000000000000000000000000000000000000000000000000000000000000000000000000000000000000000000000000000000
310
00000000000000000000000000000000000000000000000000000000000000000000000000000000000000000000000000000000000000000000000000000000000007000000000000000000000000000000000000000000000000000000000000000000000000000000000000000000000000000000000000000000000000
310
00070000000000000000000000000000000000000000000000000000000000000000000000000000000000000000000000000000000000000000000000000000000000000000000000000000000000000000000000000000000000000000000000000000000000000000000000000000000000000000000700000000000000
310
00000000000000000000000000000000000000000000000000000000000000000000000000000000000000000000000000000000000007000000000000000000000000000000000000000000000000000000000000000000000000000000000000000000000000000000000000000000000000000000000000000000000000
310
00000000000000000000000000000000000000000000000000000000000000000000000000000000000000000007000000000000000000000000000000000000000000000000000000000000000000000000000000000000000000000000000000000000000000000000000700000000000000000000000000000000000000
310
00000000000000000000000000000000000000000000000000000000000000000000000000000000000000000000000000000000000000000000000000000000000000000000000000000000000000000000000000000000000000000000000000000700000000000000000000000000000000000000000000000000000000
310
00000000000000000000000000000000000000000000000000000000000000000007070707070707070707070707070707070707070707070707070707070707070707070707070707070707070707070707070707070707070707070707070707070707070707070707070707070707070707070707070707070707070707
310
07070707070707070707070707070707070707070707070707000000000000000000000000000000000000000000000000000000000000000000000000000000000000000000000000000000000000000000000000000000000000000000000000000000000000000000000000000000000000000000000000000000000000
310
000000000000000000000000000000000000000000000000000000000000000000000000000000000000000000000000000000000000000000000000000000000000000000000000000000000000000000000000000000000000000000000000000000000000000000000000
  0
ENDSEC
  0
EOF
