  0
SECTION
  2
HEADER
  9
$ACADVER
  1
AC1014
  9
$ACADMAINTVER
 70
         0
  9
$DWGCODEPAGE
  3
ANSI_932
  9
$INSBASE
 10
0.0
 20
0.0
 30
0.0
  9
$EXTMIN
 10
1.0000000000E+20
 20
1.0000000000E+20
 30
1.0000000000E+20
  9
$EXTMAX
 10
-1.0000000000E+20
 20
-1.0000000000E+20
 30
-1.0000000000E+20
  9
$LIMMIN
 10
0.0
 20
0.0
  9
$LIMMAX
 10
0.0
 20
0.0
  9
$ORTHOMODE
 70
         0
  9
$REGENMODE
 70
         1
  9
$FILLMODE
 70
         1
  9
$QTEXTMODE
 70
         0
  9
$MIRRTEXT
 70
         1
  9
$DRAGMODE
 70
         2
  9
$LTSCALE
 40
1.0
  9
$OSMODE
 70
         0
  9
$ATTMODE
 70
         1
  9
$TEXTSIZE
 40
0.2
  9
$TRACEWID
 40
0.05
  9
$TEXTSTYLE
  7
STANDARD
  9
$CLAYER
  8
0
  9
$CELTYPE
  6
CONTINUOUS
  9
$CECOLOR
 62
       256
  9
$CELTSCALE
 40
1.0
  9
$DELOBJ
 70
         1
  9
$DISPSILH
 70
         0
  9
$DIMSCALE
 40
1.0
  9
$DIMASZ
 40
0.18
  9
$DIMEXO
 40
0.0625
  9
$DIMDLI
 40
0.38
  9
$DIMRND
 40
0.0
  9
$DIMDLE
 40
0.0
  9
$DIMEXE
 40
0.18
  9
$DIMTP
 40
0.0
  9
$DIMTM
 40
0.0
  9
$DIMTXT
 40
0.18
  9
$DIMCEN
 40
0.09
  9
$DIMTSZ
 40
0.0
  9
$DIMTOL
 70
         0
  9
$DIMLIM
 70
         0
  9
$DIMTIH
 70
         1
  9
$DIMTOH
 70
         1
  9
$DIMSE1
 70
         0
  9
$DIMSE2
 70
         0
  9
$DIMTAD
 70
         0
  9
$DIMZIN
 70
         0
  9
$DIMBLK
  1

  9
$DIMASO
 70
         1
  9
$DIMSHO
 70
         1
  9
$DIMPOST
  1

  9
$DIMAPOST
  1

  9
$DIMALT
 70
         0
  9
$DIMALTD
 70
         2
  9
$DIMALTF
 40
25.4
  9
$DIMLFAC
 40
1.0
  9
$DIMTOFL
 70
         0
  9
$DIMTVP
 40
0.0
  9
$DIMTIX
 70
         0
  9
$DIMSOXD
 70
         0
  9
$DIMSAH
 70
         0
  9
$DIMBLK1
  1

  9
$DIMBLK2
  1

  9
$DIMSTYLE
  2
STANDARD
  9
$DIMCLRD
 70
         0
  9
$DIMCLRE
 70
         0
  9
$DIMCLRT
 70
         0
  9
$DIMTFAC
 40
1.0
  9
$DIMGAP
 40
0.09
  9
$DIMJUST
 70
         0
  9
$DIMSD1
 70
         0
  9
$DIMSD2
 70
         0
  9
$DIMTOLJ
 70
         1
  9
$DIMTZIN
 70
         0
  9
$DIMALTZ
 70
         0
  9
$DIMALTTZ
 70
         0
  9
$DIMFIT
 70
         3
  9
$DIMUPT
 70
         0
  9
$DIMUNIT
 70
         2
  9
$DIMDEC
 70
         4
  9
$DIMTDEC
 70
         4
  9
$DIMALTU
 70
         2
  9
$DIMALTTD
 70
         2
  9
$DIMTXSTY
  7
STANDARD
  9
$DIMAUNIT
 70
         0
  9
$LUNITS
 70
         2
  9
$LUPREC
 70
         4
  9
$SKETCHINC
 40
0.1
  9
$FILLETRAD
 40
0.0
  9
$AUNITS
 70
         0
  9
$AUPREC
 70
         0
  9
$MENU
  1
acad
  9
$ELEVATION
 40
0.0
  9
$PELEVATION
 40
0.0
  9
$THICKNESS
 40
0.0
  9
$LIMCHECK
 70
         0
  9
$BLIPMODE
 70
         1
  9
$CHAMFERA
 40
0.0
  9
$CHAMFERB
 40
0.0
  9
$CHAMFERC
 40
0.0
  9
$CHAMFERD
 40
0.0
  9
$SKPOLY
 70
         0
  9
$TDCREATE
 40
0.000000000
  9
$TDUPDATE
 40
0.000000000
  9
$TDINDWG
 40
0.0000000000
  9
$TDUSRTIMER
 40
0.0000000000
  9
$USRTIMER
 70
         1
  9
$ANGBASE
 50
0.0
  9
$ANGDIR
 70
         0
  9
$PDMODE
 70
         3
  9
$PDSIZE
 40
-1.0
  9
$PLINEWID
 40
0.0
  9
$COORDS
 70
         0
  9
$SPLFRAME
 70
         0
  9
$SPLINETYPE
 70
         6
  9
$SPLINESEGS
 70
         8
  9
$ATTDIA
 70
         0
  9
$ATTREQ
 70
         1
  9
$HANDLING
 70
         1
  9
$HANDSEED
  5
599
  9
$SURFTAB1
 70
         6
  9
$SURFTAB2
 70
         6
  9
$SURFTYPE
 70
         6
  9
$SURFU
 70
         6
  9
$SURFV
 70
         6
  9
$UCSNAME
  2

  9
$UCSORG
 10
0.0
 20
0.0
 30
0.0
  9
$UCSXDIR
 10
1.0
 20
0.0
 30
0.0
  9
$UCSYDIR
 10
0.0
 20
1.0
 30
0.0
  9
$PUCSNAME
  2

  9
$PUCSORG
 10
0.0
 20
0.0
 30
0.0
  9
$PUCSXDIR
 10
1.0
 20
0.0
 30
0.0
  9
$PUCSYDIR
 10
0.0
 20
1.0
 30
0.0
  9
$USERI1
 70
         0
  9
$USERI2
 70
         0
  9
$USERI3
 70
         0
  9
$USERI4
 70
         0
  9
$USERI5
 70
         0
  9
$USERR1
 40
0.0
  9
$USERR2
 40
0.0
  9
$USERR3
 40
0.0
  9
$USERR4
 40
0.0
  9
$USERR5
 40
0.0
  9
$WORLDVIEW
 70
         1
  9
$SHADEDGE
 70
         3
  9
$SHADEDIF
 70
        70
  9
$TILEMODE
 70
         1
  9
$MAXACTVP
 70
        16
  9
$PINSBASE
 10
0.0
 20
0.0
 30
0.0
  9
$PLIMCHECK
 70
         0
  9
$PEXTMIN
 10
1.0000000000E+20
 20
1.0000000000E+20
 30
1.0000000000E+20
  9
$PEXTMAX
 10
-1.0000000000E+20
 20
-1.0000000000E+20
 30
-1.0000000000E+20
  9
$PLIMMIN
 10
0.0
 20
0.0
  9
$PLIMMAX
 10
12.0
 20
9.0
  9
$UNITMODE
 70
         0
  9
$VISRETAIN
 70
         0
  9
$PLINEGEN
 70
         1
  9
$PSLTSCALE
 70
         0
  9
$TREEDEPTH
 70
      3020
  9
$PICKSTYLE
 70
         1
  9
$CMLSTYLE
  2
STANDARD
  9
$CMLJUST
 70
         0
  9
$CMLSCALE
 40
1.0
  9
$PROXYGRAPHICS
 70
         0
  9
$MEASUREMENT
 70
         0
  0
ENDSEC
  0
SECTION
  2
CLASSES
  0
CLASS
  1
LWPOLYLINE
  2
AcDbPolyline
  3
"AutoCAD"
 90
        0
280
         0
281
         1
  0
CLASS
  1
IMAGE
  2
AcDbRasterImage
  3
ISM
 90
      127
280
         0
281
         1
  0
CLASS
  1
OLE2FRAME
  2
AcDbOle2Frame
  3
""
 90
        0
280
         0
281
         1
  0
CLASS
  1
HATCH
  2
AcDbHatch
  3
"ACAD_SEDONA"
 90
        0
280
         0
281
         1
  0
CLASS
  1
DICTIONARYVAR
  2
AcDbDictionaryVar
  3
"AutoCAD"
 90
        0
280
         0
281
         0
  0
CLASS
  1
RASTERVARIABLES
  2
AcDbRasterVariables
  3
ISM
 90
        0
280
         0
281
         0
  0
CLASS
  1
IMAGEDEF
  2
AcDbRasterImageDef
  3
ISM
 90
        0
280
         0
281
         0
  0
CLASS
  1
IMAGEDEF_REACTOR
  2
AcDbRasterImageDefReactor
  3
ISM
 90
        1
280
         0
281
         0
  0
CLASS
  1
IDBUFFER
  2
AcDbIdBuffer
  3
"Acad"
 90
        0
280
         0
281
         0
  0
CLASS
  1
SPATIAL_FILTER
  2
AcDbSpatialFilter
  3
"Acad"
 90
        0
280
         0
281
         0
  0
CLASS
  1
XRECORD
  2
AcDbXrecord
  3
"<Built In>"
 90
        0
280
         0
281
         0
  0
CLASS
  1
SORTENTSTABLE
  2
AcDbSortentsTable
  3
"AutoCAD"
 90
        0
280
         0
281
         0
  0
CLASS
  1
LAYER_INDEX
  2
AcDbLayerIndex
  3
"Acad"
 90
        0
280
         0
281
         0
  0
CLASS
  1
SPATIAL_INDEX
  2
AcDbSpatialIndex
  3
"Acad"
 90
        0
280
         0
281
         0
  0
CLASS
  1
OBJECT_PTR
  2
CAseDLPNTableRecord
  3
"ASE-LPNTableRecord"
 90
        1
280
         0
281
         0
  0
CLASS
  1
LAYOUT
  2
AcDbLayout
  3
"AutoCAD 2000"
 90
        1
280
         0
281
         0
  0
CLASS
  1
PLOTSETTINGS
  2
AcDbPlotSettings
  3
"AutoCAD 2000"
 90
        1
280
         0
281
         0
  0
CLASS
  1
ACDBDICTIONARYWDFLT
  2
AcDbDictionaryWithDefault
  3
"AutoCAD 2000"
 90
        1
280
         0
281
         0
  0
CLASS
  1
ACDBPLACEHOLDER
  2
AcDbPlaceHolder
  3
"AutoCAD 2000"
 90
        1
280
         0
281
         0
  0
CLASS
  1
VBA_PROJECT
  2
AcDbVbaProject
  3
"acadvba"
 90
        1
280
         0
281
         0
  0
CLASS
  1
WIPEOUT
  2
AcDbWipeout
  3
WipeOut|AutoCAD Express Tool|expresstools@autodesk.com
 90
      127
280
         0
281
         1
  0
CLASS
  1
WIPEOUTVARIABLES
  2
AcDbWipeoutVariables
  3
WipeOut|AutoCAD Express Tool|expresstools@autodesk.com
 90
        0
280
         0
281
         0
  0
CLASS
  1
RTEXT
  2
RText
  3
RText|AutoCAD Express Tool|expresstools@autodesk.com
 90
        0
280
         0
281
         1
  0
CLASS
  1
ARCALIGNEDTEXT
  2
AcDbArcAlignedText
  3
ATEXT|AutoCAD Express Tool|expresstools@autodesk.com
 90
        0
280
         0
281
         1
  0
ENDSEC
  0
SECTION
  2
TABLES
  0
TABLE
  2
VPORT
  5
7
100
AcDbSymbolTable
 70
         1
  0
VPORT
  5
15
100
AcDbSymbolTableRecord
100
AcDbViewportTableRecord
  2
*ACTIVE
 70
         0
 10
0.0
 20
0.0
 11
1.0
 21
1.0
 12
6.591288
 22
4.579184
 13
0.0
 23
0.0
 14
1.0
 24
1.0
 15
0.0
 25
0.0
 16
0.0
 26
0.0
 36
1.0
 17
0.0
 27
0.0
 37
0.0
 40
9.158369
 41
0.688564
 42
50.0
 43
0.0
 44
0.0
 50
0.0
 51
0.0
 71
         0
 72
       100
 73
         1
 74
         1
 75
         0
 76
         0
 77
         0
 78
         0
  0
ENDTAB
  0
TABLE
  2
LTYPE
  5
4
100
AcDbSymbolTable
 70
        13
  0
LTYPE
  5
11
100
AcDbSymbolTableRecord
100
AcDbLinetypeTableRecord
  2
BYBLOCK
 70
        64
  3

 72
        65
 73
         0
 40
0.0
  0
LTYPE
  5
12
100
AcDbSymbolTableRecord
100
AcDbLinetypeTableRecord
  2
BYLAYER
 70
        64
  3

 72
        65
 73
         0
 40
0.0
  0
LTYPE
  5
13
100
AcDbSymbolTableRecord
100
AcDbLinetypeTableRecord
  2
CONTINUOUS
 70
        64
  3
Solid line
 72
        65
 73
         0
 40
0.0
  0
LTYPE
  5
1D
100
AcDbSymbolTableRecord
100
AcDbLinetypeTableRecord
  2
DOT
 70
        64
  3
. . . . . . . . 
 72
        65
 73
         2
 40
1.0
 49
0.0
 74
         0
 49
-1.0
 74
         0
  0
LTYPE
  5
1E
100
AcDbSymbolTableRecord
100
AcDbLinetypeTableRecord
  2
DASHED
 70
        64
  3
___  ___  ___  ___  
 72
        65
 73
         2
 40
4.0
 49
3.0
 74
         0
 49
-1.0
 74
         0
  0
LTYPE
  5
1F
100
AcDbSymbolTableRecord
100
AcDbLinetypeTableRecord
  2
HIDDEN
 70
        64
  3
__ __ __ __ 
 72
        65
 73
         2
 40
3.0
 49
2.0
 74
         0
 49
-1.0
 74
         0
  0
LTYPE
  5
20
100
AcDbSymbolTableRecord
100
AcDbLinetypeTableRecord
  2
STITCH
 70
        64
  3
_ _ _ _ 
 72
        65
 73
         2
 40
2.0
 49
1.0
 74
         0
 49
-1.0
 74
         0
  0
LTYPE
  5
21
100
AcDbSymbolTableRecord
100
AcDbLinetypeTableRecord
  2
CENTER
 70
        64
  3
______  __  ______  __  
 72
        65
 73
         4
 40
43.0
 49
40.0
 74
         0
 49
-1.0
 74
         0
 49
1.0
 74
         0
 49
-1.0
 74
         0
  0
LTYPE
  5
22
100
AcDbSymbolTableRecord
100
AcDbLinetypeTableRecord
  2
DASHDOT
 70
        64
  3
____ . ____ . 
 72
        65
 73
         4
 40
32.0
 49
30.0
 74
         0
 49
-1.0
 74
         0
 49
0.0
 74
         0
 49
-1.0
 74
         0
  0
LTYPE
  5
23
100
AcDbSymbolTableRecord
100
AcDbLinetypeTableRecord
  2
BORDER
 70
        64
  3
__ . __ . 
 72
        65
 73
         4
 40
22.0
 49
20.0
 74
         0
 49
-1.0
 74
         0
 49
0.0
 74
         0
 49
-1.0
 74
         0
  0
LTYPE
  5
24
100
AcDbSymbolTableRecord
100
AcDbLinetypeTableRecord
  2
CUTTING
 70
        64
  3
________   ___   ___   
 72
        65
 73
         6
 40
45.0
 49
40.0
 74
         0
 49
-1.0
 74
         0
 49
1.0
 74
         0
 49
-1.0
 74
         0
 49
1.0
 74
         0
 49
-1.0
 74
         0
  0
LTYPE
  5
25
100
AcDbSymbolTableRecord
100
AcDbLinetypeTableRecord
  2
PHANTOM
 70
        64
  3
______  __  __  
 72
        65
 73
         6
 40
35.0
 49
30.0
 74
         0
 49
-1.0
 74
         0
 49
1.0
 74
         0
 49
-1.0
 74
         0
 49
1.0
 74
         0
 49
-1.0
 74
         0
  0
LTYPE
  5
26
100
AcDbSymbolTableRecord
100
AcDbLinetypeTableRecord
  2
DIVIDE
 70
        64
  3
____ . . ____ . . 
 72
        65
 73
         6
 40
23.0
 49
20.0
 74
         0
 49
-1.0
 74
         0
 49
0.0
 74
         0
 49
-1.0
 74
         0
 49
0.0
 74
         0
 49
-1.0
 74
         0
  0
ENDTAB
  0
TABLE
  2
LAYER
  5
2
100
AcDbSymbolTable
 70
         3
  0
LAYER
  5
14
100
AcDbSymbolTableRecord
100
AcDbLayerTableRecord
  2
0
 70
         0
 62
         7
  6
CONTINUOUS
  0
LAYER
  5
27
100
AcDbSymbolTableRecord
100
AcDbLayerTableRecord
  2
ﾚｲﾔｰ1
 70
         0
 62
         7
  6
CONTINUOUS
  0
LAYER
  5
49E
100
AcDbSymbolTableRecord
100
AcDbLayerTableRecord
  2
寸法線
 70
         0
 62
         7
  6
CONTINUOUS
  0
ENDTAB
  0
TABLE
  2
STYLE
  5
3
100
AcDbSymbolTable
 70
         1
  0
STYLE
  5
17
100
AcDbSymbolTableRecord
100
AcDbTextStyleTableRecord
  2
STANDARD
 70
         0
 40
0.0
 41
1.0
 50
0.0
 71
         0
 42
0.0
  3
txt
  4
extfont
  0
ENDTAB
  0
TABLE
  2
VIEW
  5
5
100
AcDbSymbolTable
 70
         0
  0
ENDTAB
  0
TABLE
  2
UCS
  5
6
100
AcDbSymbolTable
 70
         0
  0
ENDTAB
  0
TABLE
  2
APPID
  5
8
100
AcDbSymbolTable
 70
         1
  0
APPID
  5
16
100
AcDbSymbolTableRecord
100
AcDbRegAppTableRecord
  2
ACAD
 70
         0
  0
ENDTAB
  0
TABLE
  2
DIMSTYLE
  5
9
100
AcDbSymbolTable
 70
         2
  0
DIMSTYLE
105
18
100
AcDbSymbolTableRecord
100
AcDbDimStyleTableRecord
  2
STANDARD
 70
         0
  3

  4

  5

  6

  7

 40
1.0
 41
0.18
 42
0.0625
 43
0.38
 44
0.18
 45
0.0
 46
0.0
 47
0.0
 48
0.0
 71
         0
 72
         0
 73
         1
 74
         1
 75
         0
 76
         0
 77
         0
 78
         0
140
0.18
141
0.09
142
0.0
143
25.4
144
1.0
145
0.0
146
1.0
147
0.09
170
         0
171
         2
172
         0
173
         0
174
         0
175
         0
176
         0
177
         0
178
         0
270
         2
271
         4
272
         4
273
         2
274
         2
275
         0
280
         0
281
         0
282
         0
283
         1
284
         0
285
         0
286
         0
287
         0
288
         0
340
17
  0
DIMSTYLE
105
48D
100
AcDbSymbolTableRecord
100
AcDbDimStyleTableRecord
  2
VELDIM0
 70
         0
  3

  4

  5

  6

  7

 40
1.0
 41
6.2459998131
 42
0.0625
 43
0.38
 44
6.0
 45
0.0
 46
15.0
 47
0.0
 48
0.0
 71
         0
 72
         0
 73
         0
 74
         0
 75
         0
 76
         0
 77
         0
 78
         8
140
9.6586836815
141
0.09
142
0.0
143
25.4
144
1.0
145
0.0
146
1.0
147
0.09
170
         0
171
         2
172
         0
173
         0
174
         0
175
         0
176
         0
177
         0
178
         0
270
         2
271
         3
272
         4
273
         2
274
         2
275
         0
280
         0
281
         0
282
         0
283
         1
284
         0
285
         0
286
         0
287
         3
288
         0
340
17
  0
ENDTAB
  0
TABLE
  2
BLOCK_RECORD
  5
1
100
AcDbSymbolTable
 70
       114
  0
BLOCK_RECORD
  5
A
100
AcDbSymbolTableRecord
100
AcDbBlockTableRecord
  2
*MODEL_SPACE
  0
BLOCK_RECORD
  5
B
100
AcDbSymbolTableRecord
100
AcDbBlockTableRecord
  2
*PAPER_SPACE
  0
BLOCK_RECORD
  5
2D
100
AcDbSymbolTableRecord
100
AcDbBlockTableRecord
  2
CLUMP0
  0
BLOCK_RECORD
  5
30
100
AcDbSymbolTableRecord
100
AcDbBlockTableRecord
  2
CLUMP1
  0
BLOCK_RECORD
  5
6F
100
AcDbSymbolTableRecord
100
AcDbBlockTableRecord
  2
CLUMP2
  0
BLOCK_RECORD
  5
72
100
AcDbSymbolTableRecord
100
AcDbBlockTableRecord
  2
CLUMP3
  0
BLOCK_RECORD
  5
7B
100
AcDbSymbolTableRecord
100
AcDbBlockTableRecord
  2
CLUMP4
  0
BLOCK_RECORD
  5
7E
100
AcDbSymbolTableRecord
100
AcDbBlockTableRecord
  2
CLUMP5
  0
BLOCK_RECORD
  5
AB
100
AcDbSymbolTableRecord
100
AcDbBlockTableRecord
  2
CLUMP6
  0
BLOCK_RECORD
  5
AE
100
AcDbSymbolTableRecord
100
AcDbBlockTableRecord
  2
CLUMP7
  0
BLOCK_RECORD
  5
BF
100
AcDbSymbolTableRecord
100
AcDbBlockTableRecord
  2
CLUMP8
  0
BLOCK_RECORD
  5
C2
100
AcDbSymbolTableRecord
100
AcDbBlockTableRecord
  2
CLUMP9
  0
BLOCK_RECORD
  5
C5
100
AcDbSymbolTableRecord
100
AcDbBlockTableRecord
  2
CLUMP10
  0
BLOCK_RECORD
  5
C8
100
AcDbSymbolTableRecord
100
AcDbBlockTableRecord
  2
CLUMP11
  0
BLOCK_RECORD
  5
D5
100
AcDbSymbolTableRecord
100
AcDbBlockTableRecord
  2
CLUMP12
  0
BLOCK_RECORD
  5
D8
100
AcDbSymbolTableRecord
100
AcDbBlockTableRecord
  2
CLUMP13
  0
BLOCK_RECORD
  5
F0
100
AcDbSymbolTableRecord
100
AcDbBlockTableRecord
  2
CLUMP14
  0
BLOCK_RECORD
  5
F3
100
AcDbSymbolTableRecord
100
AcDbBlockTableRecord
  2
CLUMP15
  0
BLOCK_RECORD
  5
109
100
AcDbSymbolTableRecord
100
AcDbBlockTableRecord
  2
CLUMP16
  0
BLOCK_RECORD
  5
10C
100
AcDbSymbolTableRecord
100
AcDbBlockTableRecord
  2
CLUMP17
  0
BLOCK_RECORD
  5
125
100
AcDbSymbolTableRecord
100
AcDbBlockTableRecord
  2
CLUMP18
  0
BLOCK_RECORD
  5
128
100
AcDbSymbolTableRecord
100
AcDbBlockTableRecord
  2
CLUMP19
  0
BLOCK_RECORD
  5
144
100
AcDbSymbolTableRecord
100
AcDbBlockTableRecord
  2
CLUMP20
  0
BLOCK_RECORD
  5
147
100
AcDbSymbolTableRecord
100
AcDbBlockTableRecord
  2
CLUMP21
  0
BLOCK_RECORD
  5
15C
100
AcDbSymbolTableRecord
100
AcDbBlockTableRecord
  2
CLUMP22
  0
BLOCK_RECORD
  5
15F
100
AcDbSymbolTableRecord
100
AcDbBlockTableRecord
  2
CLUMP23
  0
BLOCK_RECORD
  5
168
100
AcDbSymbolTableRecord
100
AcDbBlockTableRecord
  2
CLUMP24
  0
BLOCK_RECORD
  5
16B
100
AcDbSymbolTableRecord
100
AcDbBlockTableRecord
  2
CLUMP25
  0
BLOCK_RECORD
  5
181
100
AcDbSymbolTableRecord
100
AcDbBlockTableRecord
  2
CLUMP26
  0
BLOCK_RECORD
  5
184
100
AcDbSymbolTableRecord
100
AcDbBlockTableRecord
  2
CLUMP27
  0
BLOCK_RECORD
  5
18E
100
AcDbSymbolTableRecord
100
AcDbBlockTableRecord
  2
CLUMP28
  0
BLOCK_RECORD
  5
191
100
AcDbSymbolTableRecord
100
AcDbBlockTableRecord
  2
CLUMP29
  0
BLOCK_RECORD
  5
194
100
AcDbSymbolTableRecord
100
AcDbBlockTableRecord
  2
CLUMP30
  0
BLOCK_RECORD
  5
197
100
AcDbSymbolTableRecord
100
AcDbBlockTableRecord
  2
CLUMP31
  0
BLOCK_RECORD
  5
19A
100
AcDbSymbolTableRecord
100
AcDbBlockTableRecord
  2
CLUMP32
  0
BLOCK_RECORD
  5
19D
100
AcDbSymbolTableRecord
100
AcDbBlockTableRecord
  2
CLUMP33
  0
BLOCK_RECORD
  5
1AA
100
AcDbSymbolTableRecord
100
AcDbBlockTableRecord
  2
CLUMP34
  0
BLOCK_RECORD
  5
1AD
100
AcDbSymbolTableRecord
100
AcDbBlockTableRecord
  2
CLUMP35
  0
BLOCK_RECORD
  5
1C2
100
AcDbSymbolTableRecord
100
AcDbBlockTableRecord
  2
CLUMP36
  0
BLOCK_RECORD
  5
1C5
100
AcDbSymbolTableRecord
100
AcDbBlockTableRecord
  2
CLUMP37
  0
BLOCK_RECORD
  5
1E6
100
AcDbSymbolTableRecord
100
AcDbBlockTableRecord
  2
CLUMP38
  0
BLOCK_RECORD
  5
1E9
100
AcDbSymbolTableRecord
100
AcDbBlockTableRecord
  2
CLUMP39
  0
BLOCK_RECORD
  5
1EC
100
AcDbSymbolTableRecord
100
AcDbBlockTableRecord
  2
CLUMP40
  0
BLOCK_RECORD
  5
1EF
100
AcDbSymbolTableRecord
100
AcDbBlockTableRecord
  2
CLUMP41
  0
BLOCK_RECORD
  5
1FC
100
AcDbSymbolTableRecord
100
AcDbBlockTableRecord
  2
CLUMP42
  0
BLOCK_RECORD
  5
1FF
100
AcDbSymbolTableRecord
100
AcDbBlockTableRecord
  2
CLUMP43
  0
BLOCK_RECORD
  5
216
100
AcDbSymbolTableRecord
100
AcDbBlockTableRecord
  2
CLUMP44
  0
BLOCK_RECORD
  5
219
100
AcDbSymbolTableRecord
100
AcDbBlockTableRecord
  2
CLUMP45
  0
BLOCK_RECORD
  5
21C
100
AcDbSymbolTableRecord
100
AcDbBlockTableRecord
  2
CLUMP46
  0
BLOCK_RECORD
  5
21F
100
AcDbSymbolTableRecord
100
AcDbBlockTableRecord
  2
CLUMP47
  0
BLOCK_RECORD
  5
232
100
AcDbSymbolTableRecord
100
AcDbBlockTableRecord
  2
CLUMP48
  0
BLOCK_RECORD
  5
235
100
AcDbSymbolTableRecord
100
AcDbBlockTableRecord
  2
CLUMP49
  0
BLOCK_RECORD
  5
252
100
AcDbSymbolTableRecord
100
AcDbBlockTableRecord
  2
CLUMP50
  0
BLOCK_RECORD
  5
255
100
AcDbSymbolTableRecord
100
AcDbBlockTableRecord
  2
CLUMP51
  0
BLOCK_RECORD
  5
260
100
AcDbSymbolTableRecord
100
AcDbBlockTableRecord
  2
CLUMP52
  0
BLOCK_RECORD
  5
263
100
AcDbSymbolTableRecord
100
AcDbBlockTableRecord
  2
CLUMP53
  0
BLOCK_RECORD
  5
26C
100
AcDbSymbolTableRecord
100
AcDbBlockTableRecord
  2
CLUMP54
  0
BLOCK_RECORD
  5
26F
100
AcDbSymbolTableRecord
100
AcDbBlockTableRecord
  2
CLUMP55
  0
BLOCK_RECORD
  5
27C
100
AcDbSymbolTableRecord
100
AcDbBlockTableRecord
  2
CLUMP56
  0
BLOCK_RECORD
  5
27F
100
AcDbSymbolTableRecord
100
AcDbBlockTableRecord
  2
CLUMP57
  0
BLOCK_RECORD
  5
28B
100
AcDbSymbolTableRecord
100
AcDbBlockTableRecord
  2
CLUMP58
  0
BLOCK_RECORD
  5
28E
100
AcDbSymbolTableRecord
100
AcDbBlockTableRecord
  2
CLUMP59
  0
BLOCK_RECORD
  5
2A6
100
AcDbSymbolTableRecord
100
AcDbBlockTableRecord
  2
CLUMP60
  0
BLOCK_RECORD
  5
2A9
100
AcDbSymbolTableRecord
100
AcDbBlockTableRecord
  2
CLUMP61
  0
BLOCK_RECORD
  5
2AF
100
AcDbSymbolTableRecord
100
AcDbBlockTableRecord
  2
CLUMP62
  0
BLOCK_RECORD
  5
2B2
100
AcDbSymbolTableRecord
100
AcDbBlockTableRecord
  2
CLUMP63
  0
BLOCK_RECORD
  5
2BD
100
AcDbSymbolTableRecord
100
AcDbBlockTableRecord
  2
CLUMP64
  0
BLOCK_RECORD
  5
2C0
100
AcDbSymbolTableRecord
100
AcDbBlockTableRecord
  2
CLUMP65
  0
BLOCK_RECORD
  5
2C6
100
AcDbSymbolTableRecord
100
AcDbBlockTableRecord
  2
CLUMP66
  0
BLOCK_RECORD
  5
2C9
100
AcDbSymbolTableRecord
100
AcDbBlockTableRecord
  2
CLUMP67
  0
BLOCK_RECORD
  5
2D4
100
AcDbSymbolTableRecord
100
AcDbBlockTableRecord
  2
CLUMP68
  0
BLOCK_RECORD
  5
2D7
100
AcDbSymbolTableRecord
100
AcDbBlockTableRecord
  2
CLUMP69
  0
BLOCK_RECORD
  5
2DD
100
AcDbSymbolTableRecord
100
AcDbBlockTableRecord
  2
CLUMP70
  0
BLOCK_RECORD
  5
2E0
100
AcDbSymbolTableRecord
100
AcDbBlockTableRecord
  2
CLUMP71
  0
BLOCK_RECORD
  5
2EB
100
AcDbSymbolTableRecord
100
AcDbBlockTableRecord
  2
CLUMP72
  0
BLOCK_RECORD
  5
2EE
100
AcDbSymbolTableRecord
100
AcDbBlockTableRecord
  2
CLUMP73
  0
BLOCK_RECORD
  5
2F4
100
AcDbSymbolTableRecord
100
AcDbBlockTableRecord
  2
CLUMP74
  0
BLOCK_RECORD
  5
2F7
100
AcDbSymbolTableRecord
100
AcDbBlockTableRecord
  2
CLUMP75
  0
BLOCK_RECORD
  5
345
100
AcDbSymbolTableRecord
100
AcDbBlockTableRecord
  2
CLUMP76
  0
BLOCK_RECORD
  5
348
100
AcDbSymbolTableRecord
100
AcDbBlockTableRecord
  2
CLUMP77
  0
BLOCK_RECORD
  5
351
100
AcDbSymbolTableRecord
100
AcDbBlockTableRecord
  2
CLUMP78
  0
BLOCK_RECORD
  5
354
100
AcDbSymbolTableRecord
100
AcDbBlockTableRecord
  2
CLUMP79
  0
BLOCK_RECORD
  5
369
100
AcDbSymbolTableRecord
100
AcDbBlockTableRecord
  2
CLUMP80
  0
BLOCK_RECORD
  5
36C
100
AcDbSymbolTableRecord
100
AcDbBlockTableRecord
  2
CLUMP81
  0
BLOCK_RECORD
  5
3A5
100
AcDbSymbolTableRecord
100
AcDbBlockTableRecord
  2
CLUMP82
  0
BLOCK_RECORD
  5
3A8
100
AcDbSymbolTableRecord
100
AcDbBlockTableRecord
  2
CLUMP83
  0
BLOCK_RECORD
  5
3AE
100
AcDbSymbolTableRecord
100
AcDbBlockTableRecord
  2
CLUMP84
  0
BLOCK_RECORD
  5
3B1
100
AcDbSymbolTableRecord
100
AcDbBlockTableRecord
  2
CLUMP85
  0
BLOCK_RECORD
  5
3BC
100
AcDbSymbolTableRecord
100
AcDbBlockTableRecord
  2
CLUMP86
  0
BLOCK_RECORD
  5
3BF
100
AcDbSymbolTableRecord
100
AcDbBlockTableRecord
  2
CLUMP87
  0
BLOCK_RECORD
  5
3C5
100
AcDbSymbolTableRecord
100
AcDbBlockTableRecord
  2
CLUMP88
  0
BLOCK_RECORD
  5
3C8
100
AcDbSymbolTableRecord
100
AcDbBlockTableRecord
  2
CLUMP89
  0
BLOCK_RECORD
  5
3E9
100
AcDbSymbolTableRecord
100
AcDbBlockTableRecord
  2
CLUMP90
  0
BLOCK_RECORD
  5
3EC
100
AcDbSymbolTableRecord
100
AcDbBlockTableRecord
  2
CLUMP91
  0
BLOCK_RECORD
  5
406
100
AcDbSymbolTableRecord
100
AcDbBlockTableRecord
  2
CLUMP92
  0
BLOCK_RECORD
  5
409
100
AcDbSymbolTableRecord
100
AcDbBlockTableRecord
  2
CLUMP93
  0
BLOCK_RECORD
  5
41E
100
AcDbSymbolTableRecord
100
AcDbBlockTableRecord
  2
CLUMP94
  0
BLOCK_RECORD
  5
421
100
AcDbSymbolTableRecord
100
AcDbBlockTableRecord
  2
CLUMP95
  0
BLOCK_RECORD
  5
44F
100
AcDbSymbolTableRecord
100
AcDbBlockTableRecord
  2
CLUMP96
  0
BLOCK_RECORD
  5
452
100
AcDbSymbolTableRecord
100
AcDbBlockTableRecord
  2
CLUMP97
  0
BLOCK_RECORD
  5
46C
100
AcDbSymbolTableRecord
100
AcDbBlockTableRecord
  2
CLUMP98
  0
BLOCK_RECORD
  5
46F
100
AcDbSymbolTableRecord
100
AcDbBlockTableRecord
  2
CLUMP99
  0
BLOCK_RECORD
  5
48E
100
AcDbSymbolTableRecord
100
AcDbBlockTableRecord
  2
*D100
  0
BLOCK_RECORD
  5
4A0
100
AcDbSymbolTableRecord
100
AcDbBlockTableRecord
  2
*D101
  0
BLOCK_RECORD
  5
4B1
100
AcDbSymbolTableRecord
100
AcDbBlockTableRecord
  2
*D102
  0
BLOCK_RECORD
  5
4C2
100
AcDbSymbolTableRecord
100
AcDbBlockTableRecord
  2
*D103
  0
BLOCK_RECORD
  5
4D3
100
AcDbSymbolTableRecord
100
AcDbBlockTableRecord
  2
*D104
  0
BLOCK_RECORD
  5
4E4
100
AcDbSymbolTableRecord
100
AcDbBlockTableRecord
  2
*D105
  0
BLOCK_RECORD
  5
508
100
AcDbSymbolTableRecord
100
AcDbBlockTableRecord
  2
CLUMP100
  0
BLOCK_RECORD
  5
522
100
AcDbSymbolTableRecord
100
AcDbBlockTableRecord
  2
*D107
  0
BLOCK_RECORD
  5
533
100
AcDbSymbolTableRecord
100
AcDbBlockTableRecord
  2
*D108
  0
BLOCK_RECORD
  5
544
100
AcDbSymbolTableRecord
100
AcDbBlockTableRecord
  2
*D109
  0
BLOCK_RECORD
  5
555
100
AcDbSymbolTableRecord
100
AcDbBlockTableRecord
  2
*D110
  0
BLOCK_RECORD
  5
566
100
AcDbSymbolTableRecord
100
AcDbBlockTableRecord
  2
*D111
  0
BLOCK_RECORD
  5
577
100
AcDbSymbolTableRecord
100
AcDbBlockTableRecord
  2
*D112
  0
BLOCK_RECORD
  5
588
100
AcDbSymbolTableRecord
100
AcDbBlockTableRecord
  2
*D113
  0
ENDTAB
  0
ENDSEC
  0
SECTION
  2
BLOCKS
  0
BLOCK
  5
D
100
AcDbEntity
  8
0
100
AcDbBlockBegin
  2
*MODEL_SPACE
 70
         0
 10
0.0
 20
0.0
 30
0.0
  3
*MODEL_SPACE
  1

  0
ENDBLK
  5
E
100
AcDbEntity
  8
0
100
AcDbBlockEnd
  0
BLOCK
  5
F
100
AcDbEntity
 67
         1
  8
0
100
AcDbBlockBegin
  2
*PAPER_SPACE
 70
         0
 10
0.0
 20
0.0
 30
0.0
  3
*PAPER_SPACE
  1

  0
ENDBLK
  5
10
100
AcDbEntity
 67
         1
  8
0
100
AcDbBlockEnd
  0
BLOCK
  5
2F
100
AcDbEntity
  8
0
100
AcDbBlockBegin
  2
CLUMP0
 70
         0
 10
0.0
 20
0.0
 30
0.0
  3

  1

  0
INSERT
  5
31
100
AcDbEntity
  8
0
100
AcDbBlockReference
  2
CLUMP1
 10
0.0
 20
0.0
 30
0.0
  0
ENDBLK
  5
5C
100
AcDbEntity
  8
0
100
AcDbBlockEnd
  0
BLOCK
  5
32
100
AcDbEntity
  8
0
100
AcDbBlockBegin
  2
CLUMP1
 70
         0
 10
0.0
 20
0.0
 30
0.0
  3

  1

  0
LINE
  5
33
100
AcDbEntity
  8
ﾚｲﾔｰ1
  6
DIVIDE
 62
         4
100
AcDbLine
 10
274.49453125
 20
97.2571967399
 30
0.0
 11
274.49453125
 21
111.8771955304
 31
0.0
  0
LINE
  5
34
100
AcDbEntity
  8
ﾚｲﾔｰ1
  6
DIVIDE
 62
         4
100
AcDbLine
 10
280.09453125
 20
89.7571967399
 30
0.0
 11
280.09453125
 21
109.7571970668
 31
0.0
  0
LINE
  5
35
100
AcDbEntity
  8
ﾚｲﾔｰ1
  6
DIVIDE
 62
         4
100
AcDbLine
 10
281.69453125
 20
97.2571967399
 30
0.0
 11
281.69453125
 21
111.8771955304
 31
0.0
  0
LINE
  5
36
100
AcDbEntity
  8
ﾚｲﾔｰ1
  6
DIVIDE
 62
         4
100
AcDbLine
 10
282.33453125
 20
98.1366215988
 30
0.0
 11
285.49453125
 21
113.5171967399
 31
0.0
  0
LINE
  5
37
100
AcDbEntity
  8
ﾚｲﾔｰ1
  6
DIVIDE
 62
         4
100
AcDbLine
 10
273.854538369
 20
98.1366202128
 30
0.0
 11
270.694533341
 21
113.5171943208
 31
0.0
  0
LINE
  5
38
100
AcDbEntity
  8
ﾚｲﾔｰ1
  6
DIVIDE
 62
         4
100
AcDbLine
 10
276.09453125
 20
89.7571967399
 30
0.0
 11
276.09453125
 21
109.757196413
 31
0.0
  0
LINE
  5
39
100
AcDbEntity
  8
ﾚｲﾔｰ1
  6
DIVIDE
 62
         4
100
AcDbLine
 10
274.89453125
 20
90.9571967399
 30
0.0
 11
274.89453125
 21
108.5571962168
 31
0.0
  0
LINE
  5
3A
100
AcDbEntity
  8
ﾚｲﾔｰ1
  6
DIVIDE
 62
         4
100
AcDbLine
 10
281.29453125
 20
90.9571967399
 30
0.0
 11
281.29453125
 21
108.5571972629
 31
0.0
  0
LINE
  5
3B
100
AcDbEntity
  8
ﾚｲﾔｰ1
  6
DIVIDE
 62
         4
100
AcDbLine
 10
282.33453125
 20
97.2571967399
 30
0.0
 11
282.33453125
 21
111.9171955304
 31
0.0
  0
LINE
  5
3C
100
AcDbEntity
  8
ﾚｲﾔｰ1
  6
DIVIDE
 62
         4
100
AcDbLine
 10
273.85453125
 20
97.2571967399
 30
0.0
 11
273.85453125
 21
111.9171955304
 31
0.0
  0
LINE
  5
3D
100
AcDbEntity
  8
ﾚｲﾔｰ1
  6
DIVIDE
 62
         4
100
AcDbLine
 10
274.49453125
 20
97.2571967399
 30
0.0
 11
274.49453125
 21
111.8771955304
 31
0.0
  0
LINE
  5
3E
100
AcDbEntity
  8
ﾚｲﾔｰ1
  6
DIVIDE
 62
         4
100
AcDbLine
 10
273.85453125
 20
97.2571967399
 30
0.0
 11
273.85453125
 21
111.9171955304
 31
0.0
  0
LINE
  5
3F
100
AcDbEntity
  8
ﾚｲﾔｰ1
  6
DIVIDE
 62
         4
100
AcDbLine
 10
278.09453125
 20
88.5373660107
 30
0.0
 11
278.09453125
 21
119.9136420524
 31
0.0
  0
LINE
  5
40
100
AcDbEntity
  8
ﾚｲﾔｰ1
  6
DIVIDE
 62
         4
100
AcDbLine
 10
268.49453125
 20
117.9171967399
 30
0.0
 11
287.89453125
 21
117.9171967399
 31
0.0
  0
LINE
  5
41
100
AcDbEntity
  8
ﾚｲﾔｰ1
  6
DIVIDE
 62
         4
100
AcDbLine
 10
268.49453125
 20
118.5571967399
 30
0.0
 11
287.89453125
 21
118.5571967399
 31
0.0
  0
LINE
  5
42
100
AcDbEntity
  8
ﾚｲﾔｰ1
  6
DIVIDE
 62
         4
100
AcDbLine
 10
287.89453125
 20
117.9171967399
 30
0.0
 11
287.89453125
 21
118.5571967399
 31
0.0
  0
ARC
  5
43
100
AcDbEntity
  8
ﾚｲﾔｰ1
  6
DIVIDE
 62
         4
100
AcDbCircle
 10
-275.45453125
 20
111.9171955304
 30
0.0
 40
1.6
210
0.0
220
0.0
230
-1.0
100
AcDbArc
 50
0.0
 51
90.0000000118
  0
LINE
  5
44
100
AcDbEntity
  8
ﾚｲﾔｰ1
  6
DIVIDE
 62
         4
100
AcDbLine
 10
276.09453125
 20
89.7571967399
 30
0.0
 11
280.09453125
 21
89.7571967399
 31
0.0
  0
LINE
  5
45
100
AcDbEntity
  8
ﾚｲﾔｰ1
  6
DIVIDE
 62
         4
100
AcDbLine
 10
281.29453125
 20
90.9571967399
 30
0.0
 11
280.09453125
 21
89.7571967399
 31
0.0
  0
LINE
  5
46
100
AcDbEntity
  8
ﾚｲﾔｰ1
  6
DIVIDE
 62
         4
100
AcDbLine
 10
276.09453125
 20
89.7571967399
 30
0.0
 11
280.09453125
 21
89.7571967399
 31
0.0
  0
LINE
  5
47
100
AcDbEntity
  8
ﾚｲﾔｰ1
  6
DIVIDE
 62
         4
100
AcDbLine
 10
281.69453125
 20
97.2571967399
 30
0.0
 11
282.33453125
 21
97.2571967399
 31
0.0
  0
ARC
  5
48
100
AcDbEntity
  8
ﾚｲﾔｰ1
  6
DIVIDE
 62
         4
100
AcDbCircle
 10
-280.69453125
 20
111.8771955304
 30
0.0
 40
1.0
210
0.0
220
0.0
230
-1.0
100
AcDbArc
 50
90.0000000117
 51
180.0000000235
  0
LINE
  5
49
100
AcDbEntity
  8
ﾚｲﾔｰ1
  6
DIVIDE
 62
         4
100
AcDbLine
 10
276.09453125
 20
109.757196413
 30
0.0
 11
274.89453125
 21
108.5571962168
 31
0.0
  0
LINE
  5
4A
100
AcDbEntity
  8
ﾚｲﾔｰ1
  6
DIVIDE
 62
         4
100
AcDbLine
 10
270.694533341
 20
113.5171943208
 30
0.0
 11
270.6945326872
 21
115.5171943208
 31
0.0
  0
ARC
  5
4B
100
AcDbEntity
  8
ﾚｲﾔｰ1
  6
DIVIDE
 62
         4
100
AcDbCircle
 10
-280.73453125
 20
111.9171955304
 30
0.0
 40
1.6
210
0.0
220
0.0
230
-1.0
100
AcDbArc
 50
90.0000000117
 51
180.0000000235
  0
LINE
  5
4C
100
AcDbEntity
  8
ﾚｲﾔｰ1
  6
DIVIDE
 62
         4
100
AcDbLine
 10
280.09453125
 20
109.7571970668
 30
0.0
 11
281.29453125
 21
108.5571972629
 31
0.0
  0
LINE
  5
4D
100
AcDbEntity
  8
ﾚｲﾔｰ1
  6
DIVIDE
 62
         4
100
AcDbLine
 10
270.174237586
 20
99.7571971643
 30
0.0
 11
286.4112238434
 21
99.7571998182
 31
0.0
  0
LINE
  5
4E
100
AcDbEntity
  8
ﾚｲﾔｰ1
  6
DIVIDE
 62
         4
100
AcDbLine
 10
276.09453125
 20
109.757196413
 30
0.0
 11
280.09453125
 21
109.7571970668
 31
0.0
  0
LINE
  5
4F
100
AcDbEntity
  8
ﾚｲﾔｰ1
  6
DIVIDE
 62
         4
100
AcDbLine
 10
270.69453125
 20
115.5171967399
 30
0.0
 11
269.6149479166
 21
117.9171967399
 31
0.0
  0
LINE
  5
50
100
AcDbEntity
  8
ﾚｲﾔｰ1
  6
DIVIDE
 62
         4
100
AcDbLine
 10
270.69453125
 20
115.5171967399
 30
0.0
 11
285.49453125
 21
115.5171967399
 31
0.0
  0
LINE
  5
51
100
AcDbEntity
  8
ﾚｲﾔｰ1
  6
DIVIDE
 62
         4
100
AcDbLine
 10
280.69453125
 20
112.8771955304
 30
0.0
 11
275.49453125
 21
112.8771955304
 31
0.0
  0
LINE
  5
52
100
AcDbEntity
  8
ﾚｲﾔｰ1
  6
DIVIDE
 62
         4
100
AcDbLine
 10
280.73453125
 20
113.5171955304
 30
0.0
 11
275.45453125
 21
113.5171955304
 31
0.0
  0
LINE
  5
53
100
AcDbEntity
  8
ﾚｲﾔｰ1
  6
DIVIDE
 62
         4
100
AcDbLine
 10
285.49453125
 20
113.5171967399
 30
0.0
 11
285.49453125
 21
115.5171967399
 31
0.0
  0
LINE
  5
54
100
AcDbEntity
  8
ﾚｲﾔｰ1
  6
DIVIDE
 62
         4
100
AcDbLine
 10
285.49453125
 20
115.5171967399
 30
0.0
 11
286.7930208333
 21
117.9171967399
 31
0.0
  0
LINE
  5
55
100
AcDbEntity
  8
ﾚｲﾔｰ1
  6
DIVIDE
 62
         4
100
AcDbLine
 10
275.49453125
 20
112.8771955304
 30
0.0
 11
280.69453125
 21
112.8771955304
 31
0.0
  0
LINE
  5
56
100
AcDbEntity
  8
ﾚｲﾔｰ1
  6
DIVIDE
 62
         4
100
AcDbLine
 10
275.45453125
 20
113.5171955304
 30
0.0
 11
280.73453125
 21
113.5171955304
 31
0.0
  0
ARC
  5
57
100
AcDbEntity
  8
ﾚｲﾔｰ1
  6
DIVIDE
 62
         4
100
AcDbCircle
 10
-275.49453125
 20
111.8771955304
 30
0.0
 40
1.0
210
0.0
220
0.0
230
-1.0
100
AcDbArc
 50
0.0
 51
90.0000000117
  0
LINE
  5
58
100
AcDbEntity
  8
ﾚｲﾔｰ1
  6
DIVIDE
 62
         4
100
AcDbLine
 10
268.49453125
 20
117.9171967399
 30
0.0
 11
268.49453125
 21
118.5571967399
 31
0.0
  0
LINE
  5
59
100
AcDbEntity
  8
ﾚｲﾔｰ1
  6
DIVIDE
 62
         4
100
AcDbLine
 10
274.89453125
 20
90.9571967399
 30
0.0
 11
276.09453125
 21
89.7571967399
 31
0.0
  0
LINE
  5
5A
100
AcDbEntity
  8
ﾚｲﾔｰ1
  6
DIVIDE
 62
         4
100
AcDbLine
 10
273.85453125
 20
97.2571967399
 30
0.0
 11
274.49453125
 21
97.2571967399
 31
0.0
  0
ENDBLK
  5
5B
100
AcDbEntity
  8
0
100
AcDbBlockEnd
  0
BLOCK
  5
71
100
AcDbEntity
  8
0
100
AcDbBlockBegin
  2
CLUMP2
 70
         0
 10
0.0
 20
0.0
 30
0.0
  3

  1

  0
INSERT
  5
73
100
AcDbEntity
  8
0
100
AcDbBlockReference
  2
CLUMP3
 10
0.0
 20
0.0
 30
0.0
  0
ENDBLK
  5
7A
100
AcDbEntity
  8
0
100
AcDbBlockEnd
  0
BLOCK
  5
74
100
AcDbEntity
  8
0
100
AcDbBlockBegin
  2
CLUMP3
 70
         0
 10
0.0
 20
0.0
 30
0.0
  3

  1

  0
LINE
  5
75
100
AcDbEntity
  8
ﾚｲﾔｰ1
  6
DIVIDE
 62
         4
100
AcDbLine
 10
246.39453125
 20
124.5571967399
 30
0.0
 11
246.39453125
 21
118.5571967399
 31
0.0
  0
LINE
  5
76
100
AcDbEntity
  8
ﾚｲﾔｰ1
  6
DIVIDE
 62
         4
100
AcDbLine
 10
258.39453125
 20
124.5571967399
 30
0.0
 11
246.39453125
 21
124.5571967399
 31
0.0
  0
LINE
  5
77
100
AcDbEntity
  8
ﾚｲﾔｰ1
  6
DIVIDE
 62
         4
100
AcDbLine
 10
258.39453125
 20
118.5571967399
 30
0.0
 11
258.39453125
 21
124.5571967399
 31
0.0
  0
LINE
  5
78
100
AcDbEntity
  8
ﾚｲﾔｰ1
  6
DIVIDE
 62
         4
100
AcDbLine
 10
246.39453125
 20
118.5571967399
 30
0.0
 11
258.39453125
 21
118.5571967399
 31
0.0
  0
ENDBLK
  5
79
100
AcDbEntity
  8
0
100
AcDbBlockEnd
  0
BLOCK
  5
7D
100
AcDbEntity
  8
0
100
AcDbBlockBegin
  2
CLUMP4
 70
         0
 10
0.0
 20
0.0
 30
0.0
  3

  1

  0
INSERT
  5
7F
100
AcDbEntity
  8
0
100
AcDbBlockReference
  2
CLUMP5
 10
0.0
 20
0.0
 30
0.0
  0
ENDBLK
  5
AA
100
AcDbEntity
  8
0
100
AcDbBlockEnd
  0
BLOCK
  5
80
100
AcDbEntity
  8
0
100
AcDbBlockBegin
  2
CLUMP5
 70
         0
 10
0.0
 20
0.0
 30
0.0
  3

  1

  0
LINE
  5
81
100
AcDbEntity
  8
ﾚｲﾔｰ1
  6
DIVIDE
 62
         4
100
AcDbLine
 10
256.09453125
 20
97.2571967399
 30
0.0
 11
256.09453125
 21
111.8771955304
 31
0.0
  0
LINE
  5
82
100
AcDbEntity
  8
ﾚｲﾔｰ1
  6
DIVIDE
 62
         4
100
AcDbLine
 10
250.49453125
 20
89.7571967399
 30
0.0
 11
250.49453125
 21
109.7571970668
 31
0.0
  0
LINE
  5
83
100
AcDbEntity
  8
ﾚｲﾔｰ1
  6
DIVIDE
 62
         4
100
AcDbLine
 10
248.89453125
 20
97.2571967399
 30
0.0
 11
248.89453125
 21
111.8771955304
 31
0.0
  0
LINE
  5
84
100
AcDbEntity
  8
ﾚｲﾔｰ1
  6
DIVIDE
 62
         4
100
AcDbLine
 10
248.25453125
 20
98.1366215988
 30
0.0
 11
245.09453125
 21
113.5171967399
 31
0.0
  0
LINE
  5
85
100
AcDbEntity
  8
ﾚｲﾔｰ1
  6
DIVIDE
 62
         4
100
AcDbLine
 10
256.734524131
 20
98.1366202128
 30
0.0
 11
259.894529159
 21
113.5171943208
 31
0.0
  0
LINE
  5
86
100
AcDbEntity
  8
ﾚｲﾔｰ1
  6
DIVIDE
 62
         4
100
AcDbLine
 10
254.49453125
 20
89.7571967399
 30
0.0
 11
254.49453125
 21
109.757196413
 31
0.0
  0
LINE
  5
87
100
AcDbEntity
  8
ﾚｲﾔｰ1
  6
DIVIDE
 62
         4
100
AcDbLine
 10
255.69453125
 20
90.9571967399
 30
0.0
 11
255.69453125
 21
108.5571962168
 31
0.0
  0
LINE
  5
88
100
AcDbEntity
  8
ﾚｲﾔｰ1
  6
DIVIDE
 62
         4
100
AcDbLine
 10
249.29453125
 20
90.9571967399
 30
0.0
 11
249.29453125
 21
108.5571972629
 31
0.0
  0
LINE
  5
89
100
AcDbEntity
  8
ﾚｲﾔｰ1
  6
DIVIDE
 62
         4
100
AcDbLine
 10
248.25453125
 20
97.2571967399
 30
0.0
 11
248.25453125
 21
111.9171955304
 31
0.0
  0
LINE
  5
8A
100
AcDbEntity
  8
ﾚｲﾔｰ1
  6
DIVIDE
 62
         4
100
AcDbLine
 10
256.73453125
 20
97.2571967399
 30
0.0
 11
256.73453125
 21
111.9171955304
 31
0.0
  0
LINE
  5
8B
100
AcDbEntity
  8
ﾚｲﾔｰ1
  6
DIVIDE
 62
         4
100
AcDbLine
 10
256.09453125
 20
97.2571967399
 30
0.0
 11
256.09453125
 21
111.8771955304
 31
0.0
  0
LINE
  5
8C
100
AcDbEntity
  8
ﾚｲﾔｰ1
  6
DIVIDE
 62
         4
100
AcDbLine
 10
256.73453125
 20
97.2571967399
 30
0.0
 11
256.73453125
 21
111.9171955304
 31
0.0
  0
LINE
  5
8D
100
AcDbEntity
  8
ﾚｲﾔｰ1
  6
DIVIDE
 62
         4
100
AcDbLine
 10
252.49453125
 20
88.5373660107
 30
0.0
 11
252.49453125
 21
119.9136420524
 31
0.0
  0
LINE
  5
8E
100
AcDbEntity
  8
ﾚｲﾔｰ1
  6
DIVIDE
 62
         4
100
AcDbLine
 10
262.09453125
 20
117.9171967399
 30
0.0
 11
242.69453125
 21
117.9171967399
 31
0.0
  0
LINE
  5
8F
100
AcDbEntity
  8
ﾚｲﾔｰ1
  6
DIVIDE
 62
         4
100
AcDbLine
 10
262.09453125
 20
118.5571967399
 30
0.0
 11
242.69453125
 21
118.5571967399
 31
0.0
  0
LINE
  5
90
100
AcDbEntity
  8
ﾚｲﾔｰ1
  6
DIVIDE
 62
         4
100
AcDbLine
 10
242.69453125
 20
117.9171967399
 30
0.0
 11
242.69453125
 21
118.5571967399
 31
0.0
  0
ARC
  5
91
100
AcDbEntity
  8
ﾚｲﾔｰ1
  6
DIVIDE
 62
         4
100
AcDbCircle
 10
255.13453125
 20
111.9171955304
 30
0.0
 40
1.6
210
0.0
220
0.0
230
1.0
100
AcDbArc
 50
0.0
 51
90.0000000118
  0
LINE
  5
92
100
AcDbEntity
  8
ﾚｲﾔｰ1
  6
DIVIDE
 62
         4
100
AcDbLine
 10
254.49453125
 20
89.7571967399
 30
0.0
 11
250.49453125
 21
89.7571967399
 31
0.0
  0
LINE
  5
93
100
AcDbEntity
  8
ﾚｲﾔｰ1
  6
DIVIDE
 62
         4
100
AcDbLine
 10
249.29453125
 20
90.9571967399
 30
0.0
 11
250.49453125
 21
89.7571967399
 31
0.0
  0
LINE
  5
94
100
AcDbEntity
  8
ﾚｲﾔｰ1
  6
DIVIDE
 62
         4
100
AcDbLine
 10
254.49453125
 20
89.7571967399
 30
0.0
 11
250.49453125
 21
89.7571967399
 31
0.0
  0
LINE
  5
95
100
AcDbEntity
  8
ﾚｲﾔｰ1
  6
DIVIDE
 62
         4
100
AcDbLine
 10
248.89453125
 20
97.2571967399
 30
0.0
 11
248.25453125
 21
97.2571967399
 31
0.0
  0
ARC
  5
96
100
AcDbEntity
  8
ﾚｲﾔｰ1
  6
DIVIDE
 62
         4
100
AcDbCircle
 10
249.89453125
 20
111.8771955304
 30
0.0
 40
1.0
210
0.0
220
0.0
230
1.0
100
AcDbArc
 50
90.0000000117
 51
180.0000000235
  0
LINE
  5
97
100
AcDbEntity
  8
ﾚｲﾔｰ1
  6
DIVIDE
 62
         4
100
AcDbLine
 10
254.49453125
 20
109.757196413
 30
0.0
 11
255.69453125
 21
108.5571962168
 31
0.0
  0
LINE
  5
98
100
AcDbEntity
  8
ﾚｲﾔｰ1
  6
DIVIDE
 62
         4
100
AcDbLine
 10
259.894529159
 20
113.5171943208
 30
0.0
 11
259.8945298128
 21
115.5171943208
 31
0.0
  0
ARC
  5
99
100
AcDbEntity
  8
ﾚｲﾔｰ1
  6
DIVIDE
 62
         4
100
AcDbCircle
 10
249.85453125
 20
111.9171955304
 30
0.0
 40
1.6
210
0.0
220
0.0
230
1.0
100
AcDbArc
 50
90.0000000118
 51
180.0000000235
  0
LINE
  5
9A
100
AcDbEntity
  8
ﾚｲﾔｰ1
  6
DIVIDE
 62
         4
100
AcDbLine
 10
250.49453125
 20
109.7571970668
 30
0.0
 11
249.29453125
 21
108.5571972629
 31
0.0
  0
LINE
  5
9B
100
AcDbEntity
  8
ﾚｲﾔｰ1
  6
DIVIDE
 62
         4
100
AcDbLine
 10
260.414824914
 20
99.7571971643
 30
0.0
 11
244.1778386566
 21
99.7571998182
 31
0.0
  0
LINE
  5
9C
100
AcDbEntity
  8
ﾚｲﾔｰ1
  6
DIVIDE
 62
         4
100
AcDbLine
 10
254.49453125
 20
109.757196413
 30
0.0
 11
250.49453125
 21
109.7571970668
 31
0.0
  0
LINE
  5
9D
100
AcDbEntity
  8
ﾚｲﾔｰ1
  6
DIVIDE
 62
         4
100
AcDbLine
 10
259.89453125
 20
115.5171967399
 30
0.0
 11
260.9741145834
 21
117.9171967399
 31
0.0
  0
LINE
  5
9E
100
AcDbEntity
  8
ﾚｲﾔｰ1
  6
DIVIDE
 62
         4
100
AcDbLine
 10
259.89453125
 20
115.5171967399
 30
0.0
 11
245.09453125
 21
115.5171967399
 31
0.0
  0
LINE
  5
9F
100
AcDbEntity
  8
ﾚｲﾔｰ1
  6
DIVIDE
 62
         4
100
AcDbLine
 10
249.89453125
 20
112.8771955304
 30
0.0
 11
255.09453125
 21
112.8771955304
 31
0.0
  0
LINE
  5
A0
100
AcDbEntity
  8
ﾚｲﾔｰ1
  6
DIVIDE
 62
         4
100
AcDbLine
 10
249.85453125
 20
113.5171955304
 30
0.0
 11
255.13453125
 21
113.5171955304
 31
0.0
  0
LINE
  5
A1
100
AcDbEntity
  8
ﾚｲﾔｰ1
  6
DIVIDE
 62
         4
100
AcDbLine
 10
245.09453125
 20
113.5171967399
 30
0.0
 11
245.09453125
 21
115.5171967399
 31
0.0
  0
LINE
  5
A2
100
AcDbEntity
  8
ﾚｲﾔｰ1
  6
DIVIDE
 62
         4
100
AcDbLine
 10
245.09453125
 20
115.5171967399
 30
0.0
 11
243.7960416667
 21
117.9171967399
 31
0.0
  0
LINE
  5
A3
100
AcDbEntity
  8
ﾚｲﾔｰ1
  6
DIVIDE
 62
         4
100
AcDbLine
 10
255.09453125
 20
112.8771955304
 30
0.0
 11
249.89453125
 21
112.8771955304
 31
0.0
  0
LINE
  5
A4
100
AcDbEntity
  8
ﾚｲﾔｰ1
  6
DIVIDE
 62
         4
100
AcDbLine
 10
255.13453125
 20
113.5171955304
 30
0.0
 11
249.85453125
 21
113.5171955304
 31
0.0
  0
ARC
  5
A5
100
AcDbEntity
  8
ﾚｲﾔｰ1
  6
DIVIDE
 62
         4
100
AcDbCircle
 10
255.09453125
 20
111.8771955304
 30
0.0
 40
1.0
210
0.0
220
0.0
230
1.0
100
AcDbArc
 50
0.0
 51
90.0000000117
  0
LINE
  5
A6
100
AcDbEntity
  8
ﾚｲﾔｰ1
  6
DIVIDE
 62
         4
100
AcDbLine
 10
262.09453125
 20
117.9171967399
 30
0.0
 11
262.09453125
 21
118.5571967399
 31
0.0
  0
LINE
  5
A7
100
AcDbEntity
  8
ﾚｲﾔｰ1
  6
DIVIDE
 62
         4
100
AcDbLine
 10
255.69453125
 20
90.9571967399
 30
0.0
 11
254.49453125
 21
89.7571967399
 31
0.0
  0
LINE
  5
A8
100
AcDbEntity
  8
ﾚｲﾔｰ1
  6
DIVIDE
 62
         4
100
AcDbLine
 10
256.73453125
 20
97.2571967399
 30
0.0
 11
256.09453125
 21
97.2571967399
 31
0.0
  0
ENDBLK
  5
A9
100
AcDbEntity
  8
0
100
AcDbBlockEnd
  0
BLOCK
  5
AD
100
AcDbEntity
  8
0
100
AcDbBlockBegin
  2
CLUMP6
 70
         0
 10
0.0
 20
0.0
 30
0.0
  3

  1

  0
INSERT
  5
AF
100
AcDbEntity
  8
0
100
AcDbBlockReference
  2
CLUMP7
 10
0.0
 20
0.0
 30
0.0
  0
ENDBLK
  5
B6
100
AcDbEntity
  8
0
100
AcDbBlockEnd
  0
BLOCK
  5
B0
100
AcDbEntity
  8
0
100
AcDbBlockBegin
  2
CLUMP7
 70
         0
 10
0.0
 20
0.0
 30
0.0
  3

  1

  0
LINE
  5
B1
100
AcDbEntity
  8
ﾚｲﾔｰ1
  6
DIVIDE
 62
         4
100
AcDbLine
 10
284.19453125
 20
124.5571967399
 30
0.0
 11
284.19453125
 21
118.5571967399
 31
0.0
  0
LINE
  5
B2
100
AcDbEntity
  8
ﾚｲﾔｰ1
  6
DIVIDE
 62
         4
100
AcDbLine
 10
272.19453125
 20
124.5571967399
 30
0.0
 11
284.19453125
 21
124.5571967399
 31
0.0
  0
LINE
  5
B3
100
AcDbEntity
  8
ﾚｲﾔｰ1
  6
DIVIDE
 62
         4
100
AcDbLine
 10
272.19453125
 20
118.5571967399
 30
0.0
 11
272.19453125
 21
124.5571967399
 31
0.0
  0
LINE
  5
B4
100
AcDbEntity
  8
ﾚｲﾔｰ1
  6
DIVIDE
 62
         4
100
AcDbLine
 10
284.19453125
 20
118.5571967399
 30
0.0
 11
272.19453125
 21
118.5571967399
 31
0.0
  0
ENDBLK
  5
B5
100
AcDbEntity
  8
0
100
AcDbBlockEnd
  0
BLOCK
  5
C1
100
AcDbEntity
  8
0
100
AcDbBlockBegin
  2
CLUMP8
 70
         0
 10
0.0
 20
0.0
 30
0.0
  3

  1

  0
INSERT
  5
C3
100
AcDbEntity
  8
0
100
AcDbBlockReference
  2
CLUMP9
 10
0.0
 20
0.0
 30
0.0
  0
ENDBLK
  5
EE
100
AcDbEntity
  8
0
100
AcDbBlockEnd
  0
BLOCK
  5
C4
100
AcDbEntity
  8
0
100
AcDbBlockBegin
  2
CLUMP9
 70
         0
 10
0.0
 20
0.0
 30
0.0
  3

  1

  0
INSERT
  5
C6
100
AcDbEntity
  8
0
100
AcDbBlockReference
  2
CLUMP10
 10
0.0
 20
0.0
 30
0.0
  0
INSERT
  5
D6
100
AcDbEntity
  8
0
100
AcDbBlockReference
  2
CLUMP12
 10
0.0
 20
0.0
 30
0.0
  0
LINE
  5
E5
100
AcDbEntity
  8
ﾚｲﾔｰ1
  6
DIVIDE
 62
         4
100
AcDbLine
 10
283.39453125
 20
130.5571967399
 30
0.0
 11
367.69453125
 21
130.5571967399
 31
0.0
  0
LINE
  5
E6
100
AcDbEntity
  8
ﾚｲﾔｰ1
  6
DIVIDE
 62
         4
100
AcDbLine
 10
283.39453125
 20
490.5571967399
 30
0.0
 11
283.39453125
 21
130.5571967399
 31
0.0
  0
LINE
  5
E7
100
AcDbEntity
  8
ﾚｲﾔｰ1
  6
DIVIDE
 62
         4
100
AcDbLine
 10
367.69453125
 20
490.5571967399
 30
0.0
 11
283.39453125
 21
490.5571967399
 31
0.0
  0
LINE
  5
E8
100
AcDbEntity
  8
ﾚｲﾔｰ1
  6
DIVIDE
 62
         4
100
AcDbLine
 10
288.39453125
 20
135.5571967399
 30
0.0
 11
362.69453125
 21
135.5571967399
 31
0.0
  0
LINE
  5
E9
100
AcDbEntity
  8
ﾚｲﾔｰ1
  6
DIVIDE
 62
         4
100
AcDbLine
 10
288.39453125
 20
485.5571967399
 30
0.0
 11
288.39453125
 21
135.5571967399
 31
0.0
  0
LINE
  5
EA
100
AcDbEntity
  8
ﾚｲﾔｰ1
  6
DIVIDE
 62
         4
100
AcDbLine
 10
362.69453125
 20
485.5571967399
 30
0.0
 11
288.39453125
 21
485.5571967399
 31
0.0
  0
LINE
  5
EB
100
AcDbEntity
  8
ﾚｲﾔｰ1
  6
DIVIDE
 62
         4
100
AcDbLine
 10
362.69453125
 20
135.5571967399
 30
0.0
 11
362.69453125
 21
485.5571967399
 31
0.0
  0
LINE
  5
EC
100
AcDbEntity
  8
ﾚｲﾔｰ1
  6
DIVIDE
 62
         4
100
AcDbLine
 10
367.69453125
 20
130.5571967399
 30
0.0
 11
367.69453125
 21
490.5571967399
 31
0.0
  0
ENDBLK
  5
ED
100
AcDbEntity
  8
0
100
AcDbBlockEnd
  0
BLOCK
  5
C7
100
AcDbEntity
  8
0
100
AcDbBlockBegin
  2
CLUMP10
 70
         0
 10
0.0
 20
0.0
 30
0.0
  3

  1

  0
INSERT
  5
C9
100
AcDbEntity
  8
0
100
AcDbBlockReference
  2
CLUMP11
 10
0.0
 20
0.0
 30
0.0
  0
ENDBLK
  5
D4
100
AcDbEntity
  8
0
100
AcDbBlockEnd
  0
BLOCK
  5
CA
100
AcDbEntity
  8
0
100
AcDbBlockBegin
  2
CLUMP11
 70
         0
 10
0.0
 20
0.0
 30
0.0
  3

  1

  0
LINE
  5
CB
100
AcDbEntity
  8
ﾚｲﾔｰ1
  6
DIVIDE
 62
         4
100
AcDbLine
 10
279.9945312501
 20
164.5571967399
 30
0.0
 11
279.9945312501
 21
160.5571967399
 31
0.0
  0
LINE
  5
CC
100
AcDbEntity
  8
ﾚｲﾔｰ1
  6
DIVIDE
 62
         4
100
AcDbLine
 10
280.3145312501
 20
164.5571967399
 30
0.0
 11
280.3145312501
 21
160.5571967399
 31
0.0
  0
LINE
  5
CD
100
AcDbEntity
  8
ﾚｲﾔｰ1
  6
DIVIDE
 62
         4
100
AcDbLine
 10
283.39453125
 20
164.5571967399
 30
0.0
 11
283.39453125
 21
160.5571967399
 31
0.0
  0
LINE
  5
CE
100
AcDbEntity
  8
ﾚｲﾔｰ1
  6
DIVIDE
 62
         4
100
AcDbLine
 10
283.07453125
 20
164.5571967399
 30
0.0
 11
283.07453125
 21
160.5571967399
 31
0.0
  0
LINE
  5
CF
100
AcDbEntity
  8
ﾚｲﾔｰ1
  6
DIVIDE
 62
         4
100
AcDbLine
 10
283.39453125
 20
164.5571967399
 30
0.0
 11
283.39453125
 21
160.5571967399
 31
0.0
  0
LINE
  5
D0
100
AcDbEntity
  8
ﾚｲﾔｰ1
  6
DIVIDE
 62
         4
100
AcDbLine
 10
279.9945312501
 20
164.5571967399
 30
0.0
 11
283.39453125
 21
164.5571967399
 31
0.0
  0
LINE
  5
D1
100
AcDbEntity
  8
ﾚｲﾔｰ1
  6
DIVIDE
 62
         4
100
AcDbLine
 10
281.69453125
 20
165.9019720711
 30
0.0
 11
281.69453125
 21
159.2124214087
 31
0.0
  0
LINE
  5
D2
100
AcDbEntity
  8
ﾚｲﾔｰ1
  6
DIVIDE
 62
         4
100
AcDbLine
 10
283.39453125
 20
160.5571967399
 30
0.0
 11
279.9945312501
 21
160.5571967399
 31
0.0
  0
ENDBLK
  5
D3
100
AcDbEntity
  8
0
100
AcDbBlockEnd
  0
BLOCK
  5
D7
100
AcDbEntity
  8
0
100
AcDbBlockBegin
  2
CLUMP12
 70
         0
 10
0.0
 20
0.0
 30
0.0
  3

  1

  0
INSERT
  5
D9
100
AcDbEntity
  8
0
100
AcDbBlockReference
  2
CLUMP13
 10
0.0
 20
0.0
 30
0.0
  0
ENDBLK
  5
E4
100
AcDbEntity
  8
0
100
AcDbBlockEnd
  0
BLOCK
  5
DA
100
AcDbEntity
  8
0
100
AcDbBlockBegin
  2
CLUMP13
 70
         0
 10
0.0
 20
0.0
 30
0.0
  3

  1

  0
LINE
  5
DB
100
AcDbEntity
  8
ﾚｲﾔｰ1
  6
DIVIDE
 62
         4
100
AcDbLine
 10
279.9945312501
 20
456.5571967399
 30
0.0
 11
279.9945312501
 21
460.5571967399
 31
0.0
  0
LINE
  5
DC
100
AcDbEntity
  8
ﾚｲﾔｰ1
  6
DIVIDE
 62
         4
100
AcDbLine
 10
280.3145312501
 20
456.5571967399
 30
0.0
 11
280.3145312501
 21
460.5571967399
 31
0.0
  0
LINE
  5
DD
100
AcDbEntity
  8
ﾚｲﾔｰ1
  6
DIVIDE
 62
         4
100
AcDbLine
 10
283.39453125
 20
456.5571967399
 30
0.0
 11
283.39453125
 21
460.5571967399
 31
0.0
  0
LINE
  5
DE
100
AcDbEntity
  8
ﾚｲﾔｰ1
  6
DIVIDE
 62
         4
100
AcDbLine
 10
283.07453125
 20
456.5571967399
 30
0.0
 11
283.07453125
 21
460.5571967399
 31
0.0
  0
LINE
  5
DF
100
AcDbEntity
  8
ﾚｲﾔｰ1
  6
DIVIDE
 62
         4
100
AcDbLine
 10
283.39453125
 20
456.5571967399
 30
0.0
 11
283.39453125
 21
460.5571967399
 31
0.0
  0
LINE
  5
E0
100
AcDbEntity
  8
ﾚｲﾔｰ1
  6
DIVIDE
 62
         4
100
AcDbLine
 10
279.9945312501
 20
456.5571967399
 30
0.0
 11
283.39453125
 21
456.5571967399
 31
0.0
  0
LINE
  5
E1
100
AcDbEntity
  8
ﾚｲﾔｰ1
  6
DIVIDE
 62
         4
100
AcDbLine
 10
281.69453125
 20
455.2124214087
 30
0.0
 11
281.69453125
 21
461.9019720711
 31
0.0
  0
LINE
  5
E2
100
AcDbEntity
  8
ﾚｲﾔｰ1
  6
DIVIDE
 62
         4
100
AcDbLine
 10
283.39453125
 20
460.5571967399
 30
0.0
 11
279.9945312501
 21
460.5571967399
 31
0.0
  0
ENDBLK
  5
E3
100
AcDbEntity
  8
0
100
AcDbBlockEnd
  0
BLOCK
  5
F2
100
AcDbEntity
  8
0
100
AcDbBlockBegin
  2
CLUMP14
 70
         0
 10
0.0
 20
0.0
 30
0.0
  3

  1

  0
INSERT
  5
F4
100
AcDbEntity
  8
0
100
AcDbBlockReference
  2
CLUMP15
 10
0.0
 20
0.0
 30
0.0
  0
ENDBLK
  5
FB
100
AcDbEntity
  8
0
100
AcDbBlockEnd
  0
BLOCK
  5
F5
100
AcDbEntity
  8
0
100
AcDbBlockBegin
  2
CLUMP15
 70
         0
 10
0.0
 20
0.0
 30
0.0
  3

  1

  0
CIRCLE
  5
F6
100
AcDbEntity
  8
ﾚｲﾔｰ1
  6
DIVIDE
 62
         4
100
AcDbCircle
 10
-282.59453125
 20
498.5604452396
 30
0.0
 40
0.8
210
0.0
220
0.0
230
-1.0
  0
LINE
  5
F7
100
AcDbEntity
  8
ﾚｲﾔｰ1
  6
DIVIDE
 62
         4
100
AcDbLine
 10
283.39453125
 20
485.5571967399
 30
0.0
 11
281.79453125
 21
485.5571967399
 31
0.0
  0
LINE
  5
F8
100
AcDbEntity
  8
ﾚｲﾔｰ1
  6
DIVIDE
 62
         4
100
AcDbLine
 10
281.79453125
 20
485.5571967399
 30
0.0
 11
281.79453125
 21
498.5604452396
 31
0.0
  0
LINE
  5
F9
100
AcDbEntity
  8
ﾚｲﾔｰ1
  6
DIVIDE
 62
         4
100
AcDbLine
 10
283.39453125
 20
485.5571967399
 30
0.0
 11
283.39453125
 21
498.7604452396
 31
0.0
  0
ENDBLK
  5
FA
100
AcDbEntity
  8
0
100
AcDbBlockEnd
  0
BLOCK
  5
10B
100
AcDbEntity
  8
0
100
AcDbBlockBegin
  2
CLUMP16
 70
         0
 10
0.0
 20
0.0
 30
0.0
  3

  1

  0
INSERT
  5
10D
100
AcDbEntity
  8
0
100
AcDbBlockReference
  2
CLUMP17
 10
0.0
 20
0.0
 30
0.0
  0
ENDBLK
  5
124
100
AcDbEntity
  8
0
100
AcDbBlockEnd
  0
BLOCK
  5
10E
100
AcDbEntity
  8
0
100
AcDbBlockBegin
  2
CLUMP17
 70
         0
 10
0.0
 20
0.0
 30
0.0
  3

  1

  0
LINE
  5
10F
100
AcDbEntity
  8
ﾚｲﾔｰ1
  6
DIVIDE
 62
         4
100
AcDbLine
 10
82.0945312507
 20
118.5571967399
 30
0.0
 11
62.6945312507
 21
118.5571967399
 31
0.0
  0
LINE
  5
110
100
AcDbEntity
  8
ﾚｲﾔｰ1
  6
DIVIDE
 62
         4
100
AcDbLine
 10
72.4945312507
 20
112.0571967399
 30
0.0
 11
72.4945312507
 21
119.9136420524
 31
0.0
  0
LINE
  5
111
100
AcDbEntity
  8
ﾚｲﾔｰ1
  6
DIVIDE
 62
         4
100
AcDbLine
 10
79.4945312507
 20
95.7241108024
 30
0.0
 11
79.4945312507
 21
103.6120014274
 31
0.0
  0
LINE
  5
112
100
AcDbEntity
  8
ﾚｲﾔｰ1
  6
DIVIDE
 62
         4
100
AcDbLine
 10
84.0148249147
 20
99.7571958049
 30
0.0
 11
75.5148249147
 21
99.7571971942
 31
0.0
  0
LINE
  5
113
100
AcDbEntity
  8
ﾚｲﾔｰ1
  6
DIVIDE
 62
         4
100
AcDbLine
 10
81.9945312507
 20
99.7571953505
 30
0.0
 11
81.9945312507
 21
113.5171967399
 31
0.0
  0
LINE
  5
114
100
AcDbEntity
  8
ﾚｲﾔｰ1
  6
DIVIDE
 62
         4
100
AcDbLine
 10
79.8945312507
 20
115.5171967399
 30
0.0
 11
80.974114584
 21
117.9171967399
 31
0.0
  0
LINE
  5
115
100
AcDbEntity
  8
ﾚｲﾔｰ1
  6
DIVIDE
 62
         4
100
AcDbLine
 10
81.9945312507
 20
113.5171967399
 30
0.0
 11
65.0945312507
 21
113.5171967399
 31
0.0
  0
CIRCLE
  5
116
100
AcDbEntity
  8
ﾚｲﾔｰ1
  6
DIVIDE
 62
         4
100
AcDbCircle
 10
79.4945312507
 20
99.7571967399
 30
0.0
 40
10.0
210
0.0
220
0.0
230
1.0
  0
LINE
  5
117
100
AcDbEntity
  8
ﾚｲﾔｰ1
  6
DIVIDE
 62
         4
100
AcDbLine
 10
82.0945312507
 20
117.9171967399
 30
0.0
 11
82.0945312507
 21
118.5571967399
 31
0.0
  0
CIRCLE
  5
118
100
AcDbEntity
  8
ﾚｲﾔｰ1
  6
DIVIDE
 62
         4
100
AcDbCircle
 10
79.4945312507
 20
99.7571967399
 30
0.0
 40
1.2
210
0.0
220
0.0
230
1.0
  0
CIRCLE
  5
119
100
AcDbEntity
  8
ﾚｲﾔｰ1
  6
DIVIDE
 62
         4
100
AcDbCircle
 10
79.4945312507
 20
99.7571967399
 30
0.0
 40
6.0
210
0.0
220
0.0
230
1.0
  0
CIRCLE
  5
11A
100
AcDbEntity
  8
ﾚｲﾔｰ1
  6
DIVIDE
 62
         4
100
AcDbCircle
 10
79.4945312507
 20
99.7571967399
 30
0.0
 40
6.3
210
0.0
220
0.0
230
1.0
  0
ARC
  5
11B
100
AcDbEntity
  8
ﾚｲﾔｰ1
  6
DIVIDE
 62
         4
100
AcDbCircle
 10
79.4945312507
 20
99.7571967399
 30
0.0
 40
2.5
210
0.0
220
0.0
230
1.0
100
AcDbArc
 50
220.4082695748
 51
359.999968206
  0
LINE
  5
11C
100
AcDbEntity
  8
ﾚｲﾔｰ1
  6
DIVIDE
 62
         4
100
AcDbLine
 10
77.5909198901
 20
98.1366215988
 30
0.0
 11
65.0945312507
 21
113.5171967399
 31
0.0
  0
LINE
  5
11D
100
AcDbEntity
  8
ﾚｲﾔｰ1
  6
DIVIDE
 62
         4
100
AcDbLine
 10
65.0945312507
 20
113.5171967399
 30
0.0
 11
65.0945312507
 21
115.5171967399
 31
0.0
  0
LINE
  5
11E
100
AcDbEntity
  8
ﾚｲﾔｰ1
  6
DIVIDE
 62
         4
100
AcDbLine
 10
81.9945312507
 20
113.4171967399
 30
0.0
 11
79.8945312507
 21
115.5171967399
 31
0.0
  0
LINE
  5
11F
100
AcDbEntity
  8
ﾚｲﾔｰ1
  6
DIVIDE
 62
         4
100
AcDbLine
 10
65.0945312507
 20
115.5171967399
 30
0.0
 11
63.7960416674
 21
117.9171967399
 31
0.0
  0
LINE
  5
120
100
AcDbEntity
  8
ﾚｲﾔｰ1
  6
DIVIDE
 62
         4
100
AcDbLine
 10
79.8945312507
 20
115.5171967399
 30
0.0
 11
65.0945312507
 21
115.5171967399
 31
0.0
  0
LINE
  5
121
100
AcDbEntity
  8
ﾚｲﾔｰ1
  6
DIVIDE
 62
         4
100
AcDbLine
 10
62.6945312507
 20
117.9171967399
 30
0.0
 11
62.6945312507
 21
118.5571967399
 31
0.0
  0
LINE
  5
122
100
AcDbEntity
  8
ﾚｲﾔｰ1
  6
DIVIDE
 62
         4
100
AcDbLine
 10
82.0945312507
 20
117.9171967399
 30
0.0
 11
62.6945312507
 21
117.9171967399
 31
0.0
  0
ENDBLK
  5
123
100
AcDbEntity
  8
0
100
AcDbBlockEnd
  0
BLOCK
  5
127
100
AcDbEntity
  8
0
100
AcDbBlockBegin
  2
CLUMP18
 70
         0
 10
0.0
 20
0.0
 30
0.0
  3

  1

  0
INSERT
  5
129
100
AcDbEntity
  8
0
100
AcDbBlockReference
  2
CLUMP19
 10
0.0
 20
0.0
 30
0.0
  0
ENDBLK
  5
134
100
AcDbEntity
  8
0
100
AcDbBlockEnd
  0
BLOCK
  5
12A
100
AcDbEntity
  8
0
100
AcDbBlockBegin
  2
CLUMP19
 70
         0
 10
0.0
 20
0.0
 30
0.0
  3

  1

  0
LINE
  5
12B
100
AcDbEntity
  8
ﾚｲﾔｰ1
  6
DIVIDE
 62
         4
100
AcDbLine
 10
77.4945312507
 20
118.5571967399
 30
0.0
 11
67.2945312507
 21
118.5571967399
 31
0.0
  0
ARC
  5
12C
100
AcDbEntity
  8
ﾚｲﾔｰ1
  6
DIVIDE
 62
         4
100
AcDbCircle
 10
77.4945312502
 20
123.7571967399
 30
0.0
 40
0.8
210
0.0
220
0.0
230
1.0
100
AcDbArc
 50
0.0
 51
90.0000000117
  0
ARC
  5
12D
100
AcDbEntity
  8
ﾚｲﾔｰ1
  6
DIVIDE
 62
         4
100
AcDbCircle
 10
77.4945312502
 20
119.3571967399
 30
0.0
 40
0.8
210
0.0
220
0.0
230
1.0
100
AcDbArc
 50
270.0000000353
 51
0.0
  0
LINE
  5
12E
100
AcDbEntity
  8
ﾚｲﾔｰ1
  6
DIVIDE
 62
         4
100
AcDbLine
 10
78.2945312502
 20
123.7571967399
 30
0.0
 11
78.2945312502
 21
119.3572089469
 31
0.0
  0
ARC
  5
12F
100
AcDbEntity
  8
ﾚｲﾔｰ1
  6
DIVIDE
 62
         4
100
AcDbCircle
 10
67.2945312502
 20
123.7571967399
 30
0.0
 40
0.8
210
0.0
220
0.0
230
1.0
100
AcDbArc
 50
90.0000000117
 51
180.0000000235
  0
ARC
  5
130
100
AcDbEntity
  8
ﾚｲﾔｰ1
  6
DIVIDE
 62
         4
100
AcDbCircle
 10
67.2945312502
 20
119.3571967399
 30
0.0
 40
0.8
210
0.0
220
0.0
230
1.0
100
AcDbArc
 50
180.0000000235
 51
270.0000000353
  0
LINE
  5
131
100
AcDbEntity
  8
ﾚｲﾔｰ1
  6
DIVIDE
 62
         4
100
AcDbLine
 10
66.4945312502
 20
123.7571967399
 30
0.0
 11
66.4945312502
 21
119.3572089469
 31
0.0
  0
LINE
  5
132
100
AcDbEntity
  8
ﾚｲﾔｰ1
  6
DIVIDE
 62
         4
100
AcDbLine
 10
77.49453125
 20
124.5571967399
 30
0.0
 11
67.29453125
 21
124.5571967399
 31
0.0
  0
ENDBLK
  5
133
100
AcDbEntity
  8
0
100
AcDbBlockEnd
  0
BLOCK
  5
146
100
AcDbEntity
  8
0
100
AcDbBlockBegin
  2
CLUMP20
 70
         0
 10
0.0
 20
0.0
 30
0.0
  3

  1

  0
INSERT
  5
148
100
AcDbEntity
  8
0
100
AcDbBlockReference
  2
CLUMP21
 10
0.0
 20
0.0
 30
0.0
  0
ENDBLK
  5
15B
100
AcDbEntity
  8
0
100
AcDbBlockEnd
  0
BLOCK
  5
149
100
AcDbEntity
  8
0
100
AcDbBlockBegin
  2
CLUMP21
 70
         0
 10
0.0
 20
0.0
 30
0.0
  3

  1

  0
ARC
  5
14A
100
AcDbEntity
  8
ﾚｲﾔｰ1
100
AcDbCircle
 10
690.56328125
 20
489.3861979167
 30
0.0
 40
3.2
210
0.0
220
0.0
230
1.0
100
AcDbArc
 50
0.0
 51
90.0
  0
LINE
  5
14B
100
AcDbEntity
  8
ﾚｲﾔｰ1
100
AcDbLine
 10
690.56328125
 20
492.5861979167
 30
0.0
 11
664.96328125
 21
492.5861979167
 31
0.0
  0
LINE
  5
14C
100
AcDbEntity
  8
ﾚｲﾔｰ1
100
AcDbLine
 10
693.76328125
 20
463.7861979167
 30
0.0
 11
693.76328125
 21
489.3861979167
 31
0.0
  0
ARC
  5
14D
100
AcDbEntity
  8
ﾚｲﾔｰ1
100
AcDbCircle
 10
690.56328125
 20
463.7861979167
 30
0.0
 40
3.2
210
0.0
220
0.0
230
1.0
100
AcDbArc
 50
270.0
 51
0.0
  0
LINE
  5
14E
100
AcDbEntity
  8
ﾚｲﾔｰ1
100
AcDbLine
 10
664.96328125
 20
460.5861979167
 30
0.0
 11
690.56328125
 21
460.5861979167
 31
0.0
  0
ARC
  5
14F
100
AcDbEntity
  8
ﾚｲﾔｰ1
100
AcDbCircle
 10
664.96328125
 20
463.7861979167
 30
0.0
 40
3.2
210
0.0
220
0.0
230
1.0
100
AcDbArc
 50
180.0
 51
270.0
  0
LINE
  5
150
100
AcDbEntity
  8
ﾚｲﾔｰ1
100
AcDbLine
 10
661.76328125
 20
489.3861979167
 30
0.0
 11
661.76328125
 21
463.7861979167
 31
0.0
  0
ARC
  5
151
100
AcDbEntity
  8
ﾚｲﾔｰ1
100
AcDbCircle
 10
664.96328125
 20
489.3861979167
 30
0.0
 40
3.2
210
0.0
220
0.0
230
1.0
100
AcDbArc
 50
90.0
 51
180.0
  0
ARC
  5
152
100
AcDbEntity
  8
ﾚｲﾔｰ1
100
AcDbCircle
 10
690.56328125
 20
463.7861979167
 30
0.0
 40
1.6
210
0.0
220
0.0
230
1.0
100
AcDbArc
 50
270.0
 51
0.0
  0
LINE
  5
153
100
AcDbEntity
  8
ﾚｲﾔｰ1
100
AcDbLine
 10
692.16328125
 20
463.7861979167
 30
0.0
 11
692.16328125
 21
489.3861979167
 31
0.0
  0
LINE
  5
154
100
AcDbEntity
  8
ﾚｲﾔｰ1
100
AcDbLine
 10
664.96328125
 20
462.1861979167
 30
0.0
 11
690.56328125
 21
462.1861979167
 31
0.0
  0
ARC
  5
155
100
AcDbEntity
  8
ﾚｲﾔｰ1
100
AcDbCircle
 10
664.96328125
 20
463.7861979167
 30
0.0
 40
1.6
210
0.0
220
0.0
230
1.0
100
AcDbArc
 50
180.0
 51
270.0
  0
LINE
  5
156
100
AcDbEntity
  8
ﾚｲﾔｰ1
100
AcDbLine
 10
663.36328125
 20
489.3861979167
 30
0.0
 11
663.36328125
 21
463.7861979167
 31
0.0
  0
ARC
  5
157
100
AcDbEntity
  8
ﾚｲﾔｰ1
100
AcDbCircle
 10
-690.56328125
 20
489.3861979167
 30
0.0
 40
1.6
210
0.0
220
0.0
230
-1.0
100
AcDbArc
 50
90.0
 51
180.0
  0
LINE
  5
158
100
AcDbEntity
  8
ﾚｲﾔｰ1
100
AcDbLine
 10
690.56328125
 20
490.9861979167
 30
0.0
 11
664.96328125
 21
490.9861979167
 31
0.0
  0
ARC
  5
159
100
AcDbEntity
  8
ﾚｲﾔｰ1
100
AcDbCircle
 10
664.96328125
 20
489.3861979167
 30
0.0
 40
1.6
210
0.0
220
0.0
230
1.0
100
AcDbArc
 50
90.0
 51
180.0
  0
ENDBLK
  5
15A
100
AcDbEntity
  8
0
100
AcDbBlockEnd
  0
BLOCK
  5
15E
100
AcDbEntity
  8
0
100
AcDbBlockBegin
  2
CLUMP22
 70
         0
 10
0.0
 20
0.0
 30
0.0
  3

  1

  0
INSERT
  5
160
100
AcDbEntity
  8
0
100
AcDbBlockReference
  2
CLUMP23
 10
0.0
 20
0.0
 30
0.0
  0
ENDBLK
  5
167
100
AcDbEntity
  8
0
100
AcDbBlockEnd
  0
BLOCK
  5
161
100
AcDbEntity
  8
0
100
AcDbBlockBegin
  2
CLUMP23
 70
         0
 10
0.0
 20
0.0
 30
0.0
  3

  1

  0
LINE
  5
162
100
AcDbEntity
  8
ﾚｲﾔｰ1
100
AcDbLine
 10
587.76328125
 20
492.5861979167
 30
0.0
 11
587.76328125
 21
495.5861979167
 31
0.0
  0
LINE
  5
163
100
AcDbEntity
  8
ﾚｲﾔｰ1
100
AcDbLine
 10
687.76328125
 20
492.5861979167
 30
0.0
 11
587.76328125
 21
492.5861979167
 31
0.0
  0
LINE
  5
164
100
AcDbEntity
  8
ﾚｲﾔｰ1
100
AcDbLine
 10
687.76328125
 20
495.5861979167
 30
0.0
 11
687.76328125
 21
492.5861979167
 31
0.0
  0
LINE
  5
165
100
AcDbEntity
  8
ﾚｲﾔｰ1
100
AcDbLine
 10
587.76328125
 20
495.5861979167
 30
0.0
 11
687.76328125
 21
495.5861979167
 31
0.0
  0
ENDBLK
  5
166
100
AcDbEntity
  8
0
100
AcDbBlockEnd
  0
BLOCK
  5
16A
100
AcDbEntity
  8
0
100
AcDbBlockBegin
  2
CLUMP24
 70
         0
 10
0.0
 20
0.0
 30
0.0
  3

  1

  0
INSERT
  5
16C
100
AcDbEntity
  8
0
100
AcDbBlockReference
  2
CLUMP25
 10
0.0
 20
0.0
 30
0.0
  0
ENDBLK
  5
173
100
AcDbEntity
  8
0
100
AcDbBlockEnd
  0
BLOCK
  5
16D
100
AcDbEntity
  8
0
100
AcDbBlockBegin
  2
CLUMP25
 70
         0
 10
0.0
 20
0.0
 30
0.0
  3

  1

  0
LINE
  5
16E
100
AcDbEntity
  8
ﾚｲﾔｰ1
100
AcDbLine
 10
587.76328125
 20
457.5861979167
 30
0.0
 11
587.76328125
 21
460.5861979167
 31
0.0
  0
LINE
  5
16F
100
AcDbEntity
  8
ﾚｲﾔｰ1
100
AcDbLine
 10
687.76328125
 20
457.5861979167
 30
0.0
 11
587.76328125
 21
457.5861979167
 31
0.0
  0
LINE
  5
170
100
AcDbEntity
  8
ﾚｲﾔｰ1
100
AcDbLine
 10
687.76328125
 20
460.5861979167
 30
0.0
 11
687.76328125
 21
457.5861979167
 31
0.0
  0
LINE
  5
171
100
AcDbEntity
  8
ﾚｲﾔｰ1
100
AcDbLine
 10
587.76328125
 20
460.5861979167
 30
0.0
 11
687.76328125
 21
460.5861979167
 31
0.0
  0
ENDBLK
  5
172
100
AcDbEntity
  8
0
100
AcDbBlockEnd
  0
BLOCK
  5
183
100
AcDbEntity
  8
0
100
AcDbBlockBegin
  2
CLUMP26
 70
         0
 10
0.0
 20
0.0
 30
0.0
  3

  1

  0
INSERT
  5
185
100
AcDbEntity
  8
0
100
AcDbBlockReference
  2
CLUMP27
 10
0.0
 20
0.0
 30
0.0
  0
ENDBLK
  5
18C
100
AcDbEntity
  8
0
100
AcDbBlockEnd
  0
BLOCK
  5
186
100
AcDbEntity
  8
0
100
AcDbBlockBegin
  2
CLUMP27
 70
         0
 10
0.0
 20
0.0
 30
0.0
  3

  1

  0
CIRCLE
  5
187
100
AcDbEntity
  8
ﾚｲﾔｰ1
  6
DIVIDE
 62
         4
100
AcDbCircle
 10
247.99453125
 20
498.5604452396
 30
0.0
 40
0.8
210
0.0
220
0.0
230
1.0
  0
LINE
  5
188
100
AcDbEntity
  8
ﾚｲﾔｰ1
  6
DIVIDE
 62
         4
100
AcDbLine
 10
247.19453125
 20
485.5571967399
 30
0.0
 11
248.79453125
 21
485.5571967399
 31
0.0
  0
LINE
  5
189
100
AcDbEntity
  8
ﾚｲﾔｰ1
  6
DIVIDE
 62
         4
100
AcDbLine
 10
248.79453125
 20
485.5571967399
 30
0.0
 11
248.79453125
 21
498.5604452396
 31
0.0
  0
LINE
  5
18A
100
AcDbEntity
  8
ﾚｲﾔｰ1
  6
DIVIDE
 62
         4
100
AcDbLine
 10
247.19453125
 20
485.5571967399
 30
0.0
 11
247.19453125
 21
498.7604452396
 31
0.0
  0
ENDBLK
  5
18B
100
AcDbEntity
  8
0
100
AcDbBlockEnd
  0
BLOCK
  5
190
100
AcDbEntity
  8
0
100
AcDbBlockBegin
  2
CLUMP28
 70
         0
 10
0.0
 20
0.0
 30
0.0
  3

  1

  0
INSERT
  5
192
100
AcDbEntity
  8
0
100
AcDbBlockReference
  2
CLUMP29
 10
0.0
 20
0.0
 30
0.0
  0
ENDBLK
  5
27B
100
AcDbEntity
  8
0
100
AcDbBlockEnd
  0
BLOCK
  5
193
100
AcDbEntity
  8
0
100
AcDbBlockBegin
  2
CLUMP29
 70
         0
 10
0.0
 20
0.0
 30
0.0
  3

  1

  0
INSERT
  5
195
100
AcDbEntity
  8
0
100
AcDbBlockReference
  2
CLUMP30
 10
0.0
 20
0.0
 30
0.0
  0
INSERT
  5
1E7
100
AcDbEntity
  8
0
100
AcDbBlockReference
  2
CLUMP38
 10
0.0
 20
0.0
 30
0.0
  0
INSERT
  5
217
100
AcDbEntity
  8
0
100
AcDbBlockReference
  2
CLUMP44
 10
0.0
 20
0.0
 30
0.0
  0
INSERT
  5
261
100
AcDbEntity
  8
0
100
AcDbBlockReference
  2
CLUMP52
 10
0.0
 20
0.0
 30
0.0
  0
INSERT
  5
26D
100
AcDbEntity
  8
0
100
AcDbBlockReference
  2
CLUMP54
 10
0.0
 20
0.0
 30
0.0
  0
LINE
  5
278
100
AcDbEntity
  8
ﾚｲﾔｰ1
  6
DIVIDE
 62
         4
100
AcDbLine
 10
74.62053125
 20
375.9412493662
 30
0.0
 11
251.16853125
 21
375.9412493662
 31
0.0
  0
LINE
  5
279
100
AcDbEntity
  8
ﾚｲﾔｰ1
  6
DIVIDE
 62
         4
100
AcDbLine
 10
74.62053125
 20
385.6612493662
 30
0.0
 11
251.16853125
 21
385.6612493662
 31
0.0
  0
ENDBLK
  5
27A
100
AcDbEntity
  8
0
100
AcDbBlockEnd
  0
BLOCK
  5
196
100
AcDbEntity
  8
0
100
AcDbBlockBegin
  2
CLUMP30
 70
         0
 10
0.0
 20
0.0
 30
0.0
  3

  1

  0
INSERT
  5
198
100
AcDbEntity
  8
0
100
AcDbBlockReference
  2
CLUMP31
 10
0.0
 20
0.0
 30
0.0
  0
ENDBLK
  5
1E5
100
AcDbEntity
  8
0
100
AcDbBlockEnd
  0
BLOCK
  5
199
100
AcDbEntity
  8
0
100
AcDbBlockBegin
  2
CLUMP31
 70
         0
 10
0.0
 20
0.0
 30
0.0
  3

  1

  0
INSERT
  5
19B
100
AcDbEntity
  8
0
100
AcDbBlockReference
  2
CLUMP32
 10
0.0
 20
0.0
 30
0.0
  0
INSERT
  5
1AB
100
AcDbEntity
  8
0
100
AcDbBlockReference
  2
CLUMP34
 10
0.0
 20
0.0
 30
0.0
  0
LINE
  5
1BA
100
AcDbEntity
  8
ﾚｲﾔｰ1
  6
DIVIDE
 62
         4
100
AcDbLine
 10
82.59453125
 20
485.5571967399
 30
0.0
 11
156.89453125
 21
485.5571967399
 31
0.0
  0
LINE
  5
1BB
100
AcDbEntity
  8
ﾚｲﾔｰ1
  6
DIVIDE
 62
         4
100
AcDbLine
 10
156.89453125
 20
135.5571967399
 30
0.0
 11
82.59453125
 21
135.5571967399
 31
0.0
  0
LINE
  5
1BC
100
AcDbEntity
  8
ﾚｲﾔｰ1
  6
DIVIDE
 62
         4
100
AcDbLine
 10
82.59453125
 20
135.5571967399
 30
0.0
 11
82.59453125
 21
485.5571967399
 31
0.0
  0
LINE
  5
1BD
100
AcDbEntity
  8
ﾚｲﾔｰ1
  6
DIVIDE
 62
         4
100
AcDbLine
 10
77.59453125
 20
490.5571967399
 30
0.0
 11
161.89453125
 21
490.5571967399
 31
0.0
  0
LINE
  5
1BE
100
AcDbEntity
  8
ﾚｲﾔｰ1
  6
DIVIDE
 62
         4
100
AcDbLine
 10
161.89453125
 20
130.5571967399
 30
0.0
 11
77.59453125
 21
130.5571967399
 31
0.0
  0
LINE
  5
1BF
100
AcDbEntity
  8
ﾚｲﾔｰ1
  6
DIVIDE
 62
         4
100
AcDbLine
 10
77.59453125
 20
130.5571967399
 30
0.0
 11
77.59453125
 21
490.5571967399
 31
0.0
  0
LINE
  5
1C0
100
AcDbEntity
  8
ﾚｲﾔｰ1
  6
DIVIDE
 62
         4
100
AcDbLine
 10
161.89453125
 20
490.5571967399
 30
0.0
 11
161.89453125
 21
130.5571967399
 31
0.0
  0
LINE
  5
1C1
100
AcDbEntity
  8
ﾚｲﾔｰ1
  6
DIVIDE
 62
         4
100
AcDbLine
 10
156.89453125
 20
485.5571967399
 30
0.0
 11
156.89453125
 21
135.5571967399
 31
0.0
  0
INSERT
  5
1C3
100
AcDbEntity
  8
0
100
AcDbBlockReference
  2
CLUMP36
 10
0.0
 20
0.0
 30
0.0
  0
ENDBLK
  5
1E4
100
AcDbEntity
  8
0
100
AcDbBlockEnd
  0
BLOCK
  5
19C
100
AcDbEntity
  8
0
100
AcDbBlockBegin
  2
CLUMP32
 70
         0
 10
0.0
 20
0.0
 30
0.0
  3

  1

  0
INSERT
  5
19E
100
AcDbEntity
  8
0
100
AcDbBlockReference
  2
CLUMP33
 10
0.0
 20
0.0
 30
0.0
  0
ENDBLK
  5
1A9
100
AcDbEntity
  8
0
100
AcDbBlockEnd
  0
BLOCK
  5
19F
100
AcDbEntity
  8
0
100
AcDbBlockBegin
  2
CLUMP33
 70
         0
 10
0.0
 20
0.0
 30
0.0
  3

  1

  0
LINE
  5
1A0
100
AcDbEntity
  8
ﾚｲﾔｰ1
  6
DIVIDE
 62
         4
100
AcDbLine
 10
74.1945312501
 20
164.5571967399
 30
0.0
 11
74.1945312501
 21
160.5571967399
 31
0.0
  0
LINE
  5
1A1
100
AcDbEntity
  8
ﾚｲﾔｰ1
  6
DIVIDE
 62
         4
100
AcDbLine
 10
74.5145312501
 20
164.5571967399
 30
0.0
 11
74.5145312501
 21
160.5571967399
 31
0.0
  0
LINE
  5
1A2
100
AcDbEntity
  8
ﾚｲﾔｰ1
  6
DIVIDE
 62
         4
100
AcDbLine
 10
77.59453125
 20
164.5571967399
 30
0.0
 11
77.59453125
 21
160.5571967399
 31
0.0
  0
LINE
  5
1A3
100
AcDbEntity
  8
ﾚｲﾔｰ1
  6
DIVIDE
 62
         4
100
AcDbLine
 10
77.27453125
 20
164.5571967399
 30
0.0
 11
77.27453125
 21
160.5571967399
 31
0.0
  0
LINE
  5
1A4
100
AcDbEntity
  8
ﾚｲﾔｰ1
  6
DIVIDE
 62
         4
100
AcDbLine
 10
77.59453125
 20
164.5571967399
 30
0.0
 11
77.59453125
 21
160.5571967399
 31
0.0
  0
LINE
  5
1A5
100
AcDbEntity
  8
ﾚｲﾔｰ1
  6
DIVIDE
 62
         4
100
AcDbLine
 10
74.1945312501
 20
164.5571967399
 30
0.0
 11
77.59453125
 21
164.5571967399
 31
0.0
  0
LINE
  5
1A6
100
AcDbEntity
  8
ﾚｲﾔｰ1
  6
DIVIDE
 62
         4
100
AcDbLine
 10
75.89453125
 20
165.9019720711
 30
0.0
 11
75.89453125
 21
159.2124214087
 31
0.0
  0
LINE
  5
1A7
100
AcDbEntity
  8
ﾚｲﾔｰ1
  6
DIVIDE
 62
         4
100
AcDbLine
 10
77.59453125
 20
160.5571967399
 30
0.0
 11
74.1945312501
 21
160.5571967399
 31
0.0
  0
ENDBLK
  5
1A8
100
AcDbEntity
  8
0
100
AcDbBlockEnd
  0
BLOCK
  5
1AC
100
AcDbEntity
  8
0
100
AcDbBlockBegin
  2
CLUMP34
 70
         0
 10
0.0
 20
0.0
 30
0.0
  3

  1

  0
INSERT
  5
1AE
100
AcDbEntity
  8
0
100
AcDbBlockReference
  2
CLUMP35
 10
0.0
 20
0.0
 30
0.0
  0
ENDBLK
  5
1B9
100
AcDbEntity
  8
0
100
AcDbBlockEnd
  0
BLOCK
  5
1AF
100
AcDbEntity
  8
0
100
AcDbBlockBegin
  2
CLUMP35
 70
         0
 10
0.0
 20
0.0
 30
0.0
  3

  1

  0
LINE
  5
1B0
100
AcDbEntity
  8
ﾚｲﾔｰ1
  6
DIVIDE
 62
         4
100
AcDbLine
 10
74.1945312501
 20
456.5571967399
 30
0.0
 11
74.1945312501
 21
460.5571967399
 31
0.0
  0
LINE
  5
1B1
100
AcDbEntity
  8
ﾚｲﾔｰ1
  6
DIVIDE
 62
         4
100
AcDbLine
 10
74.5145312501
 20
456.5571967399
 30
0.0
 11
74.5145312501
 21
460.5571967399
 31
0.0
  0
LINE
  5
1B2
100
AcDbEntity
  8
ﾚｲﾔｰ1
  6
DIVIDE
 62
         4
100
AcDbLine
 10
77.59453125
 20
456.5571967399
 30
0.0
 11
77.59453125
 21
460.5571967399
 31
0.0
  0
LINE
  5
1B3
100
AcDbEntity
  8
ﾚｲﾔｰ1
  6
DIVIDE
 62
         4
100
AcDbLine
 10
77.27453125
 20
456.5571967399
 30
0.0
 11
77.27453125
 21
460.5571967399
 31
0.0
  0
LINE
  5
1B4
100
AcDbEntity
  8
ﾚｲﾔｰ1
  6
DIVIDE
 62
         4
100
AcDbLine
 10
77.59453125
 20
456.5571967399
 30
0.0
 11
77.59453125
 21
460.5571967399
 31
0.0
  0
LINE
  5
1B5
100
AcDbEntity
  8
ﾚｲﾔｰ1
  6
DIVIDE
 62
         4
100
AcDbLine
 10
74.1945312501
 20
456.5571967399
 30
0.0
 11
77.59453125
 21
456.5571967399
 31
0.0
  0
LINE
  5
1B6
100
AcDbEntity
  8
ﾚｲﾔｰ1
  6
DIVIDE
 62
         4
100
AcDbLine
 10
75.89453125
 20
455.2124214087
 30
0.0
 11
75.89453125
 21
461.9019720711
 31
0.0
  0
LINE
  5
1B7
100
AcDbEntity
  8
ﾚｲﾔｰ1
  6
DIVIDE
 62
         4
100
AcDbLine
 10
77.59453125
 20
460.5571967399
 30
0.0
 11
74.1945312501
 21
460.5571967399
 31
0.0
  0
ENDBLK
  5
1B8
100
AcDbEntity
  8
0
100
AcDbBlockEnd
  0
BLOCK
  5
1C4
100
AcDbEntity
  8
0
100
AcDbBlockBegin
  2
CLUMP36
 70
         0
 10
0.0
 20
0.0
 30
0.0
  3

  1

  0
INSERT
  5
1C6
100
AcDbEntity
  8
0
100
AcDbBlockReference
  2
CLUMP37
 10
0.0
 20
0.0
 30
0.0
  0
ENDBLK
  5
1E3
100
AcDbEntity
  8
0
100
AcDbBlockEnd
  0
BLOCK
  5
1C7
100
AcDbEntity
  8
0
100
AcDbBlockBegin
  2
CLUMP37
 70
         0
 10
0.0
 20
0.0
 30
0.0
  3

  1

  0
LINE
  5
1C8
100
AcDbEntity
  8
ﾚｲﾔｰ1
  6
DIVIDE
 62
         4
100
AcDbLine
 10
162.89453125
 20
472.7571967399
 30
0.0
 11
161.89453125
 21
472.7571967399
 31
0.0
  0
LINE
  5
1C9
100
AcDbEntity
  8
ﾚｲﾔｰ1
  6
DIVIDE
 62
         4
100
AcDbLine
 10
162.89453125
 20
171.2571967399
 30
0.0
 11
161.89453125
 21
171.2571967399
 31
0.0
  0
LINE
  5
1CA
100
AcDbEntity
  8
ﾚｲﾔｰ1
  6
DIVIDE
 62
         4
100
AcDbLine
 10
162.89453125
 20
171.7571967399
 30
0.0
 11
161.89453125
 21
171.7571967399
 31
0.0
  0
LINE
  5
1CB
100
AcDbEntity
  8
ﾚｲﾔｰ1
  6
DIVIDE
 62
         4
100
AcDbLine
 10
162.89453125
 20
168.7571967399
 30
0.0
 11
161.89453125
 21
168.7571967399
 31
0.0
  0
LINE
  5
1CC
100
AcDbEntity
  8
ﾚｲﾔｰ1
  6
DIVIDE
 62
         4
100
AcDbLine
 10
162.89453125
 20
159.2571967399
 30
0.0
 11
161.89453125
 21
159.2571967399
 31
0.0
  0
LINE
  5
1CD
100
AcDbEntity
  8
ﾚｲﾔｰ1
  6
DIVIDE
 62
         4
100
AcDbLine
 10
162.89453125
 20
162.2571967399
 30
0.0
 11
161.89453125
 21
162.2571967399
 31
0.0
  0
LINE
  5
1CE
100
AcDbEntity
  8
ﾚｲﾔｰ1
  6
DIVIDE
 62
         4
100
AcDbLine
 10
162.89453125
 20
165.2571967399
 30
0.0
 11
161.89453125
 21
165.2571967399
 31
0.0
  0
LINE
  5
1CF
100
AcDbEntity
  8
ﾚｲﾔｰ1
  6
DIVIDE
 62
         4
100
AcDbLine
 10
161.89453125
 20
162.7571967399
 30
0.0
 11
161.89453125
 21
177.7571967399
 31
0.0
  0
LINE
  5
1D0
100
AcDbEntity
  8
ﾚｲﾔｰ1
  6
DIVIDE
 62
         4
100
AcDbLine
 10
161.89453125
 20
174.2571967399
 30
0.0
 11
162.89453125
 21
174.2571967399
 31
0.0
  0
LINE
  5
1D1
100
AcDbEntity
  8
ﾚｲﾔｰ1
  6
DIVIDE
 62
         4
100
AcDbLine
 10
161.89453125
 20
177.7571967399
 30
0.0
 11
162.89453125
 21
177.7571967399
 31
0.0
  0
LINE
  5
1D2
100
AcDbEntity
  8
ﾚｲﾔｰ1
  6
DIVIDE
 62
         4
100
AcDbLine
 10
162.89453125
 20
177.7571967399
 30
0.0
 11
162.89453125
 21
162.7571967399
 31
0.0
  0
LINE
  5
1D3
100
AcDbEntity
  8
ﾚｲﾔｰ1
  6
DIVIDE
 62
         4
100
AcDbLine
 10
162.89453125
 20
162.7571967399
 30
0.0
 11
161.89453125
 21
162.7571967399
 31
0.0
  0
LINE
  5
1D4
100
AcDbEntity
  8
ﾚｲﾔｰ1
  6
DIVIDE
 62
         4
100
AcDbLine
 10
162.89453125
 20
165.7571967399
 30
0.0
 11
161.89453125
 21
165.7571967399
 31
0.0
  0
LINE
  5
1D5
100
AcDbEntity
  8
ﾚｲﾔｰ1
  6
DIVIDE
 62
         4
100
AcDbLine
 10
161.89453125
 20
159.2571967399
 30
0.0
 11
161.89453125
 21
174.2571967399
 31
0.0
  0
LINE
  5
1D6
100
AcDbEntity
  8
ﾚｲﾔｰ1
  6
DIVIDE
 62
         4
100
AcDbLine
 10
162.89453125
 20
174.7571967399
 30
0.0
 11
161.89453125
 21
174.7571967399
 31
0.0
  0
LINE
  5
1D7
100
AcDbEntity
  8
ﾚｲﾔｰ1
  6
DIVIDE
 62
         4
100
AcDbLine
 10
162.89453125
 20
168.2571967399
 30
0.0
 11
161.89453125
 21
168.2571967399
 31
0.0
  0
LINE
  5
1D8
100
AcDbEntity
  8
ﾚｲﾔｰ1
  6
DIVIDE
 62
         4
100
AcDbLine
 10
162.39453125
 20
179.2571967399
 30
0.0
 11
162.39453125
 21
155.8149865795
 31
0.0
  0
LINE
  5
1D9
100
AcDbEntity
  8
ﾚｲﾔｰ1
  6
DIVIDE
 62
         4
100
AcDbLine
 10
162.89453125
 20
174.2571967399
 30
0.0
 11
162.89453125
 21
159.2571967399
 31
0.0
  0
LINE
  5
1DA
100
AcDbEntity
  8
ﾚｲﾔｰ1
  6
DIVIDE
 62
         4
100
AcDbLine
 10
162.39453125
 20
483.2571967399
 30
0.0
 11
162.39453125
 21
465.2571967399
 31
0.0
  0
LINE
  5
1DB
100
AcDbEntity
  8
ﾚｲﾔｰ1
  6
DIVIDE
 62
         4
100
AcDbLine
 10
161.89453125
 20
466.7571967399
 30
0.0
 11
161.89453125
 21
481.7571967399
 31
0.0
  0
LINE
  5
1DC
100
AcDbEntity
  8
ﾚｲﾔｰ1
  6
DIVIDE
 62
         4
100
AcDbLine
 10
162.89453125
 20
481.7571967399
 30
0.0
 11
162.89453125
 21
466.7571967399
 31
0.0
  0
LINE
  5
1DD
100
AcDbEntity
  8
ﾚｲﾔｰ1
  6
DIVIDE
 62
         4
100
AcDbLine
 10
162.89453125
 20
466.7571967399
 30
0.0
 11
161.89453125
 21
466.7571967399
 31
0.0
  0
LINE
  5
1DE
100
AcDbEntity
  8
ﾚｲﾔｰ1
  6
DIVIDE
 62
         4
100
AcDbLine
 10
162.89453125
 20
469.7571967399
 30
0.0
 11
161.89453125
 21
469.7571967399
 31
0.0
  0
LINE
  5
1DF
100
AcDbEntity
  8
ﾚｲﾔｰ1
  6
DIVIDE
 62
         4
100
AcDbLine
 10
162.89453125
 20
475.7571967399
 30
0.0
 11
161.89453125
 21
475.7571967399
 31
0.0
  0
LINE
  5
1E0
100
AcDbEntity
  8
ﾚｲﾔｰ1
  6
DIVIDE
 62
         4
100
AcDbLine
 10
162.89453125
 20
478.7571967399
 30
0.0
 11
161.89453125
 21
478.7571967399
 31
0.0
  0
LINE
  5
1E1
100
AcDbEntity
  8
ﾚｲﾔｰ1
  6
DIVIDE
 62
         4
100
AcDbLine
 10
161.89453125
 20
481.7571967399
 30
0.0
 11
162.89453125
 21
481.7571967399
 31
0.0
  0
ENDBLK
  5
1E2
100
AcDbEntity
  8
0
100
AcDbBlockEnd
  0
BLOCK
  5
1E8
100
AcDbEntity
  8
0
100
AcDbBlockBegin
  2
CLUMP38
 70
         0
 10
0.0
 20
0.0
 30
0.0
  3

  1

  0
INSERT
  5
1EA
100
AcDbEntity
  8
0
100
AcDbBlockReference
  2
CLUMP39
 10
0.0
 20
0.0
 30
0.0
  0
ENDBLK
  5
215
100
AcDbEntity
  8
0
100
AcDbBlockEnd
  0
BLOCK
  5
1EB
100
AcDbEntity
  8
0
100
AcDbBlockBegin
  2
CLUMP39
 70
         0
 10
0.0
 20
0.0
 30
0.0
  3

  1

  0
INSERT
  5
1ED
100
AcDbEntity
  8
0
100
AcDbBlockReference
  2
CLUMP40
 10
0.0
 20
0.0
 30
0.0
  0
INSERT
  5
1FD
100
AcDbEntity
  8
0
100
AcDbBlockReference
  2
CLUMP42
 10
0.0
 20
0.0
 30
0.0
  0
LINE
  5
20C
100
AcDbEntity
  8
ﾚｲﾔｰ1
  6
DIVIDE
 62
         4
100
AcDbLine
 10
247.19453125
 20
130.5571967399
 30
0.0
 11
162.89453125
 21
130.5571967399
 31
0.0
  0
LINE
  5
20D
100
AcDbEntity
  8
ﾚｲﾔｰ1
  6
DIVIDE
 62
         4
100
AcDbLine
 10
247.19453125
 20
490.5571967399
 30
0.0
 11
247.19453125
 21
130.5571967399
 31
0.0
  0
LINE
  5
20E
100
AcDbEntity
  8
ﾚｲﾔｰ1
  6
DIVIDE
 62
         4
100
AcDbLine
 10
162.89453125
 20
490.5571967399
 30
0.0
 11
247.19453125
 21
490.5571967399
 31
0.0
  0
LINE
  5
20F
100
AcDbEntity
  8
ﾚｲﾔｰ1
  6
DIVIDE
 62
         4
100
AcDbLine
 10
242.19453125
 20
135.5571967399
 30
0.0
 11
167.89453125
 21
135.5571967399
 31
0.0
  0
LINE
  5
210
100
AcDbEntity
  8
ﾚｲﾔｰ1
  6
DIVIDE
 62
         4
100
AcDbLine
 10
242.19453125
 20
485.5571967399
 30
0.0
 11
242.19453125
 21
135.5571967399
 31
0.0
  0
LINE
  5
211
100
AcDbEntity
  8
ﾚｲﾔｰ1
  6
DIVIDE
 62
         4
100
AcDbLine
 10
167.89453125
 20
485.5571967399
 30
0.0
 11
242.19453125
 21
485.5571967399
 31
0.0
  0
LINE
  5
212
100
AcDbEntity
  8
ﾚｲﾔｰ1
  6
DIVIDE
 62
         4
100
AcDbLine
 10
167.89453125
 20
135.5571967399
 30
0.0
 11
167.89453125
 21
485.5571967399
 31
0.0
  0
LINE
  5
213
100
AcDbEntity
  8
ﾚｲﾔｰ1
  6
DIVIDE
 62
         4
100
AcDbLine
 10
162.89453125
 20
130.5571967399
 30
0.0
 11
162.89453125
 21
490.5571967399
 31
0.0
  0
ENDBLK
  5
214
100
AcDbEntity
  8
0
100
AcDbBlockEnd
  0
BLOCK
  5
1EE
100
AcDbEntity
  8
0
100
AcDbBlockBegin
  2
CLUMP40
 70
         0
 10
0.0
 20
0.0
 30
0.0
  3

  1

  0
INSERT
  5
1F0
100
AcDbEntity
  8
0
100
AcDbBlockReference
  2
CLUMP41
 10
0.0
 20
0.0
 30
0.0
  0
ENDBLK
  5
1FB
100
AcDbEntity
  8
0
100
AcDbBlockEnd
  0
BLOCK
  5
1F1
100
AcDbEntity
  8
0
100
AcDbBlockBegin
  2
CLUMP41
 70
         0
 10
0.0
 20
0.0
 30
0.0
  3

  1

  0
LINE
  5
1F2
100
AcDbEntity
  8
ﾚｲﾔｰ1
  6
DIVIDE
 62
         4
100
AcDbLine
 10
250.5945312499
 20
164.5571967399
 30
0.0
 11
250.5945312499
 21
160.5571967399
 31
0.0
  0
LINE
  5
1F3
100
AcDbEntity
  8
ﾚｲﾔｰ1
  6
DIVIDE
 62
         4
100
AcDbLine
 10
250.2745312499
 20
164.5571967399
 30
0.0
 11
250.2745312499
 21
160.5571967399
 31
0.0
  0
LINE
  5
1F4
100
AcDbEntity
  8
ﾚｲﾔｰ1
  6
DIVIDE
 62
         4
100
AcDbLine
 10
247.19453125
 20
164.5571967399
 30
0.0
 11
247.19453125
 21
160.5571967399
 31
0.0
  0
LINE
  5
1F5
100
AcDbEntity
  8
ﾚｲﾔｰ1
  6
DIVIDE
 62
         4
100
AcDbLine
 10
247.51453125
 20
164.5571967399
 30
0.0
 11
247.51453125
 21
160.5571967399
 31
0.0
  0
LINE
  5
1F6
100
AcDbEntity
  8
ﾚｲﾔｰ1
  6
DIVIDE
 62
         4
100
AcDbLine
 10
247.19453125
 20
164.5571967399
 30
0.0
 11
247.19453125
 21
160.5571967399
 31
0.0
  0
LINE
  5
1F7
100
AcDbEntity
  8
ﾚｲﾔｰ1
  6
DIVIDE
 62
         4
100
AcDbLine
 10
250.5945312499
 20
164.5571967399
 30
0.0
 11
247.19453125
 21
164.5571967399
 31
0.0
  0
LINE
  5
1F8
100
AcDbEntity
  8
ﾚｲﾔｰ1
  6
DIVIDE
 62
         4
100
AcDbLine
 10
248.89453125
 20
165.9019720711
 30
0.0
 11
248.89453125
 21
159.2124214087
 31
0.0
  0
LINE
  5
1F9
100
AcDbEntity
  8
ﾚｲﾔｰ1
  6
DIVIDE
 62
         4
100
AcDbLine
 10
247.19453125
 20
160.5571967399
 30
0.0
 11
250.5945312499
 21
160.5571967399
 31
0.0
  0
ENDBLK
  5
1FA
100
AcDbEntity
  8
0
100
AcDbBlockEnd
  0
BLOCK
  5
1FE
100
AcDbEntity
  8
0
100
AcDbBlockBegin
  2
CLUMP42
 70
         0
 10
0.0
 20
0.0
 30
0.0
  3

  1

  0
INSERT
  5
200
100
AcDbEntity
  8
0
100
AcDbBlockReference
  2
CLUMP43
 10
0.0
 20
0.0
 30
0.0
  0
ENDBLK
  5
20B
100
AcDbEntity
  8
0
100
AcDbBlockEnd
  0
BLOCK
  5
201
100
AcDbEntity
  8
0
100
AcDbBlockBegin
  2
CLUMP43
 70
         0
 10
0.0
 20
0.0
 30
0.0
  3

  1

  0
LINE
  5
202
100
AcDbEntity
  8
ﾚｲﾔｰ1
  6
DIVIDE
 62
         4
100
AcDbLine
 10
250.5945312499
 20
456.5571967399
 30
0.0
 11
250.5945312499
 21
460.5571967399
 31
0.0
  0
LINE
  5
203
100
AcDbEntity
  8
ﾚｲﾔｰ1
  6
DIVIDE
 62
         4
100
AcDbLine
 10
250.2745312499
 20
456.5571967399
 30
0.0
 11
250.2745312499
 21
460.5571967399
 31
0.0
  0
LINE
  5
204
100
AcDbEntity
  8
ﾚｲﾔｰ1
  6
DIVIDE
 62
         4
100
AcDbLine
 10
247.19453125
 20
456.5571967399
 30
0.0
 11
247.19453125
 21
460.5571967399
 31
0.0
  0
LINE
  5
205
100
AcDbEntity
  8
ﾚｲﾔｰ1
  6
DIVIDE
 62
         4
100
AcDbLine
 10
247.51453125
 20
456.5571967399
 30
0.0
 11
247.51453125
 21
460.5571967399
 31
0.0
  0
LINE
  5
206
100
AcDbEntity
  8
ﾚｲﾔｰ1
  6
DIVIDE
 62
         4
100
AcDbLine
 10
247.19453125
 20
456.5571967399
 30
0.0
 11
247.19453125
 21
460.5571967399
 31
0.0
  0
LINE
  5
207
100
AcDbEntity
  8
ﾚｲﾔｰ1
  6
DIVIDE
 62
         4
100
AcDbLine
 10
250.5945312499
 20
456.5571967399
 30
0.0
 11
247.19453125
 21
456.5571967399
 31
0.0
  0
LINE
  5
208
100
AcDbEntity
  8
ﾚｲﾔｰ1
  6
DIVIDE
 62
         4
100
AcDbLine
 10
248.89453125
 20
455.2124214087
 30
0.0
 11
248.89453125
 21
461.9019720711
 31
0.0
  0
LINE
  5
209
100
AcDbEntity
  8
ﾚｲﾔｰ1
  6
DIVIDE
 62
         4
100
AcDbLine
 10
247.19453125
 20
460.5571967399
 30
0.0
 11
250.5945312499
 21
460.5571967399
 31
0.0
  0
ENDBLK
  5
20A
100
AcDbEntity
  8
0
100
AcDbBlockEnd
  0
BLOCK
  5
218
100
AcDbEntity
  8
0
100
AcDbBlockBegin
  2
CLUMP44
 70
         0
 10
0.0
 20
0.0
 30
0.0
  3

  1

  0
INSERT
  5
21A
100
AcDbEntity
  8
0
100
AcDbBlockReference
  2
CLUMP45
 10
0.0
 20
0.0
 30
0.0
  0
ENDBLK
  5
25F
100
AcDbEntity
  8
0
100
AcDbBlockEnd
  0
BLOCK
  5
21B
100
AcDbEntity
  8
0
100
AcDbBlockBegin
  2
CLUMP45
 70
         0
 10
0.0
 20
0.0
 30
0.0
  3

  1

  0
INSERT
  5
21D
100
AcDbEntity
  8
0
100
AcDbBlockReference
  2
CLUMP46
 10
0.0
 20
0.0
 30
0.0
  0
INSERT
  5
233
100
AcDbEntity
  8
0
100
AcDbBlockReference
  2
CLUMP48
 10
0.0
 20
0.0
 30
0.0
  0
LINE
  5
248
100
AcDbEntity
  8
ﾚｲﾔｰ1
  6
DIVIDE
 62
         4
100
AcDbLine
 10
77.59453125
 20
490.5571967399
 30
0.0
 11
67.19453125
 21
490.5571967399
 31
0.0
  0
LINE
  5
249
100
AcDbEntity
  8
ﾚｲﾔｰ1
  6
DIVIDE
 62
         4
100
AcDbLine
 10
67.19453125
 20
490.5571967399
 30
0.0
 11
67.19453125
 21
130.5571967399
 31
0.0
  0
LINE
  5
24A
100
AcDbEntity
  8
ﾚｲﾔｰ1
  6
DIVIDE
 62
         4
100
AcDbLine
 10
77.59453125
 20
490.5571967399
 30
0.0
 11
77.59453125
 21
130.5571967399
 31
0.0
  0
LINE
  5
24B
100
AcDbEntity
  8
ﾚｲﾔｰ1
  6
DIVIDE
 62
         4
100
AcDbLine
 10
78.39453125
 20
124.5571967399
 30
0.0
 11
78.39453125
 21
130.5571967399
 31
0.0
  0
LINE
  5
24C
100
AcDbEntity
  8
ﾚｲﾔｰ1
  6
DIVIDE
 62
         4
100
AcDbLine
 10
66.39453125
 20
130.5571967399
 30
0.0
 11
66.39453125
 21
124.5571967399
 31
0.0
  0
LINE
  5
24D
100
AcDbEntity
  8
ﾚｲﾔｰ1
  6
DIVIDE
 62
         4
100
AcDbLine
 10
66.39453125
 20
124.5571967399
 30
0.0
 11
78.39453125
 21
124.5571967399
 31
0.0
  0
LINE
  5
24E
100
AcDbEntity
  8
ﾚｲﾔｰ1
  6
DIVIDE
 62
         4
100
AcDbLine
 10
66.39453125
 20
130.5571967399
 30
0.0
 11
67.19453125
 21
130.5571967399
 31
0.0
  0
LINE
  5
24F
100
AcDbEntity
  8
ﾚｲﾔｰ1
  6
DIVIDE
 62
         4
100
AcDbLine
 10
77.59453125
 20
130.5571967399
 30
0.0
 11
78.39453125
 21
130.5571967399
 31
0.0
  0
LINE
  5
250
100
AcDbEntity
  8
ﾚｲﾔｰ1
  6
DIVIDE
 62
         4
100
AcDbLine
 10
70.17203125
 20
144.5571967399
 30
0.0
 11
74.61703125
 21
144.5571967399
 31
0.0
  0
LINE
  5
251
100
AcDbEntity
  8
ﾚｲﾔｰ1
  6
DIVIDE
 62
         4
100
AcDbLine
 10
72.39453125
 20
142.3908767826
 30
0.0
 11
72.39453125
 21
146.7235166971
 31
0.0
  0
INSERT
  5
253
100
AcDbEntity
  8
0
100
AcDbBlockReference
  2
CLUMP50
 10
0.0
 20
0.0
 30
0.0
  0
ENDBLK
  5
25E
100
AcDbEntity
  8
0
100
AcDbBlockEnd
  0
BLOCK
  5
21E
100
AcDbEntity
  8
0
100
AcDbBlockBegin
  2
CLUMP46
 70
         0
 10
0.0
 20
0.0
 30
0.0
  3

  1

  0
INSERT
  5
220
100
AcDbEntity
  8
0
100
AcDbBlockReference
  2
CLUMP47
 10
0.0
 20
0.0
 30
0.0
  0
ENDBLK
  5
231
100
AcDbEntity
  8
0
100
AcDbBlockEnd
  0
BLOCK
  5
221
100
AcDbEntity
  8
0
100
AcDbBlockBegin
  2
CLUMP47
 70
         0
 10
0.0
 20
0.0
 30
0.0
  3

  1

  0
LINE
  5
222
100
AcDbEntity
  8
ﾚｲﾔｰ1
  6
DIVIDE
 62
         4
100
AcDbLine
 10
67.19453125
 20
155.5571967399
 30
0.0
 11
67.19453125
 21
159.5571967399
 31
0.0
  0
LINE
  5
223
100
AcDbEntity
  8
ﾚｲﾔｰ1
  6
DIVIDE
 62
         4
100
AcDbLine
 10
75.89453125
 20
154.3161970924
 30
0.0
 11
75.89453125
 21
161.0057477548
 31
0.0
  0
LINE
  5
224
100
AcDbEntity
  8
ﾚｲﾔｰ1
  6
DIVIDE
 62
         4
100
AcDbLine
 10
77.27453125
 20
155.5571967399
 30
0.0
 11
77.27453125
 21
159.5571967399
 31
0.0
  0
LINE
  5
225
100
AcDbEntity
  8
ﾚｲﾔｰ1
  6
DIVIDE
 62
         4
100
AcDbLine
 10
77.59453125
 20
155.5571967399
 30
0.0
 11
77.59453125
 21
159.5571967399
 31
0.0
  0
LINE
  5
226
100
AcDbEntity
  8
ﾚｲﾔｰ1
  6
DIVIDE
 62
         4
100
AcDbLine
 10
68.89453125
 20
154.3161970924
 30
0.0
 11
68.89453125
 21
161.0057477548
 31
0.0
  0
LINE
  5
227
100
AcDbEntity
  8
ﾚｲﾔｰ1
  6
DIVIDE
 62
         4
100
AcDbLine
 10
74.47453125
 20
155.5571967399
 30
0.0
 11
74.47453125
 21
159.5571967399
 31
0.0
  0
LINE
  5
228
100
AcDbEntity
  8
ﾚｲﾔｰ1
  6
DIVIDE
 62
         4
100
AcDbLine
 10
70.59453125
 20
159.5571967399
 30
0.0
 11
70.59453125
 21
155.5571967399
 31
0.0
  0
LINE
  5
229
100
AcDbEntity
  8
ﾚｲﾔｰ1
  6
DIVIDE
 62
         4
100
AcDbLine
 10
67.19453125
 20
159.5571967399
 30
0.0
 11
70.59453125
 21
159.5571967399
 31
0.0
  0
LINE
  5
22A
100
AcDbEntity
  8
ﾚｲﾔｰ1
  6
DIVIDE
 62
         4
100
AcDbLine
 10
70.27453125
 20
159.5571967399
 30
0.0
 11
70.27453125
 21
155.5571967399
 31
0.0
  0
LINE
  5
22B
100
AcDbEntity
  8
ﾚｲﾔｰ1
  6
DIVIDE
 62
         4
100
AcDbLine
 10
74.19453125
 20
155.5571967399
 30
0.0
 11
77.59453125
 21
155.5571967399
 31
0.0
  0
LINE
  5
22C
100
AcDbEntity
  8
ﾚｲﾔｰ1
  6
DIVIDE
 62
         4
100
AcDbLine
 10
67.51453125
 20
155.5571967399
 30
0.0
 11
67.51453125
 21
159.5571967399
 31
0.0
  0
LINE
  5
22D
100
AcDbEntity
  8
ﾚｲﾔｰ1
  6
DIVIDE
 62
         4
100
AcDbLine
 10
70.59453125
 20
155.5571967399
 30
0.0
 11
67.19453125
 21
155.5571967399
 31
0.0
  0
LINE
  5
22E
100
AcDbEntity
  8
ﾚｲﾔｰ1
  6
DIVIDE
 62
         4
100
AcDbLine
 10
74.19453125
 20
159.5571967399
 30
0.0
 11
74.19453125
 21
155.5571967399
 31
0.0
  0
LINE
  5
22F
100
AcDbEntity
  8
ﾚｲﾔｰ1
  6
DIVIDE
 62
         4
100
AcDbLine
 10
77.59453125
 20
159.5571967399
 30
0.0
 11
74.19453125
 21
159.5571967399
 31
0.0
  0
ENDBLK
  5
230
100
AcDbEntity
  8
0
100
AcDbBlockEnd
  0
BLOCK
  5
234
100
AcDbEntity
  8
0
100
AcDbBlockBegin
  2
CLUMP48
 70
         0
 10
0.0
 20
0.0
 30
0.0
  3

  1

  0
INSERT
  5
236
100
AcDbEntity
  8
0
100
AcDbBlockReference
  2
CLUMP49
 10
0.0
 20
0.0
 30
0.0
  0
ENDBLK
  5
247
100
AcDbEntity
  8
0
100
AcDbBlockEnd
  0
BLOCK
  5
237
100
AcDbEntity
  8
0
100
AcDbBlockBegin
  2
CLUMP49
 70
         0
 10
0.0
 20
0.0
 30
0.0
  3

  1

  0
LINE
  5
238
100
AcDbEntity
  8
ﾚｲﾔｰ1
  6
DIVIDE
 62
         4
100
AcDbLine
 10
67.19453125
 20
461.5571967399
 30
0.0
 11
67.19453125
 21
465.5571967399
 31
0.0
  0
LINE
  5
239
100
AcDbEntity
  8
ﾚｲﾔｰ1
  6
DIVIDE
 62
         4
100
AcDbLine
 10
75.89453125
 20
460.3161970924
 30
0.0
 11
75.89453125
 21
467.0057477548
 31
0.0
  0
LINE
  5
23A
100
AcDbEntity
  8
ﾚｲﾔｰ1
  6
DIVIDE
 62
         4
100
AcDbLine
 10
77.27453125
 20
461.5571967399
 30
0.0
 11
77.27453125
 21
465.5571967399
 31
0.0
  0
LINE
  5
23B
100
AcDbEntity
  8
ﾚｲﾔｰ1
  6
DIVIDE
 62
         4
100
AcDbLine
 10
77.59453125
 20
461.5571967399
 30
0.0
 11
77.59453125
 21
465.5571967399
 31
0.0
  0
LINE
  5
23C
100
AcDbEntity
  8
ﾚｲﾔｰ1
  6
DIVIDE
 62
         4
100
AcDbLine
 10
68.89453125
 20
460.3161970924
 30
0.0
 11
68.89453125
 21
467.0057477548
 31
0.0
  0
LINE
  5
23D
100
AcDbEntity
  8
ﾚｲﾔｰ1
  6
DIVIDE
 62
         4
100
AcDbLine
 10
74.47453125
 20
461.5571967399
 30
0.0
 11
74.47453125
 21
465.5571967399
 31
0.0
  0
LINE
  5
23E
100
AcDbEntity
  8
ﾚｲﾔｰ1
  6
DIVIDE
 62
         4
100
AcDbLine
 10
70.59453125
 20
465.5571967399
 30
0.0
 11
70.59453125
 21
461.5571967399
 31
0.0
  0
LINE
  5
23F
100
AcDbEntity
  8
ﾚｲﾔｰ1
  6
DIVIDE
 62
         4
100
AcDbLine
 10
67.19453125
 20
465.5571967399
 30
0.0
 11
70.59453125
 21
465.5571967399
 31
0.0
  0
LINE
  5
240
100
AcDbEntity
  8
ﾚｲﾔｰ1
  6
DIVIDE
 62
         4
100
AcDbLine
 10
70.27453125
 20
465.5571967399
 30
0.0
 11
70.27453125
 21
461.5571967399
 31
0.0
  0
LINE
  5
241
100
AcDbEntity
  8
ﾚｲﾔｰ1
  6
DIVIDE
 62
         4
100
AcDbLine
 10
74.19453125
 20
461.5571967399
 30
0.0
 11
77.59453125
 21
461.5571967399
 31
0.0
  0
LINE
  5
242
100
AcDbEntity
  8
ﾚｲﾔｰ1
  6
DIVIDE
 62
         4
100
AcDbLine
 10
67.51453125
 20
461.5571967399
 30
0.0
 11
67.51453125
 21
465.5571967399
 31
0.0
  0
LINE
  5
243
100
AcDbEntity
  8
ﾚｲﾔｰ1
  6
DIVIDE
 62
         4
100
AcDbLine
 10
70.59453125
 20
461.5571967399
 30
0.0
 11
67.19453125
 21
461.5571967399
 31
0.0
  0
LINE
  5
244
100
AcDbEntity
  8
ﾚｲﾔｰ1
  6
DIVIDE
 62
         4
100
AcDbLine
 10
74.19453125
 20
465.5571967399
 30
0.0
 11
74.19453125
 21
461.5571967399
 31
0.0
  0
LINE
  5
245
100
AcDbEntity
  8
ﾚｲﾔｰ1
  6
DIVIDE
 62
         4
100
AcDbLine
 10
77.59453125
 20
465.5571967399
 30
0.0
 11
74.19453125
 21
465.5571967399
 31
0.0
  0
ENDBLK
  5
246
100
AcDbEntity
  8
0
100
AcDbBlockEnd
  0
BLOCK
  5
254
100
AcDbEntity
  8
0
100
AcDbBlockBegin
  2
CLUMP50
 70
         0
 10
0.0
 20
0.0
 30
0.0
  3

  1

  0
INSERT
  5
256
100
AcDbEntity
  8
0
100
AcDbBlockReference
  2
CLUMP51
 10
0.0
 20
0.0
 30
0.0
  0
ENDBLK
  5
25D
100
AcDbEntity
  8
0
100
AcDbBlockEnd
  0
BLOCK
  5
257
100
AcDbEntity
  8
0
100
AcDbBlockBegin
  2
CLUMP51
 70
         0
 10
0.0
 20
0.0
 30
0.0
  3

  1

  0
CIRCLE
  5
258
100
AcDbEntity
  8
ﾚｲﾔｰ1
  6
DIVIDE
 62
         4
100
AcDbCircle
 10
67.99453125
 20
498.5604452396
 30
0.0
 40
0.8
210
0.0
220
0.0
230
1.0
  0
LINE
  5
259
100
AcDbEntity
  8
ﾚｲﾔｰ1
  6
DIVIDE
 62
         4
100
AcDbLine
 10
67.19453125
 20
485.5571967399
 30
0.0
 11
68.79453125
 21
485.5571967399
 31
0.0
  0
LINE
  5
25A
100
AcDbEntity
  8
ﾚｲﾔｰ1
  6
DIVIDE
 62
         4
100
AcDbLine
 10
68.79453125
 20
485.5571967399
 30
0.0
 11
68.79453125
 21
498.5604452396
 31
0.0
  0
LINE
  5
25B
100
AcDbEntity
  8
ﾚｲﾔｰ1
  6
DIVIDE
 62
         4
100
AcDbLine
 10
67.19453125
 20
485.5571967399
 30
0.0
 11
67.19453125
 21
498.7604452396
 31
0.0
  0
ENDBLK
  5
25C
100
AcDbEntity
  8
0
100
AcDbBlockEnd
  0
BLOCK
  5
262
100
AcDbEntity
  8
0
100
AcDbBlockBegin
  2
CLUMP52
 70
         0
 10
0.0
 20
0.0
 30
0.0
  3

  1

  0
INSERT
  5
264
100
AcDbEntity
  8
0
100
AcDbBlockReference
  2
CLUMP53
 10
0.0
 20
0.0
 30
0.0
  0
ENDBLK
  5
26B
100
AcDbEntity
  8
0
100
AcDbBlockEnd
  0
BLOCK
  5
265
100
AcDbEntity
  8
0
100
AcDbBlockBegin
  2
CLUMP53
 70
         0
 10
0.0
 20
0.0
 30
0.0
  3

  1

  0
LINE
  5
266
100
AcDbEntity
  8
ﾚｲﾔｰ1
  6
DIVIDE
 62
         4
100
AcDbLine
 10
252.0498332757
 20
138.1633572591
 30
0.0
 11
258.5567580174
 21
142.8173802935
 31
0.0
  0
LINE
  5
267
100
AcDbEntity
  8
ﾚｲﾔｰ1
  6
DIVIDE
 62
         4
100
AcDbLine
 10
66.2323044826
 20
397.9602397847
 30
0.0
 11
252.0498332757
 21
138.1633572591
 31
0.0
  0
LINE
  5
268
100
AcDbEntity
  8
ﾚｲﾔｰ1
  6
DIVIDE
 62
         4
100
AcDbLine
 10
72.7392292243
 20
402.6142628191
 30
0.0
 11
258.5567580174
 21
142.8173802935
 31
0.0
  0
LINE
  5
269
100
AcDbEntity
  8
ﾚｲﾔｰ1
  6
DIVIDE
 62
         4
100
AcDbLine
 10
66.2323044826
 20
397.9602397847
 30
0.0
 11
72.7392292243
 21
402.6142628191
 31
0.0
  0
ENDBLK
  5
26A
100
AcDbEntity
  8
0
100
AcDbBlockEnd
  0
BLOCK
  5
26E
100
AcDbEntity
  8
0
100
AcDbBlockBegin
  2
CLUMP54
 70
         0
 10
0.0
 20
0.0
 30
0.0
  3

  1

  0
INSERT
  5
270
100
AcDbEntity
  8
0
100
AcDbBlockReference
  2
CLUMP55
 10
0.0
 20
0.0
 30
0.0
  0
ENDBLK
  5
277
100
AcDbEntity
  8
0
100
AcDbBlockEnd
  0
BLOCK
  5
271
100
AcDbEntity
  8
0
100
AcDbBlockBegin
  2
CLUMP55
 70
         0
 10
0.0
 20
0.0
 30
0.0
  3

  1

  0
LINE
  5
272
100
AcDbEntity
  8
ﾚｲﾔｰ1
  6
DIVIDE
 62
         4
100
AcDbLine
 10
72.7392292243
 20
138.1633572591
 30
0.0
 11
66.2323044826
 21
142.8173802935
 31
0.0
  0
LINE
  5
273
100
AcDbEntity
  8
ﾚｲﾔｰ1
  6
DIVIDE
 62
         4
100
AcDbLine
 10
258.5567580174
 20
397.9602397847
 30
0.0
 11
72.7392292243
 21
138.1633572591
 31
0.0
  0
LINE
  5
274
100
AcDbEntity
  8
ﾚｲﾔｰ1
  6
DIVIDE
 62
         4
100
AcDbLine
 10
252.0498332757
 20
402.6142628191
 30
0.0
 11
66.2323044826
 21
142.8173802935
 31
0.0
  0
LINE
  5
275
100
AcDbEntity
  8
ﾚｲﾔｰ1
  6
DIVIDE
 62
         4
100
AcDbLine
 10
258.5567580174
 20
397.9602397847
 30
0.0
 11
252.0498332757
 21
402.6142628191
 31
0.0
  0
ENDBLK
  5
276
100
AcDbEntity
  8
0
100
AcDbBlockEnd
  0
BLOCK
  5
27E
100
AcDbEntity
  8
0
100
AcDbBlockBegin
  2
CLUMP56
 70
         0
 10
0.0
 20
0.0
 30
0.0
  3

  1

  0
INSERT
  5
280
100
AcDbEntity
  8
0
100
AcDbBlockReference
  2
CLUMP57
 10
0.0
 20
0.0
 30
0.0
  0
ENDBLK
  5
315
100
AcDbEntity
  8
0
100
AcDbBlockEnd
  0
BLOCK
  5
281
100
AcDbEntity
  8
0
100
AcDbBlockBegin
  2
CLUMP57
 70
         0
 10
0.0
 20
0.0
 30
0.0
  3

  1

  0
LINE
  5
282
100
AcDbEntity
  8
ﾚｲﾔｰ1
100
AcDbLine
 10
270.59453125
 20
340.5813634065
 30
0.0
 11
270.59453125
 21
336.7813634065
 31
0.0
  0
LINE
  5
283
100
AcDbEntity
  8
ﾚｲﾔｰ1
100
AcDbLine
 10
269.69453125
 20
340.5813634065
 30
0.0
 11
269.69453125
 21
336.7813634065
 31
0.0
  0
LINE
  5
284
100
AcDbEntity
  8
ﾚｲﾔｰ1
100
AcDbLine
 10
261.59453125
 20
340.1593800957
 30
0.0
 11
262.87453125
 21
339.4203717511
 31
0.0
  0
LINE
  5
285
100
AcDbEntity
  8
ﾚｲﾔｰ1
100
AcDbLine
 10
260.31453125
 20
339.4203717511
 30
0.0
 11
261.59453125
 21
340.1593800957
 31
0.0
  0
LINE
  5
286
100
AcDbEntity
  8
ﾚｲﾔｰ1
100
AcDbLine
 10
260.31453125
 20
337.942355062
 30
0.0
 11
260.31453125
 21
339.4203717511
 31
0.0
  0
LINE
  5
287
100
AcDbEntity
  8
ﾚｲﾔｰ1
100
AcDbLine
 10
261.59453125
 20
337.2033467174
 30
0.0
 11
260.31453125
 21
337.942355062
 31
0.0
  0
LINE
  5
288
100
AcDbEntity
  8
ﾚｲﾔｰ1
100
AcDbLine
 10
262.87453125
 20
337.942355062
 30
0.0
 11
261.59453125
 21
337.2033467174
 31
0.0
  0
LINE
  5
289
100
AcDbEntity
  8
ﾚｲﾔｰ1
100
AcDbLine
 10
262.87453125
 20
339.4203717511
 30
0.0
 11
262.87453125
 21
337.942355062
 31
0.0
  0
CIRCLE
  5
28A
100
AcDbEntity
  8
ﾚｲﾔｰ1
100
AcDbCircle
 10
261.59453125
 20
338.6813634065
 30
0.0
 40
1.28
210
0.0
220
0.0
230
1.0
  0
INSERT
  5
28C
100
AcDbEntity
  8
0
100
AcDbBlockReference
  2
CLUMP58
 10
0.0
 20
0.0
 30
0.0
  0
LINE
  5
29F
100
AcDbEntity
  8
ﾚｲﾔｰ1
100
AcDbLine
 10
258.39453125
 20
397.4571967399
 30
0.0
 11
258.39453125
 21
464.5571967399
 31
0.0
  0
LINE
  5
2A0
100
AcDbEntity
  8
ﾚｲﾔｰ1
100
AcDbLine
 10
258.39453125
 20
138.4571967399
 30
0.0
 11
258.39453125
 21
393.6571967399
 31
0.0
  0
LINE
  5
2A1
100
AcDbEntity
  8
ﾚｲﾔｰ1
100
AcDbLine
 10
258.39453125
 20
124.5571967399
 30
0.0
 11
258.39453125
 21
134.6571967399
 31
0.0
  0
LINE
  5
2A2
100
AcDbEntity
  8
ﾚｲﾔｰ1
  6
BORDER
 62
         3
100
AcDbLine
 10
259.6930091146
 20
338.6813634065
 30
0.0
 11
263.4960533854
 21
338.6813634065
 31
0.0
  0
LINE
  5
2A3
100
AcDbEntity
  8
ﾚｲﾔｰ1
  6
BORDER
 62
         3
100
AcDbLine
 10
261.59453125
 20
341.0326764386
 30
0.0
 11
261.59453125
 21
336.3300503745
 31
0.0
  0
LINE
  5
2A4
100
AcDbEntity
  8
ﾚｲﾔｰ1
100
AcDbLine
 10
264.79453125
 20
124.5571967399
 30
0.0
 11
258.39453125
 21
124.5571967399
 31
0.0
  0
LINE
  5
2A5
100
AcDbEntity
  8
ﾚｲﾔｰ1
100
AcDbLine
 10
258.39453125
 20
464.5571967399
 30
0.0
 11
264.79453125
 21
464.5571967399
 31
0.0
  0
INSERT
  5
2A7
100
AcDbEntity
  8
0
100
AcDbBlockReference
  2
CLUMP60
 10
0.0
 20
0.0
 30
0.0
  0
INSERT
  5
2BE
100
AcDbEntity
  8
0
100
AcDbBlockReference
  2
CLUMP64
 10
0.0
 20
0.0
 30
0.0
  0
INSERT
  5
2D5
100
AcDbEntity
  8
0
100
AcDbBlockReference
  2
CLUMP68
 10
0.0
 20
0.0
 30
0.0
  0
INSERT
  5
2EC
100
AcDbEntity
  8
0
100
AcDbBlockReference
  2
CLUMP72
 10
0.0
 20
0.0
 30
0.0
  0
LINE
  5
302
100
AcDbEntity
  8
ﾚｲﾔｰ1
100
AcDbLine
 10
265.79453125
 20
124.5571967399
 30
0.0
 11
265.79453125
 21
336.7813634065
 31
0.0
  0
LINE
  5
303
100
AcDbEntity
  8
ﾚｲﾔｰ1
100
AcDbLine
 10
265.79453125
 20
124.5571967399
 30
0.0
 11
272.19453125
 21
124.5571967399
 31
0.0
  0
LINE
  5
304
100
AcDbEntity
  8
ﾚｲﾔｰ1
100
AcDbLine
 10
272.19453125
 20
124.5571967399
 30
0.0
 11
272.19453125
 21
134.6571967399
 31
0.0
  0
LINE
  5
305
100
AcDbEntity
  8
ﾚｲﾔｰ1
100
AcDbLine
 10
265.79453125
 20
464.5571967399
 30
0.0
 11
272.19453125
 21
464.5571967399
 31
0.0
  0
LINE
  5
306
100
AcDbEntity
  8
ﾚｲﾔｰ1
100
AcDbLine
 10
265.79453125
 20
340.5813634065
 30
0.0
 11
265.79453125
 21
464.5571967399
 31
0.0
  0
LINE
  5
307
100
AcDbEntity
  8
ﾚｲﾔｰ1
100
AcDbLine
 10
272.19453125
 20
397.4571967399
 30
0.0
 11
272.19453125
 21
464.5571967399
 31
0.0
  0
LINE
  5
308
100
AcDbEntity
  8
ﾚｲﾔｰ1
100
AcDbLine
 10
264.79453125
 20
336.7813634065
 30
0.0
 11
264.79453125
 21
124.5571967399
 31
0.0
  0
LINE
  5
309
100
AcDbEntity
  8
ﾚｲﾔｰ1
100
AcDbLine
 10
264.79453125
 20
464.5571967399
 30
0.0
 11
264.79453125
 21
340.5813634065
 31
0.0
  0
LINE
  5
30A
100
AcDbEntity
  8
ﾚｲﾔｰ1
100
AcDbLine
 10
272.19453125
 20
138.4571967399
 30
0.0
 11
272.19453125
 21
393.6571967399
 31
0.0
  0
LINE
  5
30B
100
AcDbEntity
  8
ﾚｲﾔｰ1
100
AcDbLine
 10
269.3241666667
 20
333.5564637823
 30
0.0
 11
268.6841666667
 21
333.5564637823
 31
0.0
  0
LINE
  5
30C
100
AcDbEntity
  8
ﾚｲﾔｰ1
100
AcDbLine
 10
269.3241666667
 20
341.1564637823
 30
0.0
 11
269.3241666667
 21
333.5564637823
 31
0.0
  0
LINE
  5
30D
100
AcDbEntity
  8
ﾚｲﾔｰ1
100
AcDbLine
 10
268.6841666667
 20
341.1564637823
 30
0.0
 11
269.3241666667
 21
341.1564637823
 31
0.0
  0
LINE
  5
30E
100
AcDbEntity
  8
ﾚｲﾔｰ1
100
AcDbLine
 10
268.6841666667
 20
333.5564637823
 30
0.0
 11
268.6841666667
 21
341.1564637823
 31
0.0
  0
LINE
  5
30F
100
AcDbEntity
  8
ﾚｲﾔｰ1
100
AcDbLine
 10
270.59453125
 20
340.5813634065
 30
0.0
 11
269.3241666667
 21
340.5813634065
 31
0.0
  0
LINE
  5
310
100
AcDbEntity
  8
ﾚｲﾔｰ1
100
AcDbLine
 10
268.6841666667
 20
340.5813634065
 30
0.0
 11
259.3695988181
 21
340.5813634065
 31
0.0
  0
LINE
  5
311
100
AcDbEntity
  8
ﾚｲﾔｰ1
100
AcDbLine
 10
259.3695988181
 20
336.7813634065
 30
0.0
 11
268.6841666667
 21
336.7813634065
 31
0.0
  0
LINE
  5
312
100
AcDbEntity
  8
ﾚｲﾔｰ1
100
AcDbLine
 10
269.3241666667
 20
336.7813634065
 30
0.0
 11
270.59453125
 21
336.7813634065
 31
0.0
  0
ARC
  5
313
100
AcDbEntity
  8
ﾚｲﾔｰ1
100
AcDbCircle
 10
263.99453125
 20
338.6813634065
 30
0.0
 40
5.0
210
0.0
220
0.0
230
1.0
100
AcDbArc
 50
157.6663173422
 51
202.3336826578
  0
ENDBLK
  5
314
100
AcDbEntity
  8
0
100
AcDbBlockEnd
  0
BLOCK
  5
28D
100
AcDbEntity
  8
0
100
AcDbBlockBegin
  2
CLUMP58
 70
         0
 10
0.0
 20
0.0
 30
0.0
  3

  1

  0
INSERT
  5
28F
100
AcDbEntity
  8
0
100
AcDbBlockReference
  2
CLUMP59
 10
0.0
 20
0.0
 30
0.0
  0
ENDBLK
  5
29E
100
AcDbEntity
  8
0
100
AcDbBlockEnd
  0
BLOCK
  5
290
100
AcDbEntity
  8
0
100
AcDbBlockBegin
  2
CLUMP59
 70
         0
 10
0.0
 20
0.0
 30
0.0
  3

  1

  0
CIRCLE
  5
291
100
AcDbEntity
  8
ﾚｲﾔｰ1
  6
DIVIDE
 62
         4
100
AcDbCircle
 10
261.59453125
 20
338.6813634065
 30
0.0
 40
1.28
210
0.0
220
0.0
230
1.0
  0
LINE
  5
292
100
AcDbEntity
  8
ﾚｲﾔｰ1
  6
DIVIDE
 62
         4
100
AcDbLine
 10
260.8555229054
 20
339.9613634065
 30
0.0
 11
262.3335395946
 21
339.9613634065
 31
0.0
  0
LINE
  5
293
100
AcDbEntity
  8
ﾚｲﾔｰ1
  6
DIVIDE
 62
         4
100
AcDbLine
 10
262.3335395946
 20
339.9613634065
 30
0.0
 11
263.0725479391
 21
338.6813634065
 31
0.0
  0
LINE
  5
294
100
AcDbEntity
  8
ﾚｲﾔｰ1
  6
DIVIDE
 62
         4
100
AcDbLine
 10
263.0725479391
 20
338.6813634065
 30
0.0
 11
262.3335395946
 21
337.4013634065
 31
0.0
  0
LINE
  5
295
100
AcDbEntity
  8
ﾚｲﾔｰ1
  6
DIVIDE
 62
         4
100
AcDbLine
 10
262.3335395946
 20
337.4013634065
 30
0.0
 11
260.8555229054
 21
337.4013634065
 31
0.0
  0
LINE
  5
296
100
AcDbEntity
  8
ﾚｲﾔｰ1
  6
DIVIDE
 62
         4
100
AcDbLine
 10
260.8555229054
 20
337.4013634065
 30
0.0
 11
260.1165145609
 21
338.6813634065
 31
0.0
  0
LINE
  5
297
100
AcDbEntity
  8
ﾚｲﾔｰ1
  6
DIVIDE
 62
         4
100
AcDbLine
 10
260.1165145609
 20
338.6813634065
 30
0.0
 11
260.8555229054
 21
339.9613634065
 31
0.0
  0
LINE
  5
298
100
AcDbEntity
  8
ﾚｲﾔｰ1
  6
DIVIDE
 62
         4
100
AcDbLine
 10
259.69453125
 20
346.7813634065
 30
0.0
 11
263.49453125
 21
346.7813634065
 31
0.0
  0
LINE
  5
299
100
AcDbEntity
  8
ﾚｲﾔｰ1
  6
DIVIDE
 62
         4
100
AcDbLine
 10
259.69453125
 20
347.6813634065
 30
0.0
 11
263.49453125
 21
347.6813634065
 31
0.0
  0
LINE
  5
29A
100
AcDbEntity
  8
ﾚｲﾔｰ1
  6
DIVIDE
 62
         4
100
AcDbLine
 10
259.69453125
 20
347.6813634065
 30
0.0
 11
259.69453125
 21
336.4564309746
 31
0.0
  0
LINE
  5
29B
100
AcDbEntity
  8
ﾚｲﾔｰ1
  6
DIVIDE
 62
         4
100
AcDbLine
 10
263.49453125
 20
336.4564309746
 30
0.0
 11
263.49453125
 21
347.6813634065
 31
0.0
  0
ARC
  5
29C
100
AcDbEntity
  8
ﾚｲﾔｰ1
  6
DIVIDE
 62
         4
100
AcDbCircle
 10
261.59453125
 20
341.0813634065
 30
0.0
 40
5.0
210
0.0
220
0.0
230
1.0
100
AcDbArc
 50
247.6663173422
 51
292.3336826578
  0
ENDBLK
  5
29D
100
AcDbEntity
  8
0
100
AcDbBlockEnd
  0
BLOCK
  5
2A8
100
AcDbEntity
  8
0
100
AcDbBlockBegin
  2
CLUMP60
 70
         0
 10
0.0
 20
0.0
 30
0.0
  3

  1

  0
INSERT
  5
2AA
100
AcDbEntity
  8
0
100
AcDbBlockReference
  2
CLUMP61
 10
0.0
 20
0.0
 30
0.0
  0
ENDBLK
  5
2BC
100
AcDbEntity
  8
0
100
AcDbBlockEnd
  0
BLOCK
  5
2AB
100
AcDbEntity
  8
0
100
AcDbBlockBegin
  2
CLUMP61
 70
         0
 10
0.0
 20
0.0
 30
0.0
  3

  1

  0
LINE
  5
2AC
100
AcDbEntity
  8
ﾚｲﾔｰ1
  6
BORDER
 62
         3
100
AcDbLine
 10
244.3041852679
 20
136.5429203262
 30
0.0
 11
246.8848772321
 21
136.5429203262
 31
0.0
  0
CIRCLE
  5
2AD
100
AcDbEntity
  8
ﾚｲﾔｰ1
100
AcDbCircle
 10
-245.59453125
 20
136.5429203262
 30
0.0
 40
0.85
210
0.0
220
0.0
230
-1.0
  0
LINE
  5
2AE
100
AcDbEntity
  8
ﾚｲﾔｰ1
  6
BORDER
 62
         3
100
AcDbLine
 10
245.59453125
 20
135.2275631833
 30
0.0
 11
245.59453125
 21
137.858277469
 31
0.0
  0
INSERT
  5
2B0
100
AcDbEntity
  8
0
100
AcDbBlockReference
  2
CLUMP62
 10
0.0
 20
0.0
 30
0.0
  0
ENDBLK
  5
2BB
100
AcDbEntity
  8
0
100
AcDbBlockEnd
  0
BLOCK
  5
2B1
100
AcDbEntity
  8
0
100
AcDbBlockBegin
  2
CLUMP62
 70
         0
 10
0.0
 20
0.0
 30
0.0
  3

  1

  0
INSERT
  5
2B3
100
AcDbEntity
  8
0
100
AcDbBlockReference
  2
CLUMP63
 10
0.0
 20
0.0
 30
0.0
  0
ENDBLK
  5
2BA
100
AcDbEntity
  8
0
100
AcDbBlockEnd
  0
BLOCK
  5
2B4
100
AcDbEntity
  8
0
100
AcDbBlockBegin
  2
CLUMP63
 70
         0
 10
0.0
 20
0.0
 30
0.0
  3

  1

  0
ARC
  5
2B5
100
AcDbEntity
  8
ﾚｲﾔｰ1
100
AcDbCircle
 10
258.59453125
 20
136.5571967399
 30
0.0
 40
5.0
210
0.0
220
0.0
230
1.0
100
AcDbArc
 50
337.6663173422
 51
22.3336826578
  0
ARC
  5
2B6
100
AcDbEntity
  8
ﾚｲﾔｰ1
100
AcDbCircle
 10
248.59453125
 20
136.5571967399
 30
0.0
 40
5.0
210
0.0
220
0.0
230
1.0
100
AcDbArc
 50
157.6663173422
 51
202.3336826578
  0
LINE
  5
2B7
100
AcDbEntity
  8
ﾚｲﾔｰ1
100
AcDbLine
 10
263.2194636819
 20
138.4571967399
 30
0.0
 11
243.9695988181
 21
138.4571967399
 31
0.0
  0
LINE
  5
2B8
100
AcDbEntity
  8
ﾚｲﾔｰ1
100
AcDbLine
 10
243.9695988181
 20
134.6571967399
 30
0.0
 11
263.2194636819
 21
134.6571967399
 31
0.0
  0
ENDBLK
  5
2B9
100
AcDbEntity
  8
0
100
AcDbBlockEnd
  0
BLOCK
  5
2BF
100
AcDbEntity
  8
0
100
AcDbBlockBegin
  2
CLUMP64
 70
         0
 10
0.0
 20
0.0
 30
0.0
  3

  1

  0
INSERT
  5
2C1
100
AcDbEntity
  8
0
100
AcDbBlockReference
  2
CLUMP65
 10
0.0
 20
0.0
 30
0.0
  0
ENDBLK
  5
2D3
100
AcDbEntity
  8
0
100
AcDbBlockEnd
  0
BLOCK
  5
2C2
100
AcDbEntity
  8
0
100
AcDbBlockBegin
  2
CLUMP65
 70
         0
 10
0.0
 20
0.0
 30
0.0
  3

  1

  0
LINE
  5
2C3
100
AcDbEntity
  8
ﾚｲﾔｰ1
  6
BORDER
 62
         3
100
AcDbLine
 10
244.3041852679
 20
395.5429203262
 30
0.0
 11
246.8848772321
 21
395.5429203262
 31
0.0
  0
CIRCLE
  5
2C4
100
AcDbEntity
  8
ﾚｲﾔｰ1
100
AcDbCircle
 10
-245.59453125
 20
395.5429203262
 30
0.0
 40
0.85
210
0.0
220
0.0
230
-1.0
  0
LINE
  5
2C5
100
AcDbEntity
  8
ﾚｲﾔｰ1
  6
BORDER
 62
         3
100
AcDbLine
 10
245.59453125
 20
394.2275631833
 30
0.0
 11
245.59453125
 21
396.858277469
 31
0.0
  0
INSERT
  5
2C7
100
AcDbEntity
  8
0
100
AcDbBlockReference
  2
CLUMP66
 10
0.0
 20
0.0
 30
0.0
  0
ENDBLK
  5
2D2
100
AcDbEntity
  8
0
100
AcDbBlockEnd
  0
BLOCK
  5
2C8
100
AcDbEntity
  8
0
100
AcDbBlockBegin
  2
CLUMP66
 70
         0
 10
0.0
 20
0.0
 30
0.0
  3

  1

  0
INSERT
  5
2CA
100
AcDbEntity
  8
0
100
AcDbBlockReference
  2
CLUMP67
 10
0.0
 20
0.0
 30
0.0
  0
ENDBLK
  5
2D1
100
AcDbEntity
  8
0
100
AcDbBlockEnd
  0
BLOCK
  5
2CB
100
AcDbEntity
  8
0
100
AcDbBlockBegin
  2
CLUMP67
 70
         0
 10
0.0
 20
0.0
 30
0.0
  3

  1

  0
ARC
  5
2CC
100
AcDbEntity
  8
ﾚｲﾔｰ1
100
AcDbCircle
 10
258.59453125
 20
395.5571967399
 30
0.0
 40
5.0
210
0.0
220
0.0
230
1.0
100
AcDbArc
 50
337.6663173422
 51
22.3336826578
  0
ARC
  5
2CD
100
AcDbEntity
  8
ﾚｲﾔｰ1
100
AcDbCircle
 10
248.59453125
 20
395.5571967399
 30
0.0
 40
5.0
210
0.0
220
0.0
230
1.0
100
AcDbArc
 50
157.6663173422
 51
202.3336826578
  0
LINE
  5
2CE
100
AcDbEntity
  8
ﾚｲﾔｰ1
100
AcDbLine
 10
263.2194636819
 20
397.4571967399
 30
0.0
 11
243.9695988181
 21
397.4571967399
 31
0.0
  0
LINE
  5
2CF
100
AcDbEntity
  8
ﾚｲﾔｰ1
100
AcDbLine
 10
243.9695988181
 20
393.6571967399
 30
0.0
 11
263.2194636819
 21
393.6571967399
 31
0.0
  0
ENDBLK
  5
2D0
100
AcDbEntity
  8
0
100
AcDbBlockEnd
  0
BLOCK
  5
2D6
100
AcDbEntity
  8
0
100
AcDbBlockBegin
  2
CLUMP68
 70
         0
 10
0.0
 20
0.0
 30
0.0
  3

  1

  0
INSERT
  5
2D8
100
AcDbEntity
  8
0
100
AcDbBlockReference
  2
CLUMP69
 10
0.0
 20
0.0
 30
0.0
  0
ENDBLK
  5
2EA
100
AcDbEntity
  8
0
100
AcDbBlockEnd
  0
BLOCK
  5
2D9
100
AcDbEntity
  8
0
100
AcDbBlockBegin
  2
CLUMP69
 70
         0
 10
0.0
 20
0.0
 30
0.0
  3

  1

  0
LINE
  5
2DA
100
AcDbEntity
  8
ﾚｲﾔｰ1
  6
BORDER
 62
         3
100
AcDbLine
 10
286.2848772321
 20
136.5429203262
 30
0.0
 11
283.7041852679
 21
136.5429203262
 31
0.0
  0
CIRCLE
  5
2DB
100
AcDbEntity
  8
ﾚｲﾔｰ1
100
AcDbCircle
 10
284.99453125
 20
136.5429203262
 30
0.0
 40
0.85
210
0.0
220
0.0
230
1.0
  0
LINE
  5
2DC
100
AcDbEntity
  8
ﾚｲﾔｰ1
  6
BORDER
 62
         3
100
AcDbLine
 10
284.99453125
 20
135.2275631833
 30
0.0
 11
284.99453125
 21
137.858277469
 31
0.0
  0
INSERT
  5
2DE
100
AcDbEntity
  8
0
100
AcDbBlockReference
  2
CLUMP70
 10
0.0
 20
0.0
 30
0.0
  0
ENDBLK
  5
2E9
100
AcDbEntity
  8
0
100
AcDbBlockEnd
  0
BLOCK
  5
2DF
100
AcDbEntity
  8
0
100
AcDbBlockBegin
  2
CLUMP70
 70
         0
 10
0.0
 20
0.0
 30
0.0
  3

  1

  0
INSERT
  5
2E1
100
AcDbEntity
  8
0
100
AcDbBlockReference
  2
CLUMP71
 10
0.0
 20
0.0
 30
0.0
  0
ENDBLK
  5
2E8
100
AcDbEntity
  8
0
100
AcDbBlockEnd
  0
BLOCK
  5
2E2
100
AcDbEntity
  8
0
100
AcDbBlockBegin
  2
CLUMP71
 70
         0
 10
0.0
 20
0.0
 30
0.0
  3

  1

  0
ARC
  5
2E3
100
AcDbEntity
  8
ﾚｲﾔｰ1
100
AcDbCircle
 10
-271.99453125
 20
136.5571967399
 30
0.0
 40
5.0
210
0.0
220
0.0
230
-1.0
100
AcDbArc
 50
337.6663173422
 51
22.3336826578
  0
ARC
  5
2E4
100
AcDbEntity
  8
ﾚｲﾔｰ1
100
AcDbCircle
 10
-281.99453125
 20
136.5571967399
 30
0.0
 40
5.0
210
0.0
220
0.0
230
-1.0
100
AcDbArc
 50
157.6663173422
 51
202.3336826578
  0
LINE
  5
2E5
100
AcDbEntity
  8
ﾚｲﾔｰ1
100
AcDbLine
 10
267.3695988181
 20
138.4571967399
 30
0.0
 11
286.6194636819
 21
138.4571967399
 31
0.0
  0
LINE
  5
2E6
100
AcDbEntity
  8
ﾚｲﾔｰ1
100
AcDbLine
 10
286.6194636819
 20
134.6571967399
 30
0.0
 11
267.3695988181
 21
134.6571967399
 31
0.0
  0
ENDBLK
  5
2E7
100
AcDbEntity
  8
0
100
AcDbBlockEnd
  0
BLOCK
  5
2ED
100
AcDbEntity
  8
0
100
AcDbBlockBegin
  2
CLUMP72
 70
         0
 10
0.0
 20
0.0
 30
0.0
  3

  1

  0
INSERT
  5
2EF
100
AcDbEntity
  8
0
100
AcDbBlockReference
  2
CLUMP73
 10
0.0
 20
0.0
 30
0.0
  0
ENDBLK
  5
301
100
AcDbEntity
  8
0
100
AcDbBlockEnd
  0
BLOCK
  5
2F0
100
AcDbEntity
  8
0
100
AcDbBlockBegin
  2
CLUMP73
 70
         0
 10
0.0
 20
0.0
 30
0.0
  3

  1

  0
LINE
  5
2F1
100
AcDbEntity
  8
ﾚｲﾔｰ1
  6
BORDER
 62
         3
100
AcDbLine
 10
286.2848772321
 20
395.5429203262
 30
0.0
 11
283.7041852679
 21
395.5429203262
 31
0.0
  0
CIRCLE
  5
2F2
100
AcDbEntity
  8
ﾚｲﾔｰ1
100
AcDbCircle
 10
284.99453125
 20
395.5429203262
 30
0.0
 40
0.85
210
0.0
220
0.0
230
1.0
  0
LINE
  5
2F3
100
AcDbEntity
  8
ﾚｲﾔｰ1
  6
BORDER
 62
         3
100
AcDbLine
 10
284.99453125
 20
394.2275631833
 30
0.0
 11
284.99453125
 21
396.858277469
 31
0.0
  0
INSERT
  5
2F5
100
AcDbEntity
  8
0
100
AcDbBlockReference
  2
CLUMP74
 10
0.0
 20
0.0
 30
0.0
  0
ENDBLK
  5
300
100
AcDbEntity
  8
0
100
AcDbBlockEnd
  0
BLOCK
  5
2F6
100
AcDbEntity
  8
0
100
AcDbBlockBegin
  2
CLUMP74
 70
         0
 10
0.0
 20
0.0
 30
0.0
  3

  1

  0
INSERT
  5
2F8
100
AcDbEntity
  8
0
100
AcDbBlockReference
  2
CLUMP75
 10
0.0
 20
0.0
 30
0.0
  0
ENDBLK
  5
2FF
100
AcDbEntity
  8
0
100
AcDbBlockEnd
  0
BLOCK
  5
2F9
100
AcDbEntity
  8
0
100
AcDbBlockBegin
  2
CLUMP75
 70
         0
 10
0.0
 20
0.0
 30
0.0
  3

  1

  0
ARC
  5
2FA
100
AcDbEntity
  8
ﾚｲﾔｰ1
100
AcDbCircle
 10
-271.99453125
 20
395.5571967399
 30
0.0
 40
5.0
210
0.0
220
0.0
230
-1.0
100
AcDbArc
 50
337.6663173422
 51
22.3336826578
  0
ARC
  5
2FB
100
AcDbEntity
  8
ﾚｲﾔｰ1
100
AcDbCircle
 10
-281.99453125
 20
395.5571967399
 30
0.0
 40
5.0
210
0.0
220
0.0
230
-1.0
100
AcDbArc
 50
157.6663173422
 51
202.3336826578
  0
LINE
  5
2FC
100
AcDbEntity
  8
ﾚｲﾔｰ1
100
AcDbLine
 10
267.3695988181
 20
397.4571967399
 30
0.0
 11
286.6194636819
 21
397.4571967399
 31
0.0
  0
LINE
  5
2FD
100
AcDbEntity
  8
ﾚｲﾔｰ1
100
AcDbLine
 10
286.6194636819
 20
393.6571967399
 30
0.0
 11
267.3695988181
 21
393.6571967399
 31
0.0
  0
ENDBLK
  5
2FE
100
AcDbEntity
  8
0
100
AcDbBlockEnd
  0
BLOCK
  5
347
100
AcDbEntity
  8
0
100
AcDbBlockBegin
  2
CLUMP76
 70
         0
 10
0.0
 20
0.0
 30
0.0
  3

  1

  0
INSERT
  5
349
100
AcDbEntity
  8
0
100
AcDbBlockReference
  2
CLUMP77
 10
0.0
 20
0.0
 30
0.0
  0
ENDBLK
  5
350
100
AcDbEntity
  8
0
100
AcDbBlockEnd
  0
BLOCK
  5
34A
100
AcDbEntity
  8
0
100
AcDbBlockBegin
  2
CLUMP77
 70
         0
 10
0.0
 20
0.0
 30
0.0
  3

  1

  0
LINE
  5
34B
100
AcDbEntity
  8
ﾚｲﾔｰ1
100
AcDbLine
 10
804.76328125
 20
457.5861979167
 30
0.0
 11
804.76328125
 21
460.5861979167
 31
0.0
  0
LINE
  5
34C
100
AcDbEntity
  8
ﾚｲﾔｰ1
100
AcDbLine
 10
704.76328125
 20
457.5861979167
 30
0.0
 11
804.76328125
 21
457.5861979167
 31
0.0
  0
LINE
  5
34D
100
AcDbEntity
  8
ﾚｲﾔｰ1
100
AcDbLine
 10
704.76328125
 20
460.5861979167
 30
0.0
 11
704.76328125
 21
457.5861979167
 31
0.0
  0
LINE
  5
34E
100
AcDbEntity
  8
ﾚｲﾔｰ1
100
AcDbLine
 10
804.76328125
 20
460.5861979167
 30
0.0
 11
704.76328125
 21
460.5861979167
 31
0.0
  0
ENDBLK
  5
34F
100
AcDbEntity
  8
0
100
AcDbBlockEnd
  0
BLOCK
  5
353
100
AcDbEntity
  8
0
100
AcDbBlockBegin
  2
CLUMP78
 70
         0
 10
0.0
 20
0.0
 30
0.0
  3

  1

  0
INSERT
  5
355
100
AcDbEntity
  8
0
100
AcDbBlockReference
  2
CLUMP79
 10
0.0
 20
0.0
 30
0.0
  0
ENDBLK
  5
35C
100
AcDbEntity
  8
0
100
AcDbBlockEnd
  0
BLOCK
  5
356
100
AcDbEntity
  8
0
100
AcDbBlockBegin
  2
CLUMP79
 70
         0
 10
0.0
 20
0.0
 30
0.0
  3

  1

  0
LINE
  5
357
100
AcDbEntity
  8
ﾚｲﾔｰ1
100
AcDbLine
 10
804.76328125
 20
492.5861979167
 30
0.0
 11
804.76328125
 21
495.5861979167
 31
0.0
  0
LINE
  5
358
100
AcDbEntity
  8
ﾚｲﾔｰ1
100
AcDbLine
 10
704.76328125
 20
492.5861979167
 30
0.0
 11
804.76328125
 21
492.5861979167
 31
0.0
  0
LINE
  5
359
100
AcDbEntity
  8
ﾚｲﾔｰ1
100
AcDbLine
 10
704.76328125
 20
495.5861979167
 30
0.0
 11
704.76328125
 21
492.5861979167
 31
0.0
  0
LINE
  5
35A
100
AcDbEntity
  8
ﾚｲﾔｰ1
100
AcDbLine
 10
804.76328125
 20
495.5861979167
 30
0.0
 11
704.76328125
 21
495.5861979167
 31
0.0
  0
ENDBLK
  5
35B
100
AcDbEntity
  8
0
100
AcDbBlockEnd
  0
BLOCK
  5
36B
100
AcDbEntity
  8
0
100
AcDbBlockBegin
  2
CLUMP80
 70
         0
 10
0.0
 20
0.0
 30
0.0
  3

  1

  0
INSERT
  5
36D
100
AcDbEntity
  8
0
100
AcDbBlockReference
  2
CLUMP81
 10
0.0
 20
0.0
 30
0.0
  0
ENDBLK
  5
380
100
AcDbEntity
  8
0
100
AcDbBlockEnd
  0
BLOCK
  5
36E
100
AcDbEntity
  8
0
100
AcDbBlockBegin
  2
CLUMP81
 70
         0
 10
0.0
 20
0.0
 30
0.0
  3

  1

  0
ARC
  5
36F
100
AcDbEntity
  8
ﾚｲﾔｰ1
100
AcDbCircle
 10
727.56328125
 20
489.3861979167
 30
0.0
 40
3.2
210
0.0
220
0.0
230
1.0
100
AcDbArc
 50
0.0
 51
90.0
  0
LINE
  5
370
100
AcDbEntity
  8
ﾚｲﾔｰ1
100
AcDbLine
 10
727.56328125
 20
492.5861979167
 30
0.0
 11
701.96328125
 21
492.5861979167
 31
0.0
  0
LINE
  5
371
100
AcDbEntity
  8
ﾚｲﾔｰ1
100
AcDbLine
 10
730.76328125
 20
463.7861979167
 30
0.0
 11
730.76328125
 21
489.3861979167
 31
0.0
  0
ARC
  5
372
100
AcDbEntity
  8
ﾚｲﾔｰ1
100
AcDbCircle
 10
727.56328125
 20
463.7861979167
 30
0.0
 40
3.2
210
0.0
220
0.0
230
1.0
100
AcDbArc
 50
270.0
 51
0.0
  0
LINE
  5
373
100
AcDbEntity
  8
ﾚｲﾔｰ1
100
AcDbLine
 10
701.96328125
 20
460.5861979167
 30
0.0
 11
727.56328125
 21
460.5861979167
 31
0.0
  0
ARC
  5
374
100
AcDbEntity
  8
ﾚｲﾔｰ1
100
AcDbCircle
 10
701.96328125
 20
463.7861979167
 30
0.0
 40
3.2
210
0.0
220
0.0
230
1.0
100
AcDbArc
 50
180.0
 51
270.0
  0
LINE
  5
375
100
AcDbEntity
  8
ﾚｲﾔｰ1
100
AcDbLine
 10
698.76328125
 20
489.3861979167
 30
0.0
 11
698.76328125
 21
463.7861979167
 31
0.0
  0
ARC
  5
376
100
AcDbEntity
  8
ﾚｲﾔｰ1
100
AcDbCircle
 10
701.96328125
 20
489.3861979167
 30
0.0
 40
3.2
210
0.0
220
0.0
230
1.0
100
AcDbArc
 50
90.0
 51
180.0
  0
ARC
  5
377
100
AcDbEntity
  8
ﾚｲﾔｰ1
100
AcDbCircle
 10
727.56328125
 20
463.7861979167
 30
0.0
 40
1.6
210
0.0
220
0.0
230
1.0
100
AcDbArc
 50
270.0
 51
0.0
  0
LINE
  5
378
100
AcDbEntity
  8
ﾚｲﾔｰ1
100
AcDbLine
 10
729.16328125
 20
463.7861979167
 30
0.0
 11
729.16328125
 21
489.3861979167
 31
0.0
  0
LINE
  5
379
100
AcDbEntity
  8
ﾚｲﾔｰ1
100
AcDbLine
 10
701.96328125
 20
462.1861979167
 30
0.0
 11
727.56328125
 21
462.1861979167
 31
0.0
  0
ARC
  5
37A
100
AcDbEntity
  8
ﾚｲﾔｰ1
100
AcDbCircle
 10
701.96328125
 20
463.7861979167
 30
0.0
 40
1.6
210
0.0
220
0.0
230
1.0
100
AcDbArc
 50
180.0
 51
270.0
  0
LINE
  5
37B
100
AcDbEntity
  8
ﾚｲﾔｰ1
100
AcDbLine
 10
700.36328125
 20
489.3861979167
 30
0.0
 11
700.36328125
 21
463.7861979167
 31
0.0
  0
ARC
  5
37C
100
AcDbEntity
  8
ﾚｲﾔｰ1
100
AcDbCircle
 10
-727.56328125
 20
489.3861979167
 30
0.0
 40
1.6
210
0.0
220
0.0
230
-1.0
100
AcDbArc
 50
90.0
 51
180.0
  0
LINE
  5
37D
100
AcDbEntity
  8
ﾚｲﾔｰ1
100
AcDbLine
 10
727.56328125
 20
490.9861979167
 30
0.0
 11
701.96328125
 21
490.9861979167
 31
0.0
  0
ARC
  5
37E
100
AcDbEntity
  8
ﾚｲﾔｰ1
100
AcDbCircle
 10
701.96328125
 20
489.3861979167
 30
0.0
 40
1.6
210
0.0
220
0.0
230
1.0
100
AcDbArc
 50
90.0
 51
180.0
  0
ENDBLK
  5
37F
100
AcDbEntity
  8
0
100
AcDbBlockEnd
  0
BLOCK
  5
3A7
100
AcDbEntity
  8
0
100
AcDbBlockBegin
  2
CLUMP82
 70
         0
 10
0.0
 20
0.0
 30
0.0
  3

  1

  0
INSERT
  5
3A9
100
AcDbEntity
  8
0
100
AcDbBlockReference
  2
CLUMP83
 10
0.0
 20
0.0
 30
0.0
  0
ENDBLK
  5
3BB
100
AcDbEntity
  8
0
100
AcDbBlockEnd
  0
BLOCK
  5
3AA
100
AcDbEntity
  8
0
100
AcDbBlockBegin
  2
CLUMP83
 70
         0
 10
0.0
 20
0.0
 30
0.0
  3

  1

  0
LINE
  5
3AB
100
AcDbEntity
  8
ﾚｲﾔｰ1
  6
BORDER
 62
         3
100
AcDbLine
 10
801.2150111607
 20
272.8523158482
 30
0.0
 11
788.3115513393
 21
272.8523158482
 31
0.0
  0
CIRCLE
  5
3AC
100
AcDbEntity
  8
ﾚｲﾔｰ1
100
AcDbCircle
 10
794.76328125
 20
272.8523158482
 30
0.0
 40
4.25
210
0.0
220
0.0
230
1.0
  0
LINE
  5
3AD
100
AcDbEntity
  8
ﾚｲﾔｰ1
  6
BORDER
 62
         3
100
AcDbLine
 10
794.76328125
 20
266.2755301339
 30
0.0
 11
794.76328125
 21
279.4291015625
 31
0.0
  0
INSERT
  5
3AF
100
AcDbEntity
  8
0
100
AcDbBlockReference
  2
CLUMP84
 10
0.0
 20
0.0
 30
0.0
  0
ENDBLK
  5
3BA
100
AcDbEntity
  8
0
100
AcDbBlockEnd
  0
BLOCK
  5
3B0
100
AcDbEntity
  8
0
100
AcDbBlockBegin
  2
CLUMP84
 70
         0
 10
0.0
 20
0.0
 30
0.0
  3

  1

  0
INSERT
  5
3B2
100
AcDbEntity
  8
0
100
AcDbBlockReference
  2
CLUMP85
 10
0.0
 20
0.0
 30
0.0
  0
ENDBLK
  5
3B9
100
AcDbEntity
  8
0
100
AcDbBlockEnd
  0
BLOCK
  5
3B3
100
AcDbEntity
  8
0
100
AcDbBlockBegin
  2
CLUMP85
 70
         0
 10
0.0
 20
0.0
 30
0.0
  3

  1

  0
ARC
  5
3B4
100
AcDbEntity
  8
ﾚｲﾔｰ1
100
AcDbCircle
 10
-729.76328125
 20
272.9236979167
 30
0.0
 40
25.0
210
0.0
220
0.0
230
-1.0
100
AcDbArc
 50
337.6663173422
 51
22.3336826578
  0
ARC
  5
3B5
100
AcDbEntity
  8
ﾚｲﾔｰ1
100
AcDbCircle
 10
-779.76328125
 20
272.9236979167
 30
0.0
 40
25.0
210
0.0
220
0.0
230
-1.0
100
AcDbArc
 50
157.6663173422
 51
202.3336826578
  0
LINE
  5
3B6
100
AcDbEntity
  8
ﾚｲﾔｰ1
100
AcDbLine
 10
706.6386190903
 20
282.4236979167
 30
0.0
 11
802.8879434097
 21
282.4236979167
 31
0.0
  0
LINE
  5
3B7
100
AcDbEntity
  8
ﾚｲﾔｰ1
100
AcDbLine
 10
802.8879434097
 20
263.4236979167
 30
0.0
 11
706.6386190903
 21
263.4236979167
 31
0.0
  0
ENDBLK
  5
3B8
100
AcDbEntity
  8
0
100
AcDbBlockEnd
  0
BLOCK
  5
3BE
100
AcDbEntity
  8
0
100
AcDbBlockBegin
  2
CLUMP86
 70
         0
 10
0.0
 20
0.0
 30
0.0
  3

  1

  0
INSERT
  5
3C0
100
AcDbEntity
  8
0
100
AcDbBlockReference
  2
CLUMP87
 10
0.0
 20
0.0
 30
0.0
  0
ENDBLK
  5
3D2
100
AcDbEntity
  8
0
100
AcDbBlockEnd
  0
BLOCK
  5
3C1
100
AcDbEntity
  8
0
100
AcDbBlockBegin
  2
CLUMP87
 70
         0
 10
0.0
 20
0.0
 30
0.0
  3

  1

  0
LINE
  5
3C2
100
AcDbEntity
  8
ﾚｲﾔｰ1
  6
BORDER
 62
         3
100
AcDbLine
 10
591.3115513393
 20
272.8523158482
 30
0.0
 11
604.2150111607
 21
272.8523158482
 31
0.0
  0
CIRCLE
  5
3C3
100
AcDbEntity
  8
ﾚｲﾔｰ1
100
AcDbCircle
 10
-597.76328125
 20
272.8523158482
 30
0.0
 40
4.25
210
0.0
220
0.0
230
-1.0
  0
LINE
  5
3C4
100
AcDbEntity
  8
ﾚｲﾔｰ1
  6
BORDER
 62
         3
100
AcDbLine
 10
597.76328125
 20
266.2755301339
 30
0.0
 11
597.76328125
 21
279.4291015625
 31
0.0
  0
INSERT
  5
3C6
100
AcDbEntity
  8
0
100
AcDbBlockReference
  2
CLUMP88
 10
0.0
 20
0.0
 30
0.0
  0
ENDBLK
  5
3D1
100
AcDbEntity
  8
0
100
AcDbBlockEnd
  0
BLOCK
  5
3C7
100
AcDbEntity
  8
0
100
AcDbBlockBegin
  2
CLUMP88
 70
         0
 10
0.0
 20
0.0
 30
0.0
  3

  1

  0
INSERT
  5
3C9
100
AcDbEntity
  8
0
100
AcDbBlockReference
  2
CLUMP89
 10
0.0
 20
0.0
 30
0.0
  0
ENDBLK
  5
3D0
100
AcDbEntity
  8
0
100
AcDbBlockEnd
  0
BLOCK
  5
3CA
100
AcDbEntity
  8
0
100
AcDbBlockBegin
  2
CLUMP89
 70
         0
 10
0.0
 20
0.0
 30
0.0
  3

  1

  0
ARC
  5
3CB
100
AcDbEntity
  8
ﾚｲﾔｰ1
100
AcDbCircle
 10
662.76328125
 20
272.9236979167
 30
0.0
 40
25.0
210
0.0
220
0.0
230
1.0
100
AcDbArc
 50
337.6663173422
 51
22.3336826578
  0
ARC
  5
3CC
100
AcDbEntity
  8
ﾚｲﾔｰ1
100
AcDbCircle
 10
612.76328125
 20
272.9236979167
 30
0.0
 40
25.0
210
0.0
220
0.0
230
1.0
100
AcDbArc
 50
157.6663173422
 51
202.3336826578
  0
LINE
  5
3CD
100
AcDbEntity
  8
ﾚｲﾔｰ1
100
AcDbLine
 10
685.8879434097
 20
282.4236979167
 30
0.0
 11
589.6386190903
 21
282.4236979167
 31
0.0
  0
LINE
  5
3CE
100
AcDbEntity
  8
ﾚｲﾔｰ1
100
AcDbLine
 10
589.6386190903
 20
263.4236979167
 30
0.0
 11
685.8879434097
 21
263.4236979167
 31
0.0
  0
ENDBLK
  5
3CF
100
AcDbEntity
  8
0
100
AcDbBlockEnd
  0
BLOCK
  5
3EB
100
AcDbEntity
  8
0
100
AcDbBlockBegin
  2
CLUMP90
 70
         0
 10
0.0
 20
0.0
 30
0.0
  3

  1

  0
INSERT
  5
3ED
100
AcDbEntity
  8
0
100
AcDbBlockReference
  2
CLUMP91
 10
0.0
 20
0.0
 30
0.0
  0
ENDBLK
  5
3FC
100
AcDbEntity
  8
0
100
AcDbBlockEnd
  0
BLOCK
  5
3EE
100
AcDbEntity
  8
0
100
AcDbBlockBegin
  2
CLUMP91
 70
         0
 10
0.0
 20
0.0
 30
0.0
  3

  1

  0
CIRCLE
  5
3EF
100
AcDbEntity
  8
ﾚｲﾔｰ1
  6
DIVIDE
 62
         4
100
AcDbCircle
 10
479.79453125
 20
274.1786458333
 30
0.0
 40
6.4
210
0.0
220
0.0
230
1.0
  0
LINE
  5
3F0
100
AcDbEntity
  8
ﾚｲﾔｰ1
  6
DIVIDE
 62
         4
100
AcDbLine
 10
476.0994895272
 20
280.5786458333
 30
0.0
 11
483.4895729728
 21
280.5786458333
 31
0.0
  0
LINE
  5
3F1
100
AcDbEntity
  8
ﾚｲﾔｰ1
  6
DIVIDE
 62
         4
100
AcDbLine
 10
483.4895729728
 20
280.5786458333
 30
0.0
 11
487.1846146956
 21
274.1786458333
 31
0.0
  0
LINE
  5
3F2
100
AcDbEntity
  8
ﾚｲﾔｰ1
  6
DIVIDE
 62
         4
100
AcDbLine
 10
487.1846146956
 20
274.1786458333
 30
0.0
 11
483.4895729728
 21
267.7786458333
 31
0.0
  0
LINE
  5
3F3
100
AcDbEntity
  8
ﾚｲﾔｰ1
  6
DIVIDE
 62
         4
100
AcDbLine
 10
483.4895729728
 20
267.7786458333
 30
0.0
 11
476.0994895272
 21
267.7786458333
 31
0.0
  0
LINE
  5
3F4
100
AcDbEntity
  8
ﾚｲﾔｰ1
  6
DIVIDE
 62
         4
100
AcDbLine
 10
476.0994895272
 20
267.7786458333
 30
0.0
 11
472.4044478044
 21
274.1786458333
 31
0.0
  0
LINE
  5
3F5
100
AcDbEntity
  8
ﾚｲﾔｰ1
  6
DIVIDE
 62
         4
100
AcDbLine
 10
472.4044478044
 20
274.1786458333
 30
0.0
 11
476.0994895272
 21
280.5786458333
 31
0.0
  0
LINE
  5
3F6
100
AcDbEntity
  8
ﾚｲﾔｰ1
  6
DIVIDE
 62
         4
100
AcDbLine
 10
470.29453125
 20
314.6786458333
 30
0.0
 11
489.29453125
 21
314.6786458333
 31
0.0
  0
LINE
  5
3F7
100
AcDbEntity
  8
ﾚｲﾔｰ1
  6
DIVIDE
 62
         4
100
AcDbLine
 10
470.29453125
 20
319.1786458333
 30
0.0
 11
489.29453125
 21
319.1786458333
 31
0.0
  0
LINE
  5
3F8
100
AcDbEntity
  8
ﾚｲﾔｰ1
  6
DIVIDE
 62
         4
100
AcDbLine
 10
470.29453125
 20
319.1786458333
 30
0.0
 11
470.29453125
 21
263.0539836736
 31
0.0
  0
LINE
  5
3F9
100
AcDbEntity
  8
ﾚｲﾔｰ1
  6
DIVIDE
 62
         4
100
AcDbLine
 10
489.29453125
 20
263.0539836736
 30
0.0
 11
489.29453125
 21
319.1786458333
 31
0.0
  0
ARC
  5
3FA
100
AcDbEntity
  8
ﾚｲﾔｰ1
  6
DIVIDE
 62
         4
100
AcDbCircle
 10
479.79453125
 20
286.1786458333
 30
0.0
 40
25.0
210
0.0
220
0.0
230
1.0
100
AcDbArc
 50
247.6663173422
 51
292.3336826578
  0
ENDBLK
  5
3FB
100
AcDbEntity
  8
0
100
AcDbBlockEnd
  0
BLOCK
  5
408
100
AcDbEntity
  8
0
100
AcDbBlockBegin
  2
CLUMP92
 70
         0
 10
0.0
 20
0.0
 30
0.0
  3

  1

  0
INSERT
  5
40A
100
AcDbEntity
  8
0
100
AcDbBlockReference
  2
CLUMP93
 10
0.0
 20
0.0
 30
0.0
  0
ENDBLK
  5
41D
100
AcDbEntity
  8
0
100
AcDbBlockEnd
  0
BLOCK
  5
40B
100
AcDbEntity
  8
0
100
AcDbBlockBegin
  2
CLUMP93
 70
         0
 10
0.0
 20
0.0
 30
0.0
  3

  1

  0
ARC
  5
40C
100
AcDbEntity
  8
ﾚｲﾔｰ1
100
AcDbCircle
 10
492.59453125
 20
489.3861979167
 30
0.0
 40
3.2
210
0.0
220
0.0
230
1.0
100
AcDbArc
 50
0.0
 51
90.0
  0
LINE
  5
40D
100
AcDbEntity
  8
ﾚｲﾔｰ1
100
AcDbLine
 10
492.59453125
 20
492.5861979167
 30
0.0
 11
466.99453125
 21
492.5861979167
 31
0.0
  0
LINE
  5
40E
100
AcDbEntity
  8
ﾚｲﾔｰ1
100
AcDbLine
 10
495.79453125
 20
463.7861979167
 30
0.0
 11
495.79453125
 21
489.3861979167
 31
0.0
  0
ARC
  5
40F
100
AcDbEntity
  8
ﾚｲﾔｰ1
100
AcDbCircle
 10
492.59453125
 20
463.7861979167
 30
0.0
 40
3.2
210
0.0
220
0.0
230
1.0
100
AcDbArc
 50
270.0
 51
0.0
  0
LINE
  5
410
100
AcDbEntity
  8
ﾚｲﾔｰ1
100
AcDbLine
 10
466.99453125
 20
460.5861979167
 30
0.0
 11
492.59453125
 21
460.5861979167
 31
0.0
  0
ARC
  5
411
100
AcDbEntity
  8
ﾚｲﾔｰ1
100
AcDbCircle
 10
466.99453125
 20
463.7861979167
 30
0.0
 40
3.2
210
0.0
220
0.0
230
1.0
100
AcDbArc
 50
180.0
 51
270.0
  0
LINE
  5
412
100
AcDbEntity
  8
ﾚｲﾔｰ1
100
AcDbLine
 10
463.79453125
 20
489.3861979167
 30
0.0
 11
463.79453125
 21
463.7861979167
 31
0.0
  0
ARC
  5
413
100
AcDbEntity
  8
ﾚｲﾔｰ1
100
AcDbCircle
 10
466.99453125
 20
489.3861979167
 30
0.0
 40
3.2
210
0.0
220
0.0
230
1.0
100
AcDbArc
 50
90.0
 51
180.0
  0
ARC
  5
414
100
AcDbEntity
  8
ﾚｲﾔｰ1
100
AcDbCircle
 10
492.59453125
 20
463.7861979167
 30
0.0
 40
1.6
210
0.0
220
0.0
230
1.0
100
AcDbArc
 50
270.0
 51
0.0
  0
LINE
  5
415
100
AcDbEntity
  8
ﾚｲﾔｰ1
100
AcDbLine
 10
494.19453125
 20
463.7861979167
 30
0.0
 11
494.19453125
 21
489.3861979167
 31
0.0
  0
LINE
  5
416
100
AcDbEntity
  8
ﾚｲﾔｰ1
100
AcDbLine
 10
466.99453125
 20
462.1861979167
 30
0.0
 11
492.59453125
 21
462.1861979167
 31
0.0
  0
ARC
  5
417
100
AcDbEntity
  8
ﾚｲﾔｰ1
100
AcDbCircle
 10
466.99453125
 20
463.7861979167
 30
0.0
 40
1.6
210
0.0
220
0.0
230
1.0
100
AcDbArc
 50
180.0
 51
270.0
  0
LINE
  5
418
100
AcDbEntity
  8
ﾚｲﾔｰ1
100
AcDbLine
 10
465.39453125
 20
489.3861979167
 30
0.0
 11
465.39453125
 21
463.7861979167
 31
0.0
  0
ARC
  5
419
100
AcDbEntity
  8
ﾚｲﾔｰ1
100
AcDbCircle
 10
-492.59453125
 20
489.3861979167
 30
0.0
 40
1.6
210
0.0
220
0.0
230
-1.0
100
AcDbArc
 50
90.0
 51
180.0
  0
LINE
  5
41A
100
AcDbEntity
  8
ﾚｲﾔｰ1
100
AcDbLine
 10
492.59453125
 20
490.9861979167
 30
0.0
 11
466.99453125
 21
490.9861979167
 31
0.0
  0
ARC
  5
41B
100
AcDbEntity
  8
ﾚｲﾔｰ1
100
AcDbCircle
 10
466.99453125
 20
489.3861979167
 30
0.0
 40
1.6
210
0.0
220
0.0
230
1.0
100
AcDbArc
 50
90.0
 51
180.0
  0
ENDBLK
  5
41C
100
AcDbEntity
  8
0
100
AcDbBlockEnd
  0
BLOCK
  5
420
100
AcDbEntity
  8
0
100
AcDbBlockBegin
  2
CLUMP94
 70
         0
 10
0.0
 20
0.0
 30
0.0
  3

  1

  0
INSERT
  5
422
100
AcDbEntity
  8
0
100
AcDbBlockReference
  2
CLUMP95
 10
0.0
 20
0.0
 30
0.0
  0
ENDBLK
  5
435
100
AcDbEntity
  8
0
100
AcDbBlockEnd
  0
BLOCK
  5
423
100
AcDbEntity
  8
0
100
AcDbBlockBegin
  2
CLUMP95
 70
         0
 10
0.0
 20
0.0
 30
0.0
  3

  1

  0
ARC
  5
424
100
AcDbEntity
  8
ﾚｲﾔｰ1
100
AcDbCircle
 10
529.59453125
 20
489.3861979167
 30
0.0
 40
3.2
210
0.0
220
0.0
230
1.0
100
AcDbArc
 50
0.0
 51
90.0
  0
LINE
  5
425
100
AcDbEntity
  8
ﾚｲﾔｰ1
100
AcDbLine
 10
529.59453125
 20
492.5861979167
 30
0.0
 11
503.99453125
 21
492.5861979167
 31
0.0
  0
LINE
  5
426
100
AcDbEntity
  8
ﾚｲﾔｰ1
100
AcDbLine
 10
532.79453125
 20
463.7861979167
 30
0.0
 11
532.79453125
 21
489.3861979167
 31
0.0
  0
ARC
  5
427
100
AcDbEntity
  8
ﾚｲﾔｰ1
100
AcDbCircle
 10
529.59453125
 20
463.7861979167
 30
0.0
 40
3.2
210
0.0
220
0.0
230
1.0
100
AcDbArc
 50
270.0
 51
0.0
  0
LINE
  5
428
100
AcDbEntity
  8
ﾚｲﾔｰ1
100
AcDbLine
 10
503.99453125
 20
460.5861979167
 30
0.0
 11
529.59453125
 21
460.5861979167
 31
0.0
  0
ARC
  5
429
100
AcDbEntity
  8
ﾚｲﾔｰ1
100
AcDbCircle
 10
503.99453125
 20
463.7861979167
 30
0.0
 40
3.2
210
0.0
220
0.0
230
1.0
100
AcDbArc
 50
180.0
 51
270.0
  0
LINE
  5
42A
100
AcDbEntity
  8
ﾚｲﾔｰ1
100
AcDbLine
 10
500.79453125
 20
489.3861979167
 30
0.0
 11
500.79453125
 21
463.7861979167
 31
0.0
  0
ARC
  5
42B
100
AcDbEntity
  8
ﾚｲﾔｰ1
100
AcDbCircle
 10
503.99453125
 20
489.3861979167
 30
0.0
 40
3.2
210
0.0
220
0.0
230
1.0
100
AcDbArc
 50
90.0
 51
180.0
  0
ARC
  5
42C
100
AcDbEntity
  8
ﾚｲﾔｰ1
100
AcDbCircle
 10
529.59453125
 20
463.7861979167
 30
0.0
 40
1.6
210
0.0
220
0.0
230
1.0
100
AcDbArc
 50
270.0
 51
0.0
  0
LINE
  5
42D
100
AcDbEntity
  8
ﾚｲﾔｰ1
100
AcDbLine
 10
531.19453125
 20
463.7861979167
 30
0.0
 11
531.19453125
 21
489.3861979167
 31
0.0
  0
LINE
  5
42E
100
AcDbEntity
  8
ﾚｲﾔｰ1
100
AcDbLine
 10
503.99453125
 20
462.1861979167
 30
0.0
 11
529.59453125
 21
462.1861979167
 31
0.0
  0
ARC
  5
42F
100
AcDbEntity
  8
ﾚｲﾔｰ1
100
AcDbCircle
 10
503.99453125
 20
463.7861979167
 30
0.0
 40
1.6
210
0.0
220
0.0
230
1.0
100
AcDbArc
 50
180.0
 51
270.0
  0
LINE
  5
430
100
AcDbEntity
  8
ﾚｲﾔｰ1
100
AcDbLine
 10
502.39453125
 20
489.3861979167
 30
0.0
 11
502.39453125
 21
463.7861979167
 31
0.0
  0
ARC
  5
431
100
AcDbEntity
  8
ﾚｲﾔｰ1
100
AcDbCircle
 10
-529.59453125
 20
489.3861979167
 30
0.0
 40
1.6
210
0.0
220
0.0
230
-1.0
100
AcDbArc
 50
90.0
 51
180.0
  0
LINE
  5
432
100
AcDbEntity
  8
ﾚｲﾔｰ1
100
AcDbLine
 10
529.59453125
 20
490.9861979167
 30
0.0
 11
503.99453125
 21
490.9861979167
 31
0.0
  0
ARC
  5
433
100
AcDbEntity
  8
ﾚｲﾔｰ1
100
AcDbCircle
 10
503.99453125
 20
489.3861979167
 30
0.0
 40
1.6
210
0.0
220
0.0
230
1.0
100
AcDbArc
 50
90.0
 51
180.0
  0
ENDBLK
  5
434
100
AcDbEntity
  8
0
100
AcDbBlockEnd
  0
BLOCK
  5
451
100
AcDbEntity
  8
0
100
AcDbBlockBegin
  2
CLUMP96
 70
         0
 10
0.0
 20
0.0
 30
0.0
  3

  1

  0
INSERT
  5
453
100
AcDbEntity
  8
0
100
AcDbBlockReference
  2
CLUMP97
 10
0.0
 20
0.0
 30
0.0
  0
ENDBLK
  5
46B
100
AcDbEntity
  8
0
100
AcDbBlockEnd
  0
BLOCK
  5
454
100
AcDbEntity
  8
0
100
AcDbBlockBegin
  2
CLUMP97
 70
         0
 10
0.0
 20
0.0
 30
0.0
  3

  1

  0
ARC
  5
455
100
AcDbEntity
  8
ﾚｲﾔｰ1
  6
DIVIDE
 62
         4
100
AcDbCircle
 10
-787.56328125
 20
464.7861979167
 30
0.0
 40
1.6
210
0.0
220
0.0
230
-1.0
100
AcDbArc
 50
180.0
 51
270.0
  0
ARC
  5
456
100
AcDbEntity
  8
ﾚｲﾔｰ1
  6
DIVIDE
 62
         4
100
AcDbCircle
 10
787.56328125
 20
464.7861979167
 30
0.0
 40
3.2
210
0.0
220
0.0
230
1.0
100
AcDbArc
 50
270.0
 51
0.0
  0
LINE
  5
457
100
AcDbEntity
  8
ﾚｲﾔｰ1
  6
DIVIDE
 62
         4
100
AcDbLine
 10
733.96328125
 20
461.5861979167
 30
0.0
 11
787.56328125
 21
461.5861979167
 31
0.0
  0
LINE
  5
458
100
AcDbEntity
  8
ﾚｲﾔｰ1
  6
DIVIDE
 62
         4
100
AcDbLine
 10
733.96328125
 20
461.5861979167
 30
0.0
 11
787.56328125
 21
461.5861979167
 31
0.0
  0
LINE
  5
459
100
AcDbEntity
  8
ﾚｲﾔｰ1
  6
DIVIDE
 62
         4
100
AcDbLine
 10
733.96328125
 20
463.1861979167
 30
0.0
 11
787.56328125
 21
463.1861979167
 31
0.0
  0
ARC
  5
45A
100
AcDbEntity
  8
ﾚｲﾔｰ1
  6
DIVIDE
 62
         4
100
AcDbCircle
 10
-787.56328125
 20
488.3861979167
 30
0.0
 40
1.6
210
0.0
220
0.0
230
-1.0
100
AcDbArc
 50
90.0
 51
180.0
  0
LINE
  5
45B
100
AcDbEntity
  8
ﾚｲﾔｰ1
  6
DIVIDE
 62
         4
100
AcDbLine
 10
789.16328125
 20
488.3861979167
 30
0.0
 11
789.16328125
 21
464.7861979167
 31
0.0
  0
LINE
  5
45C
100
AcDbEntity
  8
ﾚｲﾔｰ1
  6
DIVIDE
 62
         4
100
AcDbLine
 10
790.76328125
 20
488.3861979167
 30
0.0
 11
790.76328125
 21
464.7861979167
 31
0.0
  0
ARC
  5
45D
100
AcDbEntity
  8
ﾚｲﾔｰ1
  6
DIVIDE
 62
         4
100
AcDbCircle
 10
787.56328125
 20
488.3861979167
 30
0.0
 40
3.2
210
0.0
220
0.0
230
1.0
100
AcDbArc
 50
0.0
 51
90.0
  0
LINE
  5
45E
100
AcDbEntity
  8
ﾚｲﾔｰ1
  6
DIVIDE
 62
         4
100
AcDbLine
 10
780.76328125
 20
491.5861979167
 30
0.0
 11
787.56328125
 21
491.5861979167
 31
0.0
  0
LINE
  5
45F
100
AcDbEntity
  8
ﾚｲﾔｰ1
  6
DIVIDE
 62
         4
100
AcDbLine
 10
780.76328125
 20
489.9861979167
 30
0.0
 11
787.56328125
 21
489.9861979167
 31
0.0
  0
LINE
  5
460
100
AcDbEntity
  8
ﾚｲﾔｰ1
  6
DIVIDE
 62
         4
100
AcDbLine
 10
780.76328125
 20
489.9861979167
 30
0.0
 11
780.76328125
 21
491.5861979167
 31
0.0
  0
ARC
  5
461
100
AcDbEntity
  8
ﾚｲﾔｰ1
  6
DIVIDE
 62
         4
100
AcDbCircle
 10
733.96328125
 20
488.3861979167
 30
0.0
 40
1.6
210
0.0
220
0.0
230
1.0
100
AcDbArc
 50
90.0
 51
180.0
  0
LINE
  5
462
100
AcDbEntity
  8
ﾚｲﾔｰ1
  6
DIVIDE
 62
         4
100
AcDbLine
 10
732.36328125
 20
488.3861979167
 30
0.0
 11
732.36328125
 21
464.7861979167
 31
0.0
  0
ARC
  5
463
100
AcDbEntity
  8
ﾚｲﾔｰ1
  6
DIVIDE
 62
         4
100
AcDbCircle
 10
733.96328125
 20
488.3861979167
 30
0.0
 40
3.2
210
0.0
220
0.0
230
1.0
100
AcDbArc
 50
90.0
 51
180.0
  0
LINE
  5
464
100
AcDbEntity
  8
ﾚｲﾔｰ1
  6
DIVIDE
 62
         4
100
AcDbLine
 10
730.76328125
 20
488.3861979167
 30
0.0
 11
730.76328125
 21
464.7861979167
 31
0.0
  0
LINE
  5
465
100
AcDbEntity
  8
ﾚｲﾔｰ1
  6
DIVIDE
 62
         4
100
AcDbLine
 10
733.96328125
 20
491.5861979167
 30
0.0
 11
740.76328125
 21
491.5861979167
 31
0.0
  0
LINE
  5
466
100
AcDbEntity
  8
ﾚｲﾔｰ1
  6
DIVIDE
 62
         4
100
AcDbLine
 10
733.96328125
 20
489.9861979167
 30
0.0
 11
740.76328125
 21
489.9861979167
 31
0.0
  0
LINE
  5
467
100
AcDbEntity
  8
ﾚｲﾔｰ1
  6
DIVIDE
 62
         4
100
AcDbLine
 10
740.76328125
 20
489.9861979167
 30
0.0
 11
740.76328125
 21
491.5861979167
 31
0.0
  0
ARC
  5
468
100
AcDbEntity
  8
ﾚｲﾔｰ1
  6
DIVIDE
 62
         4
100
AcDbCircle
 10
733.96328125
 20
464.7861979167
 30
0.0
 40
1.6
210
0.0
220
0.0
230
1.0
100
AcDbArc
 50
180.0
 51
270.0
  0
ARC
  5
469
100
AcDbEntity
  8
ﾚｲﾔｰ1
  6
DIVIDE
 62
         4
100
AcDbCircle
 10
733.96328125
 20
464.7861979167
 30
0.0
 40
3.2
210
0.0
220
0.0
230
1.0
100
AcDbArc
 50
180.0
 51
270.0
  0
ENDBLK
  5
46A
100
AcDbEntity
  8
0
100
AcDbBlockEnd
  0
BLOCK
  5
46E
100
AcDbEntity
  8
0
100
AcDbBlockBegin
  2
CLUMP98
 70
         0
 10
0.0
 20
0.0
 30
0.0
  3

  1

  0
INSERT
  5
470
100
AcDbEntity
  8
0
100
AcDbBlockReference
  2
CLUMP99
 10
0.0
 20
0.0
 30
0.0
  0
ENDBLK
  5
488
100
AcDbEntity
  8
0
100
AcDbBlockEnd
  0
BLOCK
  5
471
100
AcDbEntity
  8
0
100
AcDbBlockBegin
  2
CLUMP99
 70
         0
 10
0.0
 20
0.0
 30
0.0
  3

  1

  0
ARC
  5
472
100
AcDbEntity
  8
ﾚｲﾔｰ1
  6
DIVIDE
 62
         4
100
AcDbCircle
 10
-658.56328125
 20
464.7861979167
 30
0.0
 40
1.6
210
0.0
220
0.0
230
-1.0
100
AcDbArc
 50
180.0
 51
270.0
  0
ARC
  5
473
100
AcDbEntity
  8
ﾚｲﾔｰ1
  6
DIVIDE
 62
         4
100
AcDbCircle
 10
658.56328125
 20
464.7861979167
 30
0.0
 40
3.2
210
0.0
220
0.0
230
1.0
100
AcDbArc
 50
270.0
 51
0.0
  0
LINE
  5
474
100
AcDbEntity
  8
ﾚｲﾔｰ1
  6
DIVIDE
 62
         4
100
AcDbLine
 10
604.96328125
 20
461.5861979167
 30
0.0
 11
658.56328125
 21
461.5861979167
 31
0.0
  0
LINE
  5
475
100
AcDbEntity
  8
ﾚｲﾔｰ1
  6
DIVIDE
 62
         4
100
AcDbLine
 10
604.96328125
 20
461.5861979167
 30
0.0
 11
658.56328125
 21
461.5861979167
 31
0.0
  0
LINE
  5
476
100
AcDbEntity
  8
ﾚｲﾔｰ1
  6
DIVIDE
 62
         4
100
AcDbLine
 10
604.96328125
 20
463.1861979167
 30
0.0
 11
658.56328125
 21
463.1861979167
 31
0.0
  0
ARC
  5
477
100
AcDbEntity
  8
ﾚｲﾔｰ1
  6
DIVIDE
 62
         4
100
AcDbCircle
 10
-658.56328125
 20
488.3861979167
 30
0.0
 40
1.6
210
0.0
220
0.0
230
-1.0
100
AcDbArc
 50
90.0
 51
180.0
  0
LINE
  5
478
100
AcDbEntity
  8
ﾚｲﾔｰ1
  6
DIVIDE
 62
         4
100
AcDbLine
 10
660.16328125
 20
488.3861979167
 30
0.0
 11
660.16328125
 21
464.7861979167
 31
0.0
  0
LINE
  5
479
100
AcDbEntity
  8
ﾚｲﾔｰ1
  6
DIVIDE
 62
         4
100
AcDbLine
 10
661.76328125
 20
488.3861979167
 30
0.0
 11
661.76328125
 21
464.7861979167
 31
0.0
  0
ARC
  5
47A
100
AcDbEntity
  8
ﾚｲﾔｰ1
  6
DIVIDE
 62
         4
100
AcDbCircle
 10
658.56328125
 20
488.3861979167
 30
0.0
 40
3.2
210
0.0
220
0.0
230
1.0
100
AcDbArc
 50
0.0
 51
90.0
  0
LINE
  5
47B
100
AcDbEntity
  8
ﾚｲﾔｰ1
  6
DIVIDE
 62
         4
100
AcDbLine
 10
651.76328125
 20
491.5861979167
 30
0.0
 11
658.56328125
 21
491.5861979167
 31
0.0
  0
LINE
  5
47C
100
AcDbEntity
  8
ﾚｲﾔｰ1
  6
DIVIDE
 62
         4
100
AcDbLine
 10
651.76328125
 20
489.9861979167
 30
0.0
 11
658.56328125
 21
489.9861979167
 31
0.0
  0
LINE
  5
47D
100
AcDbEntity
  8
ﾚｲﾔｰ1
  6
DIVIDE
 62
         4
100
AcDbLine
 10
651.76328125
 20
489.9861979167
 30
0.0
 11
651.76328125
 21
491.5861979167
 31
0.0
  0
ARC
  5
47E
100
AcDbEntity
  8
ﾚｲﾔｰ1
  6
DIVIDE
 62
         4
100
AcDbCircle
 10
604.96328125
 20
488.3861979167
 30
0.0
 40
1.6
210
0.0
220
0.0
230
1.0
100
AcDbArc
 50
90.0
 51
180.0
  0
LINE
  5
47F
100
AcDbEntity
  8
ﾚｲﾔｰ1
  6
DIVIDE
 62
         4
100
AcDbLine
 10
603.36328125
 20
488.3861979167
 30
0.0
 11
603.36328125
 21
464.7861979167
 31
0.0
  0
ARC
  5
480
100
AcDbEntity
  8
ﾚｲﾔｰ1
  6
DIVIDE
 62
         4
100
AcDbCircle
 10
604.96328125
 20
488.3861979167
 30
0.0
 40
3.2
210
0.0
220
0.0
230
1.0
100
AcDbArc
 50
90.0
 51
180.0
  0
LINE
  5
481
100
AcDbEntity
  8
ﾚｲﾔｰ1
  6
DIVIDE
 62
         4
100
AcDbLine
 10
601.76328125
 20
488.3861979167
 30
0.0
 11
601.76328125
 21
464.7861979167
 31
0.0
  0
LINE
  5
482
100
AcDbEntity
  8
ﾚｲﾔｰ1
  6
DIVIDE
 62
         4
100
AcDbLine
 10
604.96328125
 20
491.5861979167
 30
0.0
 11
611.76328125
 21
491.5861979167
 31
0.0
  0
LINE
  5
483
100
AcDbEntity
  8
ﾚｲﾔｰ1
  6
DIVIDE
 62
         4
100
AcDbLine
 10
604.96328125
 20
489.9861979167
 30
0.0
 11
611.76328125
 21
489.9861979167
 31
0.0
  0
LINE
  5
484
100
AcDbEntity
  8
ﾚｲﾔｰ1
  6
DIVIDE
 62
         4
100
AcDbLine
 10
611.76328125
 20
489.9861979167
 30
0.0
 11
611.76328125
 21
491.5861979167
 31
0.0
  0
ARC
  5
485
100
AcDbEntity
  8
ﾚｲﾔｰ1
  6
DIVIDE
 62
         4
100
AcDbCircle
 10
604.96328125
 20
464.7861979167
 30
0.0
 40
1.6
210
0.0
220
0.0
230
1.0
100
AcDbArc
 50
180.0
 51
270.0
  0
ARC
  5
486
100
AcDbEntity
  8
ﾚｲﾔｰ1
  6
DIVIDE
 62
         4
100
AcDbCircle
 10
604.96328125
 20
464.7861979167
 30
0.0
 40
3.2
210
0.0
220
0.0
230
1.0
100
AcDbArc
 50
180.0
 51
270.0
  0
ENDBLK
  5
487
100
AcDbEntity
  8
0
100
AcDbBlockEnd
  0
BLOCK
  5
48F
100
AcDbEntity
  8
0
100
AcDbBlockBegin
  2
*D100
 70
         1
 10
0.0
 20
0.0
 30
0.0
  3

  1

  0
TEXT
  5
490
100
AcDbEntity
  8
0
 62
         0
100
AcDbText
 10
755.2776191185
 20
167.9127387047
 30
0.0
 40
9.6586836815
  1
60
100
AcDbText
  0
LINE
  5
491
100
AcDbEntity
  8
0
 62
         0
100
AcDbLine
 10
790.76328125
 20
201.88984375
 30
0.0
 11
790.76328125
 21
165.88984375
 31
0.0
  0
LINE
  5
492
100
AcDbEntity
  8
0
 62
         0
100
AcDbLine
 10
730.76328125
 20
201.88984375
 30
0.0
 11
730.76328125
 21
165.88984375
 31
0.0
  0
LINE
  5
493
100
AcDbEntity
  8
0
 62
         0
100
AcDbLine
 10
790.76328125
 20
171.88984375
 30
0.0
 11
771.9305220176
 21
171.88984375
 31
0.0
  0
LINE
  5
494
100
AcDbEntity
  8
0
 62
         0
100
AcDbLine
 10
730.76328125
 20
171.88984375
 30
0.0
 11
749.5960404824
 21
171.88984375
 31
0.0
  0
LINE
  5
495
100
AcDbEntity
  8
0
 62
         0
100
AcDbLine
 10
790.76328125
 20
171.88984375
 30
0.0
 11
771.9305220176
 21
171.88984375
 31
0.0
  0
LINE
  5
496
100
AcDbEntity
  8
0
 62
         0
100
AcDbLine
 10
730.76328125
 20
171.88984375
 30
0.0
 11
749.5960404824
 21
171.88984375
 31
0.0
  0
LINE
  5
497
100
AcDbEntity
  8
0
 62
         0
100
AcDbLine
 10
730.76328125
 20
171.88984375
 30
0.0
 11
745.76328125
 21
171.88984375
 31
0.0
  0
LINE
  5
498
100
AcDbEntity
  8
0
 62
         0
100
AcDbLine
 10
737.0092810631
 20
173.4513437033
 30
0.0
 11
730.76328125
 21
171.88984375
 31
0.0
  0
LINE
  5
499
100
AcDbEntity
  8
0
 62
         0
100
AcDbLine
 10
730.76328125
 20
171.88984375
 30
0.0
 11
737.0092810631
 21
170.3283437967
 31
0.0
  0
LINE
  5
49A
100
AcDbEntity
  8
0
 62
         0
100
AcDbLine
 10
790.76328125
 20
171.88984375
 30
0.0
 11
775.76328125
 21
171.88984375
 31
0.0
  0
LINE
  5
49B
100
AcDbEntity
  8
0
 62
         0
100
AcDbLine
 10
784.5172814369
 20
170.3283437967
 30
0.0
 11
790.76328125
 21
171.88984375
 31
0.0
  0
LINE
  5
49C
100
AcDbEntity
  8
0
 62
         0
100
AcDbLine
 10
790.76328125
 20
171.88984375
 30
0.0
 11
784.5172814369
 21
173.4513437033
 31
0.0
  0
ENDBLK
  5
49D
100
AcDbEntity
  8
0
100
AcDbBlockEnd
  0
BLOCK
  5
4A1
100
AcDbEntity
  8
0
100
AcDbBlockBegin
  2
*D101
 70
         1
 10
0.0
 20
0.0
 30
0.0
  3

  1

  0
TEXT
  5
4A2
100
AcDbEntity
  8
0
 62
         0
100
AcDbText
 10
746.1429550434
 20
298.9465928714
 30
0.0
 40
9.6586836815
  1
100
100
AcDbText
  0
LINE
  5
4A3
100
AcDbEntity
  8
0
 62
         0
100
AcDbLine
 10
704.76328125
 20
272.9236979167
 30
0.0
 11
704.76328125
 21
308.9236979167
 31
0.0
  0
LINE
  5
4A4
100
AcDbEntity
  8
0
 62
         0
100
AcDbLine
 10
804.76328125
 20
272.9236979167
 30
0.0
 11
804.76328125
 21
308.9236979167
 31
0.0
  0
LINE
  5
4A5
100
AcDbEntity
  8
0
 62
         0
100
AcDbLine
 10
704.76328125
 20
302.9236979167
 30
0.0
 11
740.4613764072
 21
302.9236979167
 31
0.0
  0
LINE
  5
4A6
100
AcDbEntity
  8
0
 62
         0
100
AcDbLine
 10
804.76328125
 20
302.9236979167
 30
0.0
 11
769.0651860928
 21
302.9236979167
 31
0.0
  0
LINE
  5
4A7
100
AcDbEntity
  8
0
 62
         0
100
AcDbLine
 10
704.76328125
 20
302.9236979167
 30
0.0
 11
740.4613764072
 21
302.9236979167
 31
0.0
  0
LINE
  5
4A8
100
AcDbEntity
  8
0
 62
         0
100
AcDbLine
 10
804.76328125
 20
302.9236979167
 30
0.0
 11
769.0651860928
 21
302.9236979167
 31
0.0
  0
LINE
  5
4A9
100
AcDbEntity
  8
0
 62
         0
100
AcDbLine
 10
804.76328125
 20
302.9236979167
 30
0.0
 11
789.76328125
 21
302.9236979167
 31
0.0
  0
LINE
  5
4AA
100
AcDbEntity
  8
0
 62
         0
100
AcDbLine
 10
798.5172814369
 20
301.3621979634
 30
0.0
 11
804.76328125
 21
302.9236979167
 31
0.0
  0
LINE
  5
4AB
100
AcDbEntity
  8
0
 62
         0
100
AcDbLine
 10
804.76328125
 20
302.9236979167
 30
0.0
 11
798.5172814369
 21
304.48519787
 31
0.0
  0
LINE
  5
4AC
100
AcDbEntity
  8
0
 62
         0
100
AcDbLine
 10
704.76328125
 20
302.9236979167
 30
0.0
 11
719.76328125
 21
302.9236979167
 31
0.0
  0
LINE
  5
4AD
100
AcDbEntity
  8
0
 62
         0
100
AcDbLine
 10
711.0092810631
 20
304.48519787
 30
0.0
 11
704.76328125
 21
302.9236979167
 31
0.0
  0
LINE
  5
4AE
100
AcDbEntity
  8
0
 62
         0
100
AcDbLine
 10
704.76328125
 20
302.9236979167
 30
0.0
 11
711.0092810631
 21
301.3621979634
 31
0.0
  0
ENDBLK
  5
4AF
100
AcDbEntity
  8
0
100
AcDbBlockEnd
  0
BLOCK
  5
4B2
100
AcDbEntity
  8
0
100
AcDbBlockBegin
  2
*D102
 70
         1
 10
0.0
 20
0.0
 30
0.0
  3

  1

  0
TEXT
  5
4B3
100
AcDbEntity
  8
0
 62
         0
100
AcDbText
 10
836.865048455
 20
267.4380357852
 30
0.0
 40
9.6586836815
  1
19
 50
90.0
100
AcDbText
  0
LINE
  5
4B4
100
AcDbEntity
  8
0
 62
         0
100
AcDbLine
 10
802.8879434097
 20
282.4236979167
 30
0.0
 11
838.8879434097
 21
282.4236979167
 31
0.0
  0
LINE
  5
4B5
100
AcDbEntity
  8
0
 62
         0
100
AcDbLine
 10
802.8879434097
 20
263.4236979167
 30
0.0
 11
838.8879434097
 21
263.4236979167
 31
0.0
  0
LINE
  5
4B6
100
AcDbEntity
  8
0
 62
         0
100
AcDbLine
 10
832.8879434097
 20
282.4236979167
 30
0.0
 11
832.8879434097
 21
282.4236979167
 31
0.0
  0
LINE
  5
4B7
100
AcDbEntity
  8
0
 62
         0
100
AcDbLine
 10
832.8879434097
 20
263.4236979167
 30
0.0
 11
832.8879434097
 21
263.4236979167
 31
0.0
  0
LINE
  5
4B8
100
AcDbEntity
  8
0
 62
         0
100
AcDbLine
 10
832.8879434097
 20
282.4236979167
 30
0.0
 11
832.8879434097
 21
282.4236979167
 31
0.0
  0
LINE
  5
4B9
100
AcDbEntity
  8
0
 62
         0
100
AcDbLine
 10
832.8879434097
 20
263.4236979167
 30
0.0
 11
832.8879434097
 21
263.4236979167
 31
0.0
  0
LINE
  5
4BA
100
AcDbEntity
  8
0
 62
         0
100
AcDbLine
 10
832.8879434097
 20
263.4236979167
 30
0.0
 11
832.8879434097
 21
263.4236979167
 31
0.0
  0
LINE
  5
4BB
100
AcDbEntity
  8
0
 62
         0
100
AcDbLine
 10
832.8879434097
 20
263.4236979167
 30
0.0
 11
832.8879434097
 21
263.4236979167
 31
0.0
  0
LINE
  5
4BC
100
AcDbEntity
  8
0
 62
         0
100
AcDbLine
 10
832.8879434097
 20
263.4236979167
 30
0.0
 11
832.8879434097
 21
263.4236979167
 31
0.0
  0
LINE
  5
4BD
100
AcDbEntity
  8
0
 62
         0
100
AcDbLine
 10
832.8879434097
 20
282.4236979167
 30
0.0
 11
832.8879434097
 21
282.4236979167
 31
0.0
  0
LINE
  5
4BE
100
AcDbEntity
  8
0
 62
         0
100
AcDbLine
 10
832.8879434097
 20
282.4236979167
 30
0.0
 11
832.8879434097
 21
282.4236979167
 31
0.0
  0
LINE
  5
4BF
100
AcDbEntity
  8
0
 62
         0
100
AcDbLine
 10
832.8879434097
 20
282.4236979167
 30
0.0
 11
832.8879434097
 21
282.4236979167
 31
0.0
  0
ENDBLK
  5
4C0
100
AcDbEntity
  8
0
100
AcDbBlockEnd
  0
BLOCK
  5
4C3
100
AcDbEntity
  8
0
100
AcDbBlockBegin
  2
*D103
 70
         1
 10
0.0
 20
0.0
 30
0.0
  3

  1

  0
TEXT
  5
4C4
100
AcDbEntity
  8
0
 62
         0
100
AcDbText
 10
626.4026191185
 20
167.9127387047
 30
0.0
 40
9.6586836815
  1
60
100
AcDbText
  0
LINE
  5
4C5
100
AcDbEntity
  8
0
 62
         0
100
AcDbLine
 10
661.76328125
 20
201.88984375
 30
0.0
 11
661.76328125
 21
165.88984375
 31
0.0
  0
LINE
  5
4C6
100
AcDbEntity
  8
0
 62
         0
100
AcDbLine
 10
602.01328125
 20
201.88984375
 30
0.0
 11
602.01328125
 21
165.88984375
 31
0.0
  0
LINE
  5
4C7
100
AcDbEntity
  8
0
 62
         0
100
AcDbLine
 10
661.76328125
 20
171.88984375
 30
0.0
 11
643.0555220176
 21
171.88984375
 31
0.0
  0
LINE
  5
4C8
100
AcDbEntity
  8
0
 62
         0
100
AcDbLine
 10
602.01328125
 20
171.88984375
 30
0.0
 11
620.7210404824
 21
171.88984375
 31
0.0
  0
LINE
  5
4C9
100
AcDbEntity
  8
0
 62
         0
100
AcDbLine
 10
661.76328125
 20
171.88984375
 30
0.0
 11
643.0555220176
 21
171.88984375
 31
0.0
  0
LINE
  5
4CA
100
AcDbEntity
  8
0
 62
         0
100
AcDbLine
 10
602.01328125
 20
171.88984375
 30
0.0
 11
620.7210404824
 21
171.88984375
 31
0.0
  0
LINE
  5
4CB
100
AcDbEntity
  8
0
 62
         0
100
AcDbLine
 10
602.01328125
 20
171.88984375
 30
0.0
 11
617.01328125
 21
171.88984375
 31
0.0
  0
LINE
  5
4CC
100
AcDbEntity
  8
0
 62
         0
100
AcDbLine
 10
608.2592810631
 20
173.4513437033
 30
0.0
 11
602.01328125
 21
171.88984375
 31
0.0
  0
LINE
  5
4CD
100
AcDbEntity
  8
0
 62
         0
100
AcDbLine
 10
602.01328125
 20
171.88984375
 30
0.0
 11
608.2592810631
 21
170.3283437967
 31
0.0
  0
LINE
  5
4CE
100
AcDbEntity
  8
0
 62
         0
100
AcDbLine
 10
661.76328125
 20
171.88984375
 30
0.0
 11
646.76328125
 21
171.88984375
 31
0.0
  0
LINE
  5
4CF
100
AcDbEntity
  8
0
 62
         0
100
AcDbLine
 10
655.5172814369
 20
170.3283437967
 30
0.0
 11
661.76328125
 21
171.88984375
 31
0.0
  0
LINE
  5
4D0
100
AcDbEntity
  8
0
 62
         0
100
AcDbLine
 10
661.76328125
 20
171.88984375
 30
0.0
 11
655.5172814369
 21
173.4513437033
 31
0.0
  0
ENDBLK
  5
4D1
100
AcDbEntity
  8
0
100
AcDbBlockEnd
  0
BLOCK
  5
4D4
100
AcDbEntity
  8
0
100
AcDbBlockBegin
  2
*D104
 70
         1
 10
0.0
 20
0.0
 30
0.0
  3

  1

  0
TEXT
  5
4D5
100
AcDbEntity
  8
0
 62
         0
100
AcDbText
 10
672.2776191185
 20
167.9127387047
 30
0.0
 40
9.6586836815
  1
32
100
AcDbText
  0
LINE
  5
4D6
100
AcDbEntity
  8
0
 62
         0
100
AcDbLine
 10
693.76328125
 20
201.88984375
 30
0.0
 11
693.76328125
 21
165.88984375
 31
0.0
  0
LINE
  5
4D7
100
AcDbEntity
  8
0
 62
         0
100
AcDbLine
 10
661.76328125
 20
201.88984375
 30
0.0
 11
661.76328125
 21
165.88984375
 31
0.0
  0
LINE
  5
4D8
100
AcDbEntity
  8
0
 62
         0
100
AcDbLine
 10
693.76328125
 20
171.88984375
 30
0.0
 11
688.9305220176
 21
171.88984375
 31
0.0
  0
LINE
  5
4D9
100
AcDbEntity
  8
0
 62
         0
100
AcDbLine
 10
661.76328125
 20
171.88984375
 30
0.0
 11
666.5960404824
 21
171.88984375
 31
0.0
  0
LINE
  5
4DA
100
AcDbEntity
  8
0
 62
         0
100
AcDbLine
 10
693.76328125
 20
171.88984375
 30
0.0
 11
688.9305220176
 21
171.88984375
 31
0.0
  0
LINE
  5
4DB
100
AcDbEntity
  8
0
 62
         0
100
AcDbLine
 10
661.76328125
 20
171.88984375
 30
0.0
 11
666.5960404824
 21
171.88984375
 31
0.0
  0
LINE
  5
4DC
100
AcDbEntity
  8
0
 62
         0
100
AcDbLine
 10
661.76328125
 20
171.88984375
 30
0.0
 11
646.76328125
 21
171.88984375
 31
0.0
  0
LINE
  5
4DD
100
AcDbEntity
  8
0
 62
         0
100
AcDbLine
 10
655.5172814369
 20
170.3283437967
 30
0.0
 11
661.76328125
 21
171.88984375
 31
0.0
  0
LINE
  5
4DE
100
AcDbEntity
  8
0
 62
         0
100
AcDbLine
 10
661.76328125
 20
171.88984375
 30
0.0
 11
655.5172814369
 21
173.4513437033
 31
0.0
  0
LINE
  5
4DF
100
AcDbEntity
  8
0
 62
         0
100
AcDbLine
 10
693.76328125
 20
171.88984375
 30
0.0
 11
708.76328125
 21
171.88984375
 31
0.0
  0
LINE
  5
4E0
100
AcDbEntity
  8
0
 62
         0
100
AcDbLine
 10
700.0092810631
 20
173.4513437033
 30
0.0
 11
693.76328125
 21
171.88984375
 31
0.0
  0
LINE
  5
4E1
100
AcDbEntity
  8
0
 62
         0
100
AcDbLine
 10
693.76328125
 20
171.88984375
 30
0.0
 11
700.0092810631
 21
170.3283437967
 31
0.0
  0
ENDBLK
  5
4E2
100
AcDbEntity
  8
0
100
AcDbBlockEnd
  0
BLOCK
  5
4E5
100
AcDbEntity
  8
0
100
AcDbBlockBegin
  2
*D105
 70
         1
 10
0.0
 20
0.0
 30
0.0
  3

  1

  0
TEXT
  5
4E6
100
AcDbEntity
  8
0
 62
         0
100
AcDbText
 10
405.9893446286
 20
282.7022064582
 30
0.0
 40
9.6586836815
  1
1700
 50
90.0
100
AcDbText
  0
LINE
  5
4E7
100
AcDbEntity
  8
0
 62
         0
100
AcDbLine
 10
272.19453125
 20
464.5571967399
 30
0.0
 11
408.0122395833
 21
464.5571967399
 31
0.0
  0
LINE
  5
4E8
100
AcDbEntity
  8
0
 62
         0
100
AcDbLine
 10
272.19453125
 20
124.3571967399
 30
0.0
 11
408.0122395833
 21
124.3571967399
 31
0.0
  0
LINE
  5
4E9
100
AcDbEntity
  8
0
 62
         0
100
AcDbLine
 10
402.0122395833
 20
464.5571967399
 30
0.0
 11
402.0122395833
 21
311.8937656578
 31
0.0
  0
LINE
  5
4EA
100
AcDbEntity
  8
0
 62
         0
100
AcDbLine
 10
402.0122395833
 20
124.3571967399
 30
0.0
 11
402.0122395833
 21
277.020627822
 31
0.0
  0
LINE
  5
4EB
100
AcDbEntity
  8
0
 62
         0
100
AcDbLine
 10
402.0122395833
 20
464.5571967399
 30
0.0
 11
402.0122395833
 21
311.8937656578
 31
0.0
  0
LINE
  5
4EC
100
AcDbEntity
  8
0
 62
         0
100
AcDbLine
 10
402.0122395833
 20
124.3571967399
 30
0.0
 11
402.0122395833
 21
277.020627822
 31
0.0
  0
LINE
  5
4ED
100
AcDbEntity
  8
0
 62
         0
100
AcDbLine
 10
402.0122395833
 20
124.3571967399
 30
0.0
 11
402.0122395833
 21
139.3571967399
 31
0.0
  0
LINE
  5
4EE
100
AcDbEntity
  8
0
 62
         0
100
AcDbLine
 10
400.45073963
 20
130.603196553
 30
0.0
 11
402.0122395833
 21
124.3571967399
 31
0.0
  0
LINE
  5
4EF
100
AcDbEntity
  8
0
 62
         0
100
AcDbLine
 10
402.0122395833
 20
124.3571967399
 30
0.0
 11
403.5737395366
 21
130.603196553
 31
0.0
  0
LINE
  5
4F0
100
AcDbEntity
  8
0
 62
         0
100
AcDbLine
 10
402.0122395833
 20
464.5571967399
 30
0.0
 11
402.0122395833
 21
449.5571967399
 31
0.0
  0
LINE
  5
4F1
100
AcDbEntity
  8
0
 62
         0
100
AcDbLine
 10
403.5737395366
 20
458.3111969268
 30
0.0
 11
402.0122395833
 21
464.5571967399
 31
0.0
  0
LINE
  5
4F2
100
AcDbEntity
  8
0
 62
         0
100
AcDbLine
 10
402.0122395833
 20
464.5571967399
 30
0.0
 11
400.45073963
 21
458.3111969268
 31
0.0
  0
ENDBLK
  5
4F3
100
AcDbEntity
  8
0
100
AcDbBlockEnd
  0
BLOCK
  5
50A
100
AcDbEntity
  8
0
100
AcDbBlockBegin
  2
CLUMP100
 70
         0
 10
0.0
 20
0.0
 30
0.0
  3

  1

  0
LINE
  5
50B
100
AcDbEntity
  8
ﾚｲﾔｰ1
100
AcDbLine
 10
636.75
 20
424.5157618525
 30
0.0
 11
641.5
 21
424.5157618525
 31
0.0
  0
LINE
  5
50C
100
AcDbEntity
  8
ﾚｲﾔｰ1
100
AcDbLine
 10
641.5
 20
416.0157618525
 30
0.0
 11
636.75
 21
416.0157618525
 31
0.0
  0
LINE
  5
50D
100
AcDbEntity
  8
ﾚｲﾔｰ1
100
AcDbLine
 10
636.75
 20
416.0157618525
 30
0.0
 11
636.75
 21
424.5157618525
 31
0.0
  0
LINE
  5
50E
100
AcDbEntity
  8
ﾚｲﾔｰ1
100
AcDbLine
 10
641.5
 20
424.5157618525
 30
0.0
 11
641.5
 21
422.9372276263
 31
0.0
  0
LINE
  5
50F
100
AcDbEntity
  8
ﾚｲﾔｰ1
100
AcDbLine
 10
641.5
 20
417.5157618525
 30
0.0
 11
641.5
 21
416.0157618525
 31
0.0
  0
ENDBLK
  5
510
100
AcDbEntity
  8
0
100
AcDbBlockEnd
  0
BLOCK
  5
523
100
AcDbEntity
  8
0
100
AcDbBlockBegin
  2
*D107
 70
         1
 10
0.0
 20
0.0
 30
0.0
  3

  1

  0
TEXT
  5
524
100
AcDbEntity
  8
0
 62
         0
100
AcDbText
 10
490.2109108662
 20
395.6090928714
 30
0.0
 40
9.6586836815
  1
58
100
AcDbText
  0
LINE
  5
525
100
AcDbEntity
  8
0
 62
         0
100
AcDbLine
 10
524.79453125
 20
429.5861979167
 30
0.0
 11
524.79453125
 21
393.5861979167
 31
0.0
  0
LINE
  5
526
100
AcDbEntity
  8
0
 62
         0
100
AcDbLine
 10
466.79453125
 20
455.0861979167
 30
0.0
 11
466.79453125
 21
393.5861979167
 31
0.0
  0
LINE
  5
527
100
AcDbEntity
  8
0
 62
         0
100
AcDbLine
 10
524.79453125
 20
399.5861979167
 30
0.0
 11
507.05973027
 21
399.5861979167
 31
0.0
  0
LINE
  5
528
100
AcDbEntity
  8
0
 62
         0
100
AcDbLine
 10
466.79453125
 20
399.5861979167
 30
0.0
 11
484.52933223
 21
399.5861979167
 31
0.0
  0
LINE
  5
529
100
AcDbEntity
  8
0
 62
         0
100
AcDbLine
 10
524.79453125
 20
399.5861979167
 30
0.0
 11
507.05973027
 21
399.5861979167
 31
0.0
  0
LINE
  5
52A
100
AcDbEntity
  8
0
 62
         0
100
AcDbLine
 10
466.79453125
 20
399.5861979167
 30
0.0
 11
484.52933223
 21
399.5861979167
 31
0.0
  0
LINE
  5
52B
100
AcDbEntity
  8
0
 62
         0
100
AcDbLine
 10
466.79453125
 20
399.5861979167
 30
0.0
 11
481.79453125
 21
399.5861979167
 31
0.0
  0
LINE
  5
52C
100
AcDbEntity
  8
0
 62
         0
100
AcDbLine
 10
473.0405310631
 20
401.14769787
 30
0.0
 11
466.79453125
 21
399.5861979167
 31
0.0
  0
LINE
  5
52D
100
AcDbEntity
  8
0
 62
         0
100
AcDbLine
 10
466.79453125
 20
399.5861979167
 30
0.0
 11
473.0405310631
 21
398.0246979634
 31
0.0
  0
LINE
  5
52E
100
AcDbEntity
  8
0
 62
         0
100
AcDbLine
 10
524.79453125
 20
399.5861979167
 30
0.0
 11
509.79453125
 21
399.5861979167
 31
0.0
  0
LINE
  5
52F
100
AcDbEntity
  8
0
 62
         0
100
AcDbLine
 10
518.5485314369
 20
398.0246979634
 30
0.0
 11
524.79453125
 21
399.5861979167
 31
0.0
  0
LINE
  5
530
100
AcDbEntity
  8
0
 62
         0
100
AcDbLine
 10
524.79453125
 20
399.5861979167
 30
0.0
 11
518.5485314369
 21
401.14769787
 31
0.0
  0
ENDBLK
  5
531
100
AcDbEntity
  8
0
100
AcDbBlockEnd
  0
BLOCK
  5
534
100
AcDbEntity
  8
0
100
AcDbBlockBegin
  2
*D108
 70
         1
 10
0.0
 20
0.0
 30
0.0
  3

  1

  0
TEXT
  5
535
100
AcDbEntity
  8
0
 62
         0
100
AcDbText
 10
563.5716362953
 20
440.384201804
 30
0.0
 40
9.6586836815
  1
31
 50
90.0
100
AcDbText
  0
LINE
  5
536
100
AcDbEntity
  8
0
 62
         0
100
AcDbLine
 10
529.59453125
 20
460.5861979167
 30
0.0
 11
565.59453125
 21
460.5861979167
 31
0.0
  0
LINE
  5
537
100
AcDbEntity
  8
0
 62
         0
100
AcDbLine
 10
524.79453125
 20
429.5861979167
 30
0.0
 11
565.59453125
 21
429.5861979167
 31
0.0
  0
LINE
  5
538
100
AcDbEntity
  8
0
 62
         0
100
AcDbLine
 10
559.59453125
 20
460.5861979167
 30
0.0
 11
559.59453125
 21
455.4697726656
 31
0.0
  0
LINE
  5
539
100
AcDbEntity
  8
0
 62
         0
100
AcDbLine
 10
559.59453125
 20
429.5861979167
 30
0.0
 11
559.59453125
 21
434.7026231678
 31
0.0
  0
LINE
  5
53A
100
AcDbEntity
  8
0
 62
         0
100
AcDbLine
 10
559.59453125
 20
460.5861979167
 30
0.0
 11
559.59453125
 21
455.4697726656
 31
0.0
  0
LINE
  5
53B
100
AcDbEntity
  8
0
 62
         0
100
AcDbLine
 10
559.59453125
 20
429.5861979167
 30
0.0
 11
559.59453125
 21
434.7026231678
 31
0.0
  0
LINE
  5
53C
100
AcDbEntity
  8
0
 62
         0
100
AcDbLine
 10
559.59453125
 20
429.5861979167
 30
0.0
 11
559.59453125
 21
414.5861979167
 31
0.0
  0
LINE
  5
53D
100
AcDbEntity
  8
0
 62
         0
100
AcDbLine
 10
561.1560312033
 20
423.3401981036
 30
0.0
 11
559.59453125
 21
429.5861979167
 31
0.0
  0
LINE
  5
53E
100
AcDbEntity
  8
0
 62
         0
100
AcDbLine
 10
559.59453125
 20
429.5861979167
 30
0.0
 11
558.0330312967
 21
423.3401981036
 31
0.0
  0
LINE
  5
53F
100
AcDbEntity
  8
0
 62
         0
100
AcDbLine
 10
559.59453125
 20
460.5861979167
 30
0.0
 11
559.59453125
 21
475.5861979167
 31
0.0
  0
LINE
  5
540
100
AcDbEntity
  8
0
 62
         0
100
AcDbLine
 10
558.0330312967
 20
466.8321977298
 30
0.0
 11
559.59453125
 21
460.5861979167
 31
0.0
  0
LINE
  5
541
100
AcDbEntity
  8
0
 62
         0
100
AcDbLine
 10
559.59453125
 20
460.5861979167
 30
0.0
 11
561.1560312033
 21
466.8321977298
 31
0.0
  0
ENDBLK
  5
542
100
AcDbEntity
  8
0
100
AcDbBlockEnd
  0
BLOCK
  5
545
100
AcDbEntity
  8
0
100
AcDbBlockBegin
  2
*D109
 70
         1
 10
0.0
 20
0.0
 30
0.0
  3

  1

  0
TEXT
  5
546
100
AcDbEntity
  8
0
 62
         0
100
AcDbText
 10
563.5716362953
 20
471.1005357852
 30
0.0
 40
9.6586836815
  1
32
 50
90.0
100
AcDbText
  0
LINE
  5
547
100
AcDbEntity
  8
0
 62
         0
100
AcDbLine
 10
529.59453125
 20
492.5861979167
 30
0.0
 11
565.59453125
 21
492.5861979167
 31
0.0
  0
LINE
  5
548
100
AcDbEntity
  8
0
 62
         0
100
AcDbLine
 10
529.59453125
 20
460.5861979167
 30
0.0
 11
565.59453125
 21
460.5861979167
 31
0.0
  0
LINE
  5
549
100
AcDbEntity
  8
0
 62
         0
100
AcDbLine
 10
559.59453125
 20
492.5861979167
 30
0.0
 11
559.59453125
 21
487.7534386843
 31
0.0
  0
LINE
  5
54A
100
AcDbEntity
  8
0
 62
         0
100
AcDbLine
 10
559.59453125
 20
460.5861979167
 30
0.0
 11
559.59453125
 21
465.4189571491
 31
0.0
  0
LINE
  5
54B
100
AcDbEntity
  8
0
 62
         0
100
AcDbLine
 10
559.59453125
 20
492.5861979167
 30
0.0
 11
559.59453125
 21
487.7534386843
 31
0.0
  0
LINE
  5
54C
100
AcDbEntity
  8
0
 62
         0
100
AcDbLine
 10
559.59453125
 20
460.5861979167
 30
0.0
 11
559.59453125
 21
465.4189571491
 31
0.0
  0
LINE
  5
54D
100
AcDbEntity
  8
0
 62
         0
100
AcDbLine
 10
559.59453125
 20
460.5861979167
 30
0.0
 11
559.59453125
 21
445.5861979167
 31
0.0
  0
LINE
  5
54E
100
AcDbEntity
  8
0
 62
         0
100
AcDbLine
 10
561.1560312033
 20
454.3401981036
 30
0.0
 11
559.59453125
 21
460.5861979167
 31
0.0
  0
LINE
  5
54F
100
AcDbEntity
  8
0
 62
         0
100
AcDbLine
 10
559.59453125
 20
460.5861979167
 30
0.0
 11
558.0330312967
 21
454.3401981036
 31
0.0
  0
LINE
  5
550
100
AcDbEntity
  8
0
 62
         0
100
AcDbLine
 10
559.59453125
 20
492.5861979167
 30
0.0
 11
559.59453125
 21
507.5861979167
 31
0.0
  0
LINE
  5
551
100
AcDbEntity
  8
0
 62
         0
100
AcDbLine
 10
558.0330312967
 20
498.8321977298
 30
0.0
 11
559.59453125
 21
492.5861979167
 31
0.0
  0
LINE
  5
552
100
AcDbEntity
  8
0
 62
         0
100
AcDbLine
 10
559.59453125
 20
492.5861979167
 30
0.0
 11
561.1560312033
 21
498.8321977298
 31
0.0
  0
ENDBLK
  5
553
100
AcDbEntity
  8
0
100
AcDbBlockEnd
  0
BLOCK
  5
556
100
AcDbEntity
  8
0
100
AcDbBlockBegin
  2
*D110
 70
         1
 10
0.0
 20
0.0
 30
0.0
  3

  1

  0
TEXT
  5
557
100
AcDbEntity
  8
0
 62
         0
100
AcDbText
 10
474.3088691185
 20
166.887478288
 30
0.0
 40
9.6586836815
  1
32
100
AcDbText
  0
LINE
  5
558
100
AcDbEntity
  8
0
 62
         0
100
AcDbLine
 10
495.79453125
 20
200.8645833333
 30
0.0
 11
495.79453125
 21
164.8645833333
 31
0.0
  0
LINE
  5
559
100
AcDbEntity
  8
0
 62
         0
100
AcDbLine
 10
463.79453125
 20
200.8645833333
 30
0.0
 11
463.79453125
 21
164.8645833333
 31
0.0
  0
LINE
  5
55A
100
AcDbEntity
  8
0
 62
         0
100
AcDbLine
 10
495.79453125
 20
170.8645833333
 30
0.0
 11
490.9617720176
 21
170.8645833333
 31
0.0
  0
LINE
  5
55B
100
AcDbEntity
  8
0
 62
         0
100
AcDbLine
 10
463.79453125
 20
170.8645833333
 30
0.0
 11
468.6272904824
 21
170.8645833333
 31
0.0
  0
LINE
  5
55C
100
AcDbEntity
  8
0
 62
         0
100
AcDbLine
 10
495.79453125
 20
170.8645833333
 30
0.0
 11
490.9617720176
 21
170.8645833333
 31
0.0
  0
LINE
  5
55D
100
AcDbEntity
  8
0
 62
         0
100
AcDbLine
 10
463.79453125
 20
170.8645833333
 30
0.0
 11
468.6272904824
 21
170.8645833333
 31
0.0
  0
LINE
  5
55E
100
AcDbEntity
  8
0
 62
         0
100
AcDbLine
 10
463.79453125
 20
170.8645833333
 30
0.0
 11
448.79453125
 21
170.8645833333
 31
0.0
  0
LINE
  5
55F
100
AcDbEntity
  8
0
 62
         0
100
AcDbLine
 10
457.5485314369
 20
169.30308338
 30
0.0
 11
463.79453125
 21
170.8645833333
 31
0.0
  0
LINE
  5
560
100
AcDbEntity
  8
0
 62
         0
100
AcDbLine
 10
463.79453125
 20
170.8645833333
 30
0.0
 11
457.5485314369
 21
172.4260832866
 31
0.0
  0
LINE
  5
561
100
AcDbEntity
  8
0
 62
         0
100
AcDbLine
 10
495.79453125
 20
170.8645833333
 30
0.0
 11
510.79453125
 21
170.8645833333
 31
0.0
  0
LINE
  5
562
100
AcDbEntity
  8
0
 62
         0
100
AcDbLine
 10
502.0405310631
 20
172.4260832866
 30
0.0
 11
495.79453125
 21
170.8645833333
 31
0.0
  0
LINE
  5
563
100
AcDbEntity
  8
0
 62
         0
100
AcDbLine
 10
495.79453125
 20
170.8645833333
 30
0.0
 11
502.0405310631
 21
169.30308338
 31
0.0
  0
ENDBLK
  5
564
100
AcDbEntity
  8
0
100
AcDbBlockEnd
  0
BLOCK
  5
567
100
AcDbEntity
  8
0
100
AcDbBlockBegin
  2
*D111
 70
         1
 10
0.0
 20
0.0
 30
0.0
  3

  1

  0
TEXT
  5
568
100
AcDbEntity
  8
0
 62
         0
100
AcDbText
 10
511.3088691185
 20
166.887478288
 30
0.0
 40
9.6586836815
  1
32
100
AcDbText
  0
LINE
  5
569
100
AcDbEntity
  8
0
 62
         0
100
AcDbLine
 10
532.79453125
 20
200.8645833333
 30
0.0
 11
532.79453125
 21
164.8645833333
 31
0.0
  0
LINE
  5
56A
100
AcDbEntity
  8
0
 62
         0
100
AcDbLine
 10
500.79453125
 20
200.8645833333
 30
0.0
 11
500.79453125
 21
164.8645833333
 31
0.0
  0
LINE
  5
56B
100
AcDbEntity
  8
0
 62
         0
100
AcDbLine
 10
532.79453125
 20
170.8645833333
 30
0.0
 11
527.9617720176
 21
170.8645833333
 31
0.0
  0
LINE
  5
56C
100
AcDbEntity
  8
0
 62
         0
100
AcDbLine
 10
500.79453125
 20
170.8645833333
 30
0.0
 11
505.6272904824
 21
170.8645833333
 31
0.0
  0
LINE
  5
56D
100
AcDbEntity
  8
0
 62
         0
100
AcDbLine
 10
532.79453125
 20
170.8645833333
 30
0.0
 11
527.9617720176
 21
170.8645833333
 31
0.0
  0
LINE
  5
56E
100
AcDbEntity
  8
0
 62
         0
100
AcDbLine
 10
500.79453125
 20
170.8645833333
 30
0.0
 11
505.6272904824
 21
170.8645833333
 31
0.0
  0
LINE
  5
56F
100
AcDbEntity
  8
0
 62
         0
100
AcDbLine
 10
500.79453125
 20
170.8645833333
 30
0.0
 11
485.79453125
 21
170.8645833333
 31
0.0
  0
LINE
  5
570
100
AcDbEntity
  8
0
 62
         0
100
AcDbLine
 10
494.5485314369
 20
169.30308338
 30
0.0
 11
500.79453125
 21
170.8645833333
 31
0.0
  0
LINE
  5
571
100
AcDbEntity
  8
0
 62
         0
100
AcDbLine
 10
500.79453125
 20
170.8645833333
 30
0.0
 11
494.5485314369
 21
172.4260832866
 31
0.0
  0
LINE
  5
572
100
AcDbEntity
  8
0
 62
         0
100
AcDbLine
 10
532.79453125
 20
170.8645833333
 30
0.0
 11
547.79453125
 21
170.8645833333
 31
0.0
  0
LINE
  5
573
100
AcDbEntity
  8
0
 62
         0
100
AcDbLine
 10
539.0405310631
 20
172.4260832866
 30
0.0
 11
532.79453125
 21
170.8645833333
 31
0.0
  0
LINE
  5
574
100
AcDbEntity
  8
0
 62
         0
100
AcDbLine
 10
532.79453125
 20
170.8645833333
 30
0.0
 11
539.0405310631
 21
169.30308338
 31
0.0
  0
ENDBLK
  5
575
100
AcDbEntity
  8
0
100
AcDbBlockEnd
  0
BLOCK
  5
578
100
AcDbEntity
  8
0
100
AcDbBlockBegin
  2
*D112
 70
         1
 10
0.0
 20
0.0
 30
0.0
  3

  1

  0
TEXT
  5
579
100
AcDbEntity
  8
0
 62
         0
100
AcDbText
 10
693.9122831937
 20
167.9127387047
 30
0.0
 40
9.6586836815
  1
5
100
AcDbText
  0
LINE
  5
57A
100
AcDbEntity
  8
0
 62
         0
100
AcDbLine
 10
698.76328125
 20
201.88984375
 30
0.0
 11
698.76328125
 21
165.88984375
 31
0.0
  0
LINE
  5
57B
100
AcDbEntity
  8
0
 62
         0
100
AcDbLine
 10
693.76328125
 20
201.88984375
 30
0.0
 11
693.76328125
 21
165.88984375
 31
0.0
  0
LINE
  5
57C
100
AcDbEntity
  8
0
 62
         0
100
AcDbLine
 10
698.76328125
 20
171.88984375
 30
0.0
 11
698.76328125
 21
171.88984375
 31
0.0
  0
LINE
  5
57D
100
AcDbEntity
  8
0
 62
         0
100
AcDbLine
 10
693.76328125
 20
171.88984375
 30
0.0
 11
693.76328125
 21
171.88984375
 31
0.0
  0
LINE
  5
57E
100
AcDbEntity
  8
0
 62
         0
100
AcDbLine
 10
698.76328125
 20
171.88984375
 30
0.0
 11
698.76328125
 21
171.88984375
 31
0.0
  0
LINE
  5
57F
100
AcDbEntity
  8
0
 62
         0
100
AcDbLine
 10
693.76328125
 20
171.88984375
 30
0.0
 11
693.76328125
 21
171.88984375
 31
0.0
  0
LINE
  5
580
100
AcDbEntity
  8
0
 62
         0
100
AcDbLine
 10
693.76328125
 20
171.88984375
 30
0.0
 11
693.76328125
 21
171.88984375
 31
0.0
  0
LINE
  5
581
100
AcDbEntity
  8
0
 62
         0
100
AcDbLine
 10
693.76328125
 20
171.88984375
 30
0.0
 11
693.76328125
 21
171.88984375
 31
0.0
  0
LINE
  5
582
100
AcDbEntity
  8
0
 62
         0
100
AcDbLine
 10
693.76328125
 20
171.88984375
 30
0.0
 11
693.76328125
 21
171.88984375
 31
0.0
  0
LINE
  5
583
100
AcDbEntity
  8
0
 62
         0
100
AcDbLine
 10
698.76328125
 20
171.88984375
 30
0.0
 11
698.76328125
 21
171.88984375
 31
0.0
  0
LINE
  5
584
100
AcDbEntity
  8
0
 62
         0
100
AcDbLine
 10
698.76328125
 20
171.88984375
 30
0.0
 11
698.76328125
 21
171.88984375
 31
0.0
  0
LINE
  5
585
100
AcDbEntity
  8
0
 62
         0
100
AcDbLine
 10
698.76328125
 20
171.88984375
 30
0.0
 11
698.76328125
 21
171.88984375
 31
0.0
  0
ENDBLK
  5
586
100
AcDbEntity
  8
0
100
AcDbBlockEnd
  0
BLOCK
  5
589
100
AcDbEntity
  8
0
100
AcDbBlockBegin
  2
*D113
 70
         1
 10
0.0
 20
0.0
 30
0.0
  3

  1

  0
TEXT
  5
58A
100
AcDbEntity
  8
0
 62
         0
100
AcDbText
 10
709.2776191185
 20
167.9127387047
 30
0.0
 40
9.6586836815
  1
32
100
AcDbText
  0
LINE
  5
58B
100
AcDbEntity
  8
0
 62
         0
100
AcDbLine
 10
730.76328125
 20
201.88984375
 30
0.0
 11
730.76328125
 21
165.88984375
 31
0.0
  0
LINE
  5
58C
100
AcDbEntity
  8
0
 62
         0
100
AcDbLine
 10
698.76328125
 20
201.88984375
 30
0.0
 11
698.76328125
 21
165.88984375
 31
0.0
  0
LINE
  5
58D
100
AcDbEntity
  8
0
 62
         0
100
AcDbLine
 10
730.76328125
 20
171.88984375
 30
0.0
 11
725.9305220176
 21
171.88984375
 31
0.0
  0
LINE
  5
58E
100
AcDbEntity
  8
0
 62
         0
100
AcDbLine
 10
698.76328125
 20
171.88984375
 30
0.0
 11
703.5960404824
 21
171.88984375
 31
0.0
  0
LINE
  5
58F
100
AcDbEntity
  8
0
 62
         0
100
AcDbLine
 10
730.76328125
 20
171.88984375
 30
0.0
 11
725.9305220176
 21
171.88984375
 31
0.0
  0
LINE
  5
590
100
AcDbEntity
  8
0
 62
         0
100
AcDbLine
 10
698.76328125
 20
171.88984375
 30
0.0
 11
703.5960404824
 21
171.88984375
 31
0.0
  0
LINE
  5
591
100
AcDbEntity
  8
0
 62
         0
100
AcDbLine
 10
698.76328125
 20
171.88984375
 30
0.0
 11
683.76328125
 21
171.88984375
 31
0.0
  0
LINE
  5
592
100
AcDbEntity
  8
0
 62
         0
100
AcDbLine
 10
692.5172814369
 20
170.3283437967
 30
0.0
 11
698.76328125
 21
171.88984375
 31
0.0
  0
LINE
  5
593
100
AcDbEntity
  8
0
 62
         0
100
AcDbLine
 10
698.76328125
 20
171.88984375
 30
0.0
 11
692.5172814369
 21
173.4513437033
 31
0.0
  0
LINE
  5
594
100
AcDbEntity
  8
0
 62
         0
100
AcDbLine
 10
730.76328125
 20
171.88984375
 30
0.0
 11
745.76328125
 21
171.88984375
 31
0.0
  0
LINE
  5
595
100
AcDbEntity
  8
0
 62
         0
100
AcDbLine
 10
737.0092810631
 20
173.4513437033
 30
0.0
 11
730.76328125
 21
171.88984375
 31
0.0
  0
LINE
  5
596
100
AcDbEntity
  8
0
 62
         0
100
AcDbLine
 10
730.76328125
 20
171.88984375
 30
0.0
 11
737.0092810631
 21
170.3283437967
 31
0.0
  0
ENDBLK
  5
597
100
AcDbEntity
  8
0
100
AcDbBlockEnd
  0
ENDSEC
  0
SECTION
  2
ENTITIES
  0
LINE
  5
28
100
AcDbEntity
  8
ﾚｲﾔｰ1
  6
DIVIDE
 62
         4
100
AcDbLine
 10
280.41703125
 20
144.5571967399
 30
0.0
 11
275.97203125
 21
144.5571967399
 31
0.0
  0
LINE
  5
29
100
AcDbEntity
  8
ﾚｲﾔｰ1
  6
DIVIDE
 62
         4
100
AcDbLine
 10
284.19453125
 20
130.5571967399
 30
0.0
 11
283.39453125
 21
130.5571967399
 31
0.0
  0
LINE
  5
2A
100
AcDbEntity
  8
ﾚｲﾔｰ1
  6
DIVIDE
 62
         4
100
AcDbLine
 10
284.19453125
 20
124.5571967399
 30
0.0
 11
272.19453125
 21
124.5571967399
 31
0.0
  0
LINE
  5
2B
100
AcDbEntity
  8
ﾚｲﾔｰ1
  6
DIVIDE
 62
         4
100
AcDbLine
 10
278.5392292243
 20
138.1633572591
 30
0.0
 11
272.0323044826
 21
142.8173802935
 31
0.0
  0
LINE
  5
2C
100
AcDbEntity
  8
ﾚｲﾔｰ1
  6
DIVIDE
 62
         4
100
AcDbLine
 10
247.51453125
 20
155.5571967399
 30
0.0
 11
247.51453125
 21
159.5571967399
 31
0.0
  0
INSERT
  5
2E
100
AcDbEntity
  8
0
100
AcDbBlockReference
  2
CLUMP0
 10
0.0
 20
0.0
 30
0.0
  0
LINE
  5
5D
100
AcDbEntity
  8
ﾚｲﾔｰ1
100
AcDbLine
 10
210.2395403444
 20
41.3792152281
 30
0.0
 11
234.369000004
 21
41.3792152281
 31
0.0
  0
LINE
  5
5E
100
AcDbEntity
  8
ﾚｲﾔｰ1
  6
DIVIDE
 62
         4
100
AcDbLine
 10
247.19453125
 20
159.5571967399
 30
0.0
 11
250.59453125
 21
159.5571967399
 31
0.0
  0
LINE
  5
5F
100
AcDbEntity
  8
ﾚｲﾔｰ1
  6
DIVIDE
 62
         4
100
AcDbLine
 10
250.27453125
 20
159.5571967399
 30
0.0
 11
250.27453125
 21
155.5571967399
 31
0.0
  0
LINE
  5
60
100
AcDbEntity
  8
ﾚｲﾔｰ1
  6
DIVIDE
 62
         4
100
AcDbLine
 10
250.59453125
 20
155.5571967399
 30
0.0
 11
247.19453125
 21
155.5571967399
 31
0.0
  0
LINE
  5
61
100
AcDbEntity
  8
ﾚｲﾔｰ1
  6
DIVIDE
 62
         4
100
AcDbLine
 10
283.39453125
 20
155.5571967399
 30
0.0
 11
283.39453125
 21
159.5571967399
 31
0.0
  0
LINE
  5
62
100
AcDbEntity
  8
ﾚｲﾔｰ1
  6
DIVIDE
 62
         4
100
AcDbLine
 10
281.69453125
 20
154.3161970924
 30
0.0
 11
281.69453125
 21
161.0057477548
 31
0.0
  0
LINE
  5
63
100
AcDbEntity
  8
ﾚｲﾔｰ1
  6
DIVIDE
 62
         4
100
AcDbLine
 10
279.99453125
 20
159.5571967399
 30
0.0
 11
279.99453125
 21
155.5571967399
 31
0.0
  0
LINE
  5
64
100
AcDbEntity
  8
ﾚｲﾔｰ1
  6
DIVIDE
 62
         4
100
AcDbLine
 10
283.39453125
 20
159.5571967399
 30
0.0
 11
279.99453125
 21
159.5571967399
 31
0.0
  0
LINE
  5
65
100
AcDbEntity
  8
ﾚｲﾔｰ1
  6
DIVIDE
 62
         4
100
AcDbLine
 10
280.31453125
 20
159.5571967399
 30
0.0
 11
280.31453125
 21
155.5571967399
 31
0.0
  0
LINE
  5
66
100
AcDbEntity
  8
ﾚｲﾔｰ1
  6
DIVIDE
 62
         4
100
AcDbLine
 10
283.07453125
 20
155.5571967399
 30
0.0
 11
283.07453125
 21
159.5571967399
 31
0.0
  0
LINE
  5
67
100
AcDbEntity
  8
ﾚｲﾔｰ1
  6
DIVIDE
 62
         4
100
AcDbLine
 10
279.99453125
 20
155.5571967399
 30
0.0
 11
283.39453125
 21
155.5571967399
 31
0.0
  0
LINE
  5
68
100
AcDbEntity
  8
ﾚｲﾔｰ1
  6
DIVIDE
 62
         4
100
AcDbLine
 10
246.39453125
 20
130.5571967399
 30
0.0
 11
246.39453125
 21
124.5571967399
 31
0.0
  0
LINE
  5
69
100
AcDbEntity
  8
ﾚｲﾔｰ1
  6
DIVIDE
 62
         4
100
AcDbLine
 10
246.39453125
 20
124.5571967399
 30
0.0
 11
258.39453125
 21
124.5571967399
 31
0.0
  0
LINE
  5
6A
100
AcDbEntity
  8
ﾚｲﾔｰ1
  6
DIVIDE
 62
         4
100
AcDbLine
 10
246.39453125
 20
130.5571967399
 30
0.0
 11
247.19453125
 21
130.5571967399
 31
0.0
  0
LINE
  5
6B
100
AcDbEntity
  8
ﾚｲﾔｰ1
  6
DIVIDE
 62
         4
100
AcDbLine
 10
250.17203125
 20
144.5571967399
 30
0.0
 11
254.61703125
 21
144.5571967399
 31
0.0
  0
LINE
  5
6C
100
AcDbEntity
  8
ﾚｲﾔｰ1
  6
DIVIDE
 62
         4
100
AcDbLine
 10
252.39453125
 20
142.3908767826
 30
0.0
 11
252.39453125
 21
146.7235166971
 31
0.0
  0
LINE
  5
6D
100
AcDbEntity
  8
ﾚｲﾔｰ1
  6
DIVIDE
 62
         4
100
AcDbLine
 10
284.19453125
 20
130.5571967399
 30
0.0
 11
284.19453125
 21
124.5571967399
 31
0.0
  0
LINE
  5
6E
100
AcDbEntity
  8
ﾚｲﾔｰ1
  6
DIVIDE
 62
         4
100
AcDbLine
 10
247.19453125
 20
155.5571967399
 30
0.0
 11
247.19453125
 21
159.5571967399
 31
0.0
  0
INSERT
  5
70
100
AcDbEntity
  8
0
100
AcDbBlockReference
  2
CLUMP2
 10
0.0
 20
0.0
 30
0.0
  0
INSERT
  5
7C
100
AcDbEntity
  8
0
100
AcDbBlockReference
  2
CLUMP4
 10
0.0
 20
0.0
 30
0.0
  0
INSERT
  5
AC
100
AcDbEntity
  8
0
100
AcDbBlockReference
  2
CLUMP6
 10
0.0
 20
0.0
 30
0.0
  0
LINE
  5
B7
100
AcDbEntity
  8
ﾚｲﾔｰ1
  6
DIVIDE
 62
         4
100
AcDbLine
 10
278.19453125
 20
142.3908767826
 30
0.0
 11
278.19453125
 21
146.7235166971
 31
0.0
  0
LINE
  5
B8
100
AcDbEntity
  8
ﾚｲﾔｰ1
100
AcDbLine
 10
700.2971213566
 20
44.0360065607
 30
0.0
 11
700.2971213566
 21
14.193890864
 31
0.0
  0
LINE
  5
B9
100
AcDbEntity
  8
ﾚｲﾔｰ1
100
AcDbLine
 10
539.1496965944
 20
97.8178358287
 30
0.0
 11
848.3583508522
 21
97.8178358287
 31
0.0
  0
LINE
  5
BA
100
AcDbEntity
  8
ﾚｲﾔｰ1
100
AcDbLine
 10
849.5385416667
 20
569.337359136
 30
0.0
 11
849.5385416667
 21
14.193890864
 31
0.0
  0
LINE
  5
BB
100
AcDbEntity
  8
ﾚｲﾔｰ1
100
AcDbLine
 10
715.2181792049
 20
14.193890864
 30
0.0
 11
715.2181792049
 21
44.0360065607
 31
0.0
  0
LINE
  5
BC
100
AcDbEntity
  8
ﾚｲﾔｰ1
100
AcDbLine
 10
18.2342455792
 20
14.193890864
 30
0.0
 11
18.2342455792
 21
569.337359136
 31
0.0
  0
LINE
  5
BD
100
AcDbEntity
  8
ﾚｲﾔｰ1
100
AcDbLine
 10
849.5385416667
 20
14.193890864
 30
0.0
 11
18.2342455792
 21
14.193890864
 31
0.0
  0
LINE
  5
BE
100
AcDbEntity
  8
ﾚｲﾔｰ1
  6
DIVIDE
 62
         4
100
AcDbLine
 10
272.0323044826
 20
397.9602397847
 30
0.0
 11
278.5392292243
 21
402.6142628191
 31
0.0
  0
INSERT
  5
C0
100
AcDbEntity
  8
0
100
AcDbBlockReference
  2
CLUMP8
 10
0.0
 20
0.0
 30
0.0
  0
LINE
  5
EF
100
AcDbEntity
  8
ﾚｲﾔｰ1
  6
DIVIDE
 62
         4
100
AcDbLine
 10
283.39453125
 20
490.5571967399
 30
0.0
 11
272.19453125
 21
490.5571967399
 31
0.0
  0
INSERT
  5
F1
100
AcDbEntity
  8
0
100
AcDbBlockReference
  2
CLUMP14
 10
0.0
 20
0.0
 30
0.0
  0
LINE
  5
FC
100
AcDbEntity
  8
ﾚｲﾔｰ1
  6
DIVIDE
 62
         4
100
AcDbLine
 10
283.39453125
 20
490.5571967399
 30
0.0
 11
283.39453125
 21
130.5571967399
 31
0.0
  0
LINE
  5
FD
100
AcDbEntity
  8
ﾚｲﾔｰ1
  6
DIVIDE
 62
         4
100
AcDbLine
 10
278.62453125
 20
322.3172199268
 30
0.0
 11
278.62453125
 21
325.5972431136
 31
0.0
  0
LINE
  5
FE
100
AcDbEntity
  8
ﾚｲﾔｰ1
  6
DIVIDE
 62
         4
100
AcDbLine
 10
273.62453125
 20
333.6172199268
 30
0.0
 11
281.2486148198
 21
333.6172199268
 31
0.0
  0
LINE
  5
FF
100
AcDbEntity
  8
ﾚｲﾔｰ1
  6
DIVIDE
 62
         4
100
AcDbLine
 10
250.59453125
 20
465.5571967399
 30
0.0
 11
250.59453125
 21
461.5571967399
 31
0.0
  0
LINE
  5
100
100
AcDbEntity
  8
ﾚｲﾔｰ1
  6
DIVIDE
 62
         4
100
AcDbLine
 10
247.19453125
 20
465.5571967399
 30
0.0
 11
250.59453125
 21
465.5571967399
 31
0.0
  0
LINE
  5
101
100
AcDbEntity
  8
ﾚｲﾔｰ1
  6
DIVIDE
 62
         4
100
AcDbLine
 10
250.27453125
 20
465.5571967399
 30
0.0
 11
250.27453125
 21
461.5571967399
 31
0.0
  0
LINE
  5
102
100
AcDbEntity
  8
ﾚｲﾔｰ1
  6
DIVIDE
 62
         4
100
AcDbLine
 10
247.51453125
 20
461.5571967399
 30
0.0
 11
247.51453125
 21
465.5571967399
 31
0.0
  0
LINE
  5
103
100
AcDbEntity
  8
ﾚｲﾔｰ1
  6
DIVIDE
 62
         4
100
AcDbLine
 10
250.59453125
 20
461.5571967399
 30
0.0
 11
247.19453125
 21
461.5571967399
 31
0.0
  0
LINE
  5
104
100
AcDbEntity
  8
ﾚｲﾔｰ1
  6
DIVIDE
 62
         4
100
AcDbLine
 10
258.39453125
 20
490.5571967399
 30
0.0
 11
258.39453125
 21
124.3571967399
 31
0.0
  0
LINE
  5
105
100
AcDbEntity
  8
ﾚｲﾔｰ1
  6
DIVIDE
 62
         4
100
AcDbLine
 10
254.36453125
 20
322.3172199268
 30
0.0
 11
254.36453125
 21
325.5972431136
 31
0.0
  0
MTEXT
  5
106
100
AcDbEntity
  8
ﾚｲﾔｰ1
100
AcDbMText
 10
210.579133555
 20
53.6045718689
 30
0.0
 40
9.0394356728
 41
62.804956632
 71
         1
 72
         1
  1
\W0.8;\fＭＳ ゴシック;\W1.0;注記
  0
LINE
  5
107
100
AcDbEntity
  8
ﾚｲﾔｰ1
  6
DIVIDE
 62
         4
100
AcDbLine
 10
248.89453125
 20
154.3161970924
 30
0.0
 11
248.89453125
 21
161.0057477548
 31
0.0
  0
LINE
  5
108
100
AcDbEntity
  8
ﾚｲﾔｰ1
  6
DIVIDE
 62
         4
100
AcDbLine
 10
250.59453125
 20
159.5571967399
 30
0.0
 11
250.59453125
 21
155.5571967399
 31
0.0
  0
INSERT
  5
10A
100
AcDbEntity
  8
0
100
AcDbBlockReference
  2
CLUMP16
 10
0.0
 20
0.0
 30
0.0
  0
INSERT
  5
126
100
AcDbEntity
  8
0
100
AcDbBlockReference
  2
CLUMP18
 10
0.0
 20
0.0
 30
0.0
  0
LINE
  5
135
100
AcDbEntity
  8
ﾚｲﾔｰ1
  6
DIVIDE
 62
         4
100
AcDbLine
 10
278.62453125
 20
344.9172199268
 30
0.0
 11
278.62453125
 21
322.3172199268
 31
0.0
  0
ARC
  5
136
100
AcDbEntity
  8
ﾚｲﾔｰ1
  6
DIVIDE
 62
         4
100
AcDbCircle
 10
-277.42453125
 20
322.3172199268
 30
0.0
 40
1.2
210
0.0
220
0.0
230
-1.0
100
AcDbArc
 50
180.0000003825
 51
0.000051551
  0
LINE
  5
137
100
AcDbEntity
  8
ﾚｲﾔｰ1
  6
DIVIDE
 62
         4
100
AcDbLine
 10
276.22453125
 20
322.3172199268
 30
0.0
 11
276.22453125
 21
325.5972431136
 31
0.0
  0
LINE
  5
138
100
AcDbEntity
  8
ﾚｲﾔｰ1
100
AcDbLine
 10
610.8713446521
 20
72.348450496
 30
0.0
 11
610.8713446521
 21
97.8176544718
 31
0.0
  0
LINE
  5
139
100
AcDbEntity
  8
ﾚｲﾔｰ1
100
AcDbLine
 10
701.3522007262
 20
72.3486318529
 30
0.0
 11
701.3522007262
 21
97.8178358287
 31
0.0
  0
LINE
  5
13A
100
AcDbEntity
  8
ﾚｲﾔｰ1
100
AcDbLine
 10
644.0189480895
 20
72.3485110481
 30
0.0
 11
644.0189480895
 21
97.8177150239
 31
0.0
  0
LINE
  5
13B
100
AcDbEntity
  8
ﾚｲﾔｰ1
100
AcDbLine
 10
570.7383092421
 20
72.3483771833
 30
0.0
 11
570.7383092421
 21
97.8175811591
 31
0.0
  0
LINE
  5
13C
100
AcDbEntity
  8
ﾚｲﾔｰ1
100
AcDbLine
 10
539.1496965944
 20
14.193890864
 30
0.0
 11
539.1496965944
 21
97.8178358287
 31
0.0
  0
LINE
  5
13D
100
AcDbEntity
  8
ﾚｲﾔｰ1
100
AcDbLine
 10
554.0140201377
 20
72.3483466323
 30
0.0
 11
554.0140201377
 21
43.7738814101
 31
0.0
  0
LINE
  5
13E
100
AcDbEntity
  8
ﾚｲﾔｰ1
100
AcDbLine
 10
849.5385416667
 20
44.0360065607
 30
0.0
 11
539.1496965944
 21
44.0360065607
 31
0.0
  0
LINE
  5
13F
100
AcDbEntity
  8
ﾚｲﾔｰ1
100
AcDbLine
 10
848.3583508522
 20
72.3488843234
 30
0.0
 11
539.1496965944
 21
72.348319479
 31
0.0
  0
LINE
  5
140
100
AcDbEntity
  8
ﾚｲﾔｰ1
100
AcDbLine
 10
848.3583508522
 20
43.9225379507
 30
0.0
 11
539.1496965944
 21
43.9225379507
 31
0.0
  0
LINE
  5
141
100
AcDbEntity
  8
ﾚｲﾔｰ1
100
AcDbLine
 10
18.2342455792
 20
569.337359136
 30
0.0
 11
849.5385416667
 21
569.337359136
 31
0.0
  0
LINE
  5
142
100
AcDbEntity
  8
ﾚｲﾔｰ1
  6
DIVIDE
 62
         4
100
AcDbLine
 10
248.89453125
 20
460.3161970924
 30
0.0
 11
248.89453125
 21
467.0057477548
 31
0.0
  0
LINE
  5
143
100
AcDbEntity
  8
ﾚｲﾔｰ1
100
AcDbLine
 10
601.76328125
 20
492.5861979167
 30
0.0
 11
601.76328125
 21
460.5861979167
 31
0.0
  0
INSERT
  5
145
100
AcDbEntity
  8
0
100
AcDbBlockReference
  2
CLUMP20
 10
0.0
 20
0.0
 30
0.0
  0
INSERT
  5
15D
100
AcDbEntity
  8
0
100
AcDbBlockReference
  2
CLUMP22
 10
0.0
 20
0.0
 30
0.0
  0
INSERT
  5
169
100
AcDbEntity
  8
0
100
AcDbBlockReference
  2
CLUMP24
 10
0.0
 20
0.0
 30
0.0
  0
LINE
  5
174
100
AcDbEntity
  8
ﾚｲﾔｰ1
100
AcDbLine
 10
594.31328125
 20
457.5861979167
 30
0.0
 11
594.31328125
 21
453.4611979167
 31
0.0
  0
LINE
  5
175
100
AcDbEntity
  8
ﾚｲﾔｰ1
100
AcDbLine
 10
592.58828125
 20
452.7861979167
 30
0.0
 11
602.93828125
 21
452.7861979167
 31
0.0
  0
LINE
  5
176
100
AcDbEntity
  8
ﾚｲﾔｰ1
100
AcDbLine
 10
604.66328125
 20
457.5861979167
 30
0.0
 11
604.66328125
 21
453.4611979167
 31
0.0
  0
ARC
  5
177
100
AcDbEntity
  8
ﾚｲﾔｰ1
  6
DIVIDE
 62
         4
100
AcDbCircle
 10
253.16453125
 20
322.3172199268
 30
0.0
 40
1.2
210
0.0
220
0.0
230
1.0
100
AcDbArc
 50
180.0000003825
 51
0.000051551
  0
LINE
  5
178
100
AcDbEntity
  8
ﾚｲﾔｰ1
  6
DIVIDE
 62
         4
100
AcDbLine
 10
251.96453125
 20
344.9172199268
 30
0.0
 11
251.96453125
 21
322.3172199268
 31
0.0
  0
LINE
  5
179
100
AcDbEntity
  8
ﾚｲﾔｰ1
  6
DIVIDE
 62
         4
100
AcDbLine
 10
254.36453125
 20
344.9172199268
 30
0.0
 11
254.36453125
 21
322.3172199268
 31
0.0
  0
ARC
  5
17A
100
AcDbEntity
  8
ﾚｲﾔｰ1
  6
DIVIDE
 62
         4
100
AcDbCircle
 10
253.16453125
 20
344.9172199268
 30
0.0
 40
1.2
210
0.0
220
0.0
230
1.0
100
AcDbArc
 50
359.999948496
 51
179.9999996645
  0
ARC
  5
17B
100
AcDbEntity
  8
ﾚｲﾔｰ1
100
AcDbCircle
 10
-592.58828125
 20
455.3361979167
 30
0.0
 40
2.55
210
0.0
220
0.0
230
-1.0
100
AcDbArc
 50
227.3
 51
312.7000000001
  0
LINE
  5
17C
100
AcDbEntity
  8
ﾚｲﾔｰ1
100
AcDbLine
 10
590.86328125
 20
457.5861979167
 30
0.0
 11
604.66328125
 21
457.5861979167
 31
0.0
  0
ARC
  5
17D
100
AcDbEntity
  8
ﾚｲﾔｰ1
100
AcDbCircle
 10
-602.93828125
 20
455.3361979167
 30
0.0
 40
2.55
210
0.0
220
0.0
230
-1.0
100
AcDbArc
 50
227.3
 51
312.7
  0
LINE
  5
17E
100
AcDbEntity
  8
ﾚｲﾔｰ1
  6
DIVIDE
 62
         4
100
AcDbLine
 10
256.96453125
 20
333.6172199268
 30
0.0
 11
249.3404476802
 21
333.6172199268
 31
0.0
  0
LINE
  5
17F
100
AcDbEntity
  8
ﾚｲﾔｰ1
  6
DIVIDE
 62
         4
100
AcDbLine
 10
251.96453125
 20
322.3172199268
 30
0.0
 11
251.96453125
 21
325.5972431136
 31
0.0
  0
LINE
  5
180
100
AcDbEntity
  8
ﾚｲﾔｰ1
  6
DIVIDE
 62
         4
100
AcDbLine
 10
247.19453125
 20
490.5571967399
 30
0.0
 11
247.19453125
 21
130.5571967399
 31
0.0
  0
INSERT
  5
182
100
AcDbEntity
  8
0
100
AcDbBlockReference
  2
CLUMP26
 10
0.0
 20
0.0
 30
0.0
  0
LINE
  5
18D
100
AcDbEntity
  8
ﾚｲﾔｰ1
  6
DIVIDE
 62
         4
100
AcDbLine
 10
247.19453125
 20
490.5571967399
 30
0.0
 11
258.39453125
 21
490.5571967399
 31
0.0
  0
INSERT
  5
18F
100
AcDbEntity
  8
0
100
AcDbBlockReference
  2
CLUMP28
 10
0.0
 20
0.0
 30
0.0
  0
INSERT
  5
27D
100
AcDbEntity
  8
0
100
AcDbBlockReference
  2
CLUMP56
 10
0.0
 20
0.0
 30
0.0
  0
LINE
  5
316
100
AcDbEntity
  8
ﾚｲﾔｰ1
  6
DIVIDE
 62
         4
100
AcDbLine
 10
367.69453125
 20
262.8139737931
 30
0.0
 11
278.5392292243
 21
138.1633572591
 31
0.0
  0
LINE
  5
317
100
AcDbEntity
  8
ﾚｲﾔｰ1
  6
DIVIDE
 62
         4
100
AcDbLine
 10
367.69453125
 20
276.5655172484
 30
0.0
 11
272.0323044826
 21
142.8173802935
 31
0.0
  0
LINE
  5
318
100
AcDbEntity
  8
ﾚｲﾔｰ1
  6
DIVIDE
 62
         4
100
AcDbLine
 10
272.0323044826
 20
397.9602397847
 30
0.0
 11
367.69453125
 21
264.2121028298
 31
0.0
  0
LINE
  5
319
100
AcDbEntity
  8
ﾚｲﾔｰ1
  6
DIVIDE
 62
         4
100
AcDbLine
 10
278.5392292243
 20
402.6142628191
 30
0.0
 11
367.69453125
 21
277.963646285
 31
0.0
  0
LINE
  5
31A
100
AcDbEntity
  8
ﾚｲﾔｰ1
  6
DIVIDE
 62
         4
100
AcDbLine
 10
367.69453125
 20
375.9412493662
 30
0.0
 11
279.42053125
 21
375.9412493662
 31
0.0
  0
LINE
  5
31B
100
AcDbEntity
  8
ﾚｲﾔｰ1
  6
DIVIDE
 62
         4
100
AcDbLine
 10
367.69453125
 20
385.6612493662
 30
0.0
 11
279.42053125
 21
385.6612493662
 31
0.0
  0
LINE
  5
31C
100
AcDbEntity
  8
ﾚｲﾔｰ1
100
AcDbLine
 10
595.13828125
 20
506.2228389589
 30
0.0
 11
600.38828125
 21
506.2228389589
 31
0.0
  0
LINE
  5
31D
100
AcDbEntity
  8
ﾚｲﾔｰ1
100
AcDbLine
 10
595.13828125
 20
506.2228389589
 30
0.0
 11
594.01328125
 21
505.0978389589
 31
0.0
  0
LINE
  5
31E
100
AcDbEntity
  8
ﾚｲﾔｰ1
100
AcDbLine
 10
601.51328125
 20
505.0978389589
 30
0.0
 11
594.01328125
 21
505.0978389589
 31
0.0
  0
LINE
  5
31F
100
AcDbEntity
  8
ﾚｲﾔｰ1
100
AcDbLine
 10
594.83828125
 20
505.9228389589
 30
0.0
 11
594.83828125
 21
503.0162739998
 31
0.0
  0
LINE
  5
320
100
AcDbEntity
  8
ﾚｲﾔｰ1
100
AcDbLine
 10
592.6527585248
 20
502.4912739998
 30
0.0
 11
592.6527585248
 21
501.355822645
 31
0.0
  0
ARC
  5
321
100
AcDbEntity
  8
ﾚｲﾔｰ1
100
AcDbCircle
 10
593.1777585248
 20
502.4912739998
 30
0.0
 40
0.525
210
0.0
220
0.0
230
1.0
100
AcDbArc
 50
90.0
 51
180.0
  0
LINE
  5
322
100
AcDbEntity
  8
ﾚｲﾔｰ1
100
AcDbLine
 10
602.3488039752
 20
503.0162739998
 30
0.0
 11
593.1777585248
 21
503.0162739998
 31
0.0
  0
ARC
  5
323
100
AcDbEntity
  8
ﾚｲﾔｰ1
  6
DIVIDE
 62
         4
100
AcDbCircle
 10
-277.42453125
 20
344.9172199268
 30
0.0
 40
1.2
210
0.0
220
0.0
230
-1.0
100
AcDbArc
 50
359.999948496
 51
179.9999996645
  0
LINE
  5
324
100
AcDbEntity
  8
ﾚｲﾔｰ1
  6
DIVIDE
 62
         4
100
AcDbLine
 10
276.22453125
 20
344.9172199268
 30
0.0
 11
276.22453125
 21
322.3172199268
 31
0.0
  0
LINE
  5
325
100
AcDbEntity
  8
ﾚｲﾔｰ1
100
AcDbLine
 10
601.51328125
 20
505.0978389589
 30
0.0
 11
601.51328125
 21
503.0162739998
 31
0.0
  0
ARC
  5
326
100
AcDbEntity
  8
ﾚｲﾔｰ1
100
AcDbCircle
 10
-593.4359191785
 20
499.5379863832
 30
0.0
 40
1.9793608272
210
0.0
220
0.0
230
-1.0
100
AcDbArc
 50
42.9989363196
 51
140.7747625994
  0
LINE
  5
327
100
AcDbEntity
  8
ﾚｲﾔｰ1
100
AcDbLine
 10
594.01328125
 20
505.0978389589
 30
0.0
 11
594.01328125
 21
503.0162739998
 31
0.0
  0
LINE
  5
328
100
AcDbEntity
  8
ﾚｲﾔｰ1
100
AcDbLine
 10
600.68828125
 20
505.9228389589
 30
0.0
 11
600.68828125
 21
503.0162739998
 31
0.0
  0
LINE
  5
329
100
AcDbEntity
  8
ﾚｲﾔｰ1
100
AcDbLine
 10
591.98828125
 20
495.5861979167
 30
0.0
 11
591.98828125
 21
500.8878803466
 31
0.0
  0
LINE
  5
32A
100
AcDbEntity
  8
ﾚｲﾔｰ1
  6
DIVIDE
 62
         4
100
AcDbLine
 10
272.19453125
 20
490.5571967399
 30
0.0
 11
272.19453125
 21
124.3571967399
 31
0.0
  0
LINE
  5
32B
100
AcDbEntity
  8
ﾚｲﾔｰ1
  6
DIVIDE
 62
         4
100
AcDbLine
 10
283.39453125
 20
461.5571967399
 30
0.0
 11
283.39453125
 21
465.5571967399
 31
0.0
  0
LINE
  5
32C
100
AcDbEntity
  8
ﾚｲﾔｰ1
  6
DIVIDE
 62
         4
100
AcDbLine
 10
281.69453125
 20
460.3161970924
 30
0.0
 11
281.69453125
 21
467.0057477548
 31
0.0
  0
LINE
  5
32D
100
AcDbEntity
  8
ﾚｲﾔｰ1
  6
DIVIDE
 62
         4
100
AcDbLine
 10
279.99453125
 20
465.5571967399
 30
0.0
 11
279.99453125
 21
461.5571967399
 31
0.0
  0
LINE
  5
32E
100
AcDbEntity
  8
ﾚｲﾔｰ1
  6
DIVIDE
 62
         4
100
AcDbLine
 10
283.39453125
 20
465.5571967399
 30
0.0
 11
279.99453125
 21
465.5571967399
 31
0.0
  0
LINE
  5
32F
100
AcDbEntity
  8
ﾚｲﾔｰ1
  6
DIVIDE
 62
         4
100
AcDbLine
 10
280.31453125
 20
465.5571967399
 30
0.0
 11
280.31453125
 21
461.5571967399
 31
0.0
  0
LINE
  5
330
100
AcDbEntity
  8
ﾚｲﾔｰ1
  6
DIVIDE
 62
         4
100
AcDbLine
 10
283.07453125
 20
461.5571967399
 30
0.0
 11
283.07453125
 21
465.5571967399
 31
0.0
  0
LINE
  5
331
100
AcDbEntity
  8
ﾚｲﾔｰ1
  6
DIVIDE
 62
         4
100
AcDbLine
 10
279.99453125
 20
461.5571967399
 30
0.0
 11
283.39453125
 21
461.5571967399
 31
0.0
  0
LINE
  5
332
100
AcDbEntity
  8
ﾚｲﾔｰ1
  6
DIVIDE
 62
         4
100
AcDbLine
 10
247.19453125
 20
461.5571967399
 30
0.0
 11
247.19453125
 21
465.5571967399
 31
0.0
  0
LINE
  5
333
100
AcDbEntity
  8
ﾚｲﾔｰ1
  6
BORDER
 62
         3
100
AcDbLine
 10
597.76328125
 20
509.1759770563
 30
0.0
 11
597.76328125
 21
450.1869060181
 31
0.0
  0
LINE
  5
334
100
AcDbEntity
  8
ﾚｲﾔｰ1
100
AcDbLine
 10
593.76328125
 20
492.5861979167
 30
0.0
 11
593.76328125
 21
460.5861979167
 31
0.0
  0
LINE
  5
335
100
AcDbEntity
  8
ﾚｲﾔｰ1
100
AcDbLine
 10
792.13828125
 20
506.2228389589
 30
0.0
 11
791.01328125
 21
505.0978389589
 31
0.0
  0
LINE
  5
336
100
AcDbEntity
  8
ﾚｲﾔｰ1
100
AcDbLine
 10
797.5572997474
 20
495.5861979167
 30
0.0
 11
797.5572997474
 21
500.7896759486
 31
0.0
  0
LINE
  5
337
100
AcDbEntity
  8
ﾚｲﾔｰ1
100
AcDbLine
 10
790.5010911845
 20
501.5162739998
 30
0.0
 11
799.0254713155
 21
501.5162739998
 31
0.0
  0
ARC
  5
338
100
AcDbEntity
  8
ﾚｲﾔｰ1
100
AcDbCircle
 10
794.6981092441
 20
495.3101536673
 30
0.0
 40
6.1806257584
210
0.0
220
0.0
230
1.0
100
AcDbArc
 50
62.4446462289
 51
116.6067587334
  0
ARC
  5
339
100
AcDbEntity
  8
ﾚｲﾔｰ1
100
AcDbCircle
 10
-790.4359191785
 20
499.5379863832
 30
0.0
 40
1.9793608272
210
0.0
220
0.0
230
-1.0
100
AcDbArc
 50
42.9989363196
 51
140.7747625994
  0
LINE
  5
33A
100
AcDbEntity
  8
ﾚｲﾔｰ1
100
AcDbLine
 10
791.9692627526
 20
495.5861979167
 30
0.0
 11
791.9692627526
 21
500.7896759486
 31
0.0
  0
LINE
  5
33B
100
AcDbEntity
  8
ﾚｲﾔｰ1
100
AcDbLine
 10
788.98828125
 20
495.5861979167
 30
0.0
 11
788.98828125
 21
500.8878803466
 31
0.0
  0
ARC
  5
33C
100
AcDbEntity
  8
ﾚｲﾔｰ1
100
AcDbCircle
 10
-597.76328125
 20
461.9361979167
 30
0.0
 40
9.15
210
0.0
220
0.0
230
-1.0
100
AcDbArc
 50
247.9
 51
292.1
  0
LINE
  5
33D
100
AcDbEntity
  8
ﾚｲﾔｰ1
100
AcDbLine
 10
604.66328125
 20
457.5861979167
 30
0.0
 11
590.86328125
 21
457.5861979167
 31
0.0
  0
LINE
  5
33E
100
AcDbEntity
  8
ﾚｲﾔｰ1
100
AcDbLine
 10
801.66328125
 20
457.5861979167
 30
0.0
 11
787.86328125
 21
457.5861979167
 31
0.0
  0
ARC
  5
33F
100
AcDbEntity
  8
ﾚｲﾔｰ1
100
AcDbCircle
 10
799.93828125
 20
455.3361979167
 30
0.0
 40
2.55
210
0.0
220
0.0
230
1.0
100
AcDbArc
 50
227.3
 51
312.7000000001
  0
LINE
  5
340
100
AcDbEntity
  8
ﾚｲﾔｰ1
100
AcDbLine
 10
787.86328125
 20
457.5861979167
 30
0.0
 11
801.66328125
 21
457.5861979167
 31
0.0
  0
ARC
  5
341
100
AcDbEntity
  8
ﾚｲﾔｰ1
100
AcDbCircle
 10
794.76328125
 20
461.9361979167
 30
0.0
 40
9.15
210
0.0
220
0.0
230
1.0
100
AcDbArc
 50
247.9
 51
292.1
  0
LINE
  5
342
100
AcDbEntity
  8
ﾚｲﾔｰ1
100
AcDbLine
 10
787.86328125
 20
457.5861979167
 30
0.0
 11
787.86328125
 21
453.4611979167
 31
0.0
  0
LINE
  5
343
100
AcDbEntity
  8
ﾚｲﾔｰ1
100
AcDbLine
 10
601.21328125
 20
457.5861979167
 30
0.0
 11
601.21328125
 21
453.4611979167
 31
0.0
  0
LINE
  5
344
100
AcDbEntity
  8
ﾚｲﾔｰ1
100
AcDbLine
 10
798.21328125
 20
457.5861979167
 30
0.0
 11
798.21328125
 21
453.4611979167
 31
0.0
  0
INSERT
  5
346
100
AcDbEntity
  8
0
100
AcDbBlockReference
  2
CLUMP76
 10
0.0
 20
0.0
 30
0.0
  0
INSERT
  5
352
100
AcDbEntity
  8
0
100
AcDbBlockReference
  2
CLUMP78
 10
0.0
 20
0.0
 30
0.0
  0
LINE
  5
35D
100
AcDbEntity
  8
ﾚｲﾔｰ1
100
AcDbLine
 10
603.53828125
 20
495.5861979167
 30
0.0
 11
603.53828125
 21
500.8878803466
 31
0.0
  0
LINE
  5
35E
100
AcDbEntity
  8
ﾚｲﾔｰ1
100
AcDbLine
 10
600.5572997474
 20
495.5861979167
 30
0.0
 11
600.5572997474
 21
500.7896759486
 31
0.0
  0
ARC
  5
35F
100
AcDbEntity
  8
ﾚｲﾔｰ1
100
AcDbCircle
 10
602.0906433215
 20
499.5379863832
 30
0.0
 40
1.9793608272
210
0.0
220
0.0
230
1.0
100
AcDbArc
 50
42.9989363196
 51
140.7747625994
  0
ARC
  5
360
100
AcDbEntity
  8
ﾚｲﾔｰ1
100
AcDbCircle
 10
-597.8284532559
 20
495.3101536673
 30
0.0
 40
6.1806257584
210
0.0
220
0.0
230
-1.0
100
AcDbArc
 50
62.4446462289
 51
116.6067587334
  0
LINE
  5
361
100
AcDbEntity
  8
ﾚｲﾔｰ1
100
AcDbLine
 10
602.0254713155
 20
501.5162739998
 30
0.0
 11
593.5010911845
 21
501.5162739998
 31
0.0
  0
LINE
  5
362
100
AcDbEntity
  8
ﾚｲﾔｰ1
100
AcDbLine
 10
594.9692627526
 20
495.5861979167
 30
0.0
 11
594.9692627526
 21
500.7896759486
 31
0.0
  0
LINE
  5
363
100
AcDbEntity
  8
ﾚｲﾔｰ1
100
AcDbLine
 10
600.38828125
 20
506.2228389589
 30
0.0
 11
601.51328125
 21
505.0978389589
 31
0.0
  0
LINE
  5
364
100
AcDbEntity
  8
ﾚｲﾔｰ1
100
AcDbLine
 10
798.51328125
 20
505.0978389589
 30
0.0
 11
798.51328125
 21
503.0162739998
 31
0.0
  0
ARC
  5
365
100
AcDbEntity
  8
ﾚｲﾔｰ1
100
AcDbCircle
 10
799.0906433215
 20
499.5379863832
 30
0.0
 40
1.9793608272
210
0.0
220
0.0
230
1.0
100
AcDbArc
 50
42.9989363196
 51
140.7747625994
  0
LINE
  5
366
100
AcDbEntity
  8
ﾚｲﾔｰ1
100
AcDbLine
 10
791.01328125
 20
505.0978389589
 30
0.0
 11
791.01328125
 21
503.0162739998
 31
0.0
  0
ARC
  5
367
100
AcDbEntity
  8
ﾚｲﾔｰ1
100
AcDbCircle
 10
790.1777585248
 20
502.4912739998
 30
0.0
 40
0.525
210
0.0
220
0.0
230
1.0
100
AcDbArc
 50
90.0
 51
180.0
  0
LINE
  5
368
100
AcDbEntity
  8
ﾚｲﾔｰ1
100
AcDbLine
 10
789.6527585248
 20
502.4912739998
 30
0.0
 11
789.6527585248
 21
501.355822645
 31
0.0
  0
INSERT
  5
36A
100
AcDbEntity
  8
0
100
AcDbBlockReference
  2
CLUMP80
 10
0.0
 20
0.0
 30
0.0
  0
ARC
  5
381
100
AcDbEntity
  8
ﾚｲﾔｰ1
100
AcDbCircle
 10
491.79453125
 20
274.1786458333
 30
0.0
 40
25.0
210
0.0
220
0.0
230
1.0
100
AcDbArc
 50
157.6663173422
 51
202.3336826578
  0
LINE
  5
382
100
AcDbEntity
  8
ﾚｲﾔｰ1
100
AcDbLine
 10
602.8738039752
 20
502.4912739998
 30
0.0
 11
602.8738039752
 21
501.355822645
 31
0.0
  0
ARC
  5
383
100
AcDbEntity
  8
ﾚｲﾔｰ1
100
AcDbCircle
 10
-602.3488039752
 20
502.4912739998
 30
0.0
 40
0.525
210
0.0
220
0.0
230
-1.0
100
AcDbArc
 50
90.0
 51
180.0
  0
LINE
  5
384
100
AcDbEntity
  8
ﾚｲﾔｰ1
100
AcDbLine
 10
479.79453125
 20
281.568729279
 30
0.0
 11
486.19453125
 21
277.8736875561
 31
0.0
  0
LINE
  5
385
100
AcDbEntity
  8
ﾚｲﾔｰ1
100
AcDbLine
 10
473.39453125
 20
277.8736875561
 30
0.0
 11
479.79453125
 21
281.568729279
 31
0.0
  0
LINE
  5
386
100
AcDbEntity
  8
ﾚｲﾔｰ1
100
AcDbLine
 10
473.39453125
 20
270.4836041105
 30
0.0
 11
473.39453125
 21
277.8736875561
 31
0.0
  0
LINE
  5
387
100
AcDbEntity
  8
ﾚｲﾔｰ1
100
AcDbLine
 10
479.79453125
 20
266.7885623877
 30
0.0
 11
473.39453125
 21
270.4836041105
 31
0.0
  0
LINE
  5
388
100
AcDbEntity
  8
ﾚｲﾔｰ1
100
AcDbLine
 10
486.19453125
 20
270.4836041105
 30
0.0
 11
479.79453125
 21
266.7885623877
 31
0.0
  0
LINE
  5
389
100
AcDbEntity
  8
ﾚｲﾔｰ1
100
AcDbLine
 10
486.19453125
 20
277.8736875561
 30
0.0
 11
486.19453125
 21
270.4836041105
 31
0.0
  0
LINE
  5
38A
100
AcDbEntity
  8
ﾚｲﾔｰ1
100
AcDbLine
 10
590.8546669337
 20
457.5861979167
 30
0.0
 11
590.8546669337
 21
453.4611979167
 31
0.0
  0
LINE
  5
38B
100
AcDbEntity
  8
ﾚｲﾔｰ1
100
AcDbLine
 10
661.76328125
 20
368.7263020833
 30
0.0
 11
693.76328125
 21
368.7263020833
 31
0.0
  0
LINE
  5
38C
100
AcDbEntity
  8
ﾚｲﾔｰ1
100
AcDbLine
 10
698.76328125
 20
368.7263020833
 30
0.0
 11
730.76328125
 21
368.7263020833
 31
0.0
  0
LINE
  5
38D
100
AcDbEntity
  8
ﾚｲﾔｰ1
100
AcDbLine
 10
790.1777585248
 20
503.0162739998
 30
0.0
 11
799.3488039752
 21
503.0162739998
 31
0.0
  0
ARC
  5
38E
100
AcDbEntity
  8
ﾚｲﾔｰ1
100
AcDbCircle
 10
-799.3488039752
 20
502.4912739998
 30
0.0
 40
0.525
210
0.0
220
0.0
230
-1.0
100
AcDbArc
 50
90.0
 51
180.0
  0
LINE
  5
38F
100
AcDbEntity
  8
ﾚｲﾔｰ1
100
AcDbLine
 10
799.8738039752
 20
502.4912739998
 30
0.0
 11
799.8738039752
 21
501.355822645
 31
0.0
  0
LINE
  5
390
100
AcDbEntity
  8
ﾚｲﾔｰ1
100
AcDbLine
 10
797.68828125
 20
505.9228389589
 30
0.0
 11
797.68828125
 21
503.0162739998
 31
0.0
  0
LINE
  5
391
100
AcDbEntity
  8
ﾚｲﾔｰ1
100
AcDbLine
 10
791.01328125
 20
505.0978389589
 30
0.0
 11
798.51328125
 21
505.0978389589
 31
0.0
  0
LINE
  5
392
100
AcDbEntity
  8
ﾚｲﾔｰ1
100
AcDbLine
 10
797.38828125
 20
506.2228389589
 30
0.0
 11
798.51328125
 21
505.0978389589
 31
0.0
  0
LINE
  5
393
100
AcDbEntity
  8
ﾚｲﾔｰ1
100
AcDbLine
 10
797.38828125
 20
506.2228389589
 30
0.0
 11
792.13828125
 21
506.2228389589
 31
0.0
  0
LINE
  5
394
100
AcDbEntity
  8
ﾚｲﾔｰ1
100
AcDbLine
 10
468.6698690903
 20
264.6786458333
 30
0.0
 11
515.2427083333
 21
264.6786458333
 31
0.0
  0
LINE
  5
395
100
AcDbEntity
  8
ﾚｲﾔｰ1
100
AcDbLine
 10
518.4427083333
 20
264.6786458333
 30
0.0
 11
524.79453125
 21
264.6786458333
 31
0.0
  0
ARC
  5
396
100
AcDbEntity
  8
ﾚｲﾔｰ1
100
AcDbCircle
 10
-518.79453125
 20
453.5861979167
 30
0.0
 40
6.0
210
0.0
220
0.0
230
-1.0
100
AcDbArc
 50
90.0
 51
180.0
  0
LINE
  5
397
100
AcDbEntity
  8
ﾚｲﾔｰ1
100
AcDbLine
 10
524.79453125
 20
453.5861979167
 30
0.0
 11
524.79453125
 21
429.5861979167
 31
0.0
  0
ARC
  5
398
100
AcDbEntity
  8
ﾚｲﾔｰ1
100
AcDbCircle
 10
-518.29453125
 20
453.0861979167
 30
0.0
 40
2.0
210
0.0
220
0.0
230
-1.0
100
AcDbArc
 50
90.0
 51
180.0
  0
LINE
  5
399
100
AcDbEntity
  8
ﾚｲﾔｰ1
100
AcDbLine
 10
520.29453125
 20
453.0861979167
 30
0.0
 11
520.29453125
 21
429.5861979167
 31
0.0
  0
LINE
  5
39A
100
AcDbEntity
  8
ﾚｲﾔｰ1
100
AcDbLine
 10
466.79453125
 20
459.5861979167
 30
0.0
 11
466.79453125
 21
455.0861979167
 31
0.0
  0
LINE
  5
39B
100
AcDbEntity
  8
ﾚｲﾔｰ1
100
AcDbLine
 10
791.31328125
 20
457.5861979167
 30
0.0
 11
791.31328125
 21
453.4611979167
 31
0.0
  0
ARC
  5
39C
100
AcDbEntity
  8
ﾚｲﾔｰ1
100
AcDbCircle
 10
789.58828125
 20
455.3361979167
 30
0.0
 40
2.55
210
0.0
220
0.0
230
1.0
100
AcDbArc
 50
227.3
 51
312.7
  0
LINE
  5
39D
100
AcDbEntity
  8
ﾚｲﾔｰ1
100
AcDbLine
 10
466.79453125
 20
493.5861979167
 30
0.0
 11
466.79453125
 21
498.0861979167
 31
0.0
  0
LINE
  5
39E
100
AcDbEntity
  8
ﾚｲﾔｰ1
100
AcDbLine
 10
466.79453125
 20
498.0861979167
 30
0.0
 11
518.29453125
 21
498.0861979167
 31
0.0
  0
LINE
  5
39F
100
AcDbEntity
  8
ﾚｲﾔｰ1
100
AcDbLine
 10
520.29453125
 20
500.0861979167
 30
0.0
 11
520.29453125
 21
523.5861979167
 31
0.0
  0
ARC
  5
3A0
100
AcDbEntity
  8
ﾚｲﾔｰ1
100
AcDbCircle
 10
518.29453125
 20
500.0861979167
 30
0.0
 40
2.0
210
0.0
220
0.0
230
1.0
100
AcDbArc
 50
270.0
 51
0.0
  0
LINE
  5
3A1
100
AcDbEntity
  8
ﾚｲﾔｰ1
100
AcDbLine
 10
466.79453125
 20
493.5861979167
 30
0.0
 11
518.79453125
 21
493.5861979167
 31
0.0
  0
LINE
  5
3A2
100
AcDbEntity
  8
ﾚｲﾔｰ1
100
AcDbLine
 10
524.79453125
 20
499.5861979167
 30
0.0
 11
524.79453125
 21
523.5861979167
 31
0.0
  0
LINE
  5
3A3
100
AcDbEntity
  8
ﾚｲﾔｰ1
100
AcDbLine
 10
799.93828125
 20
452.7861979167
 30
0.0
 11
789.58828125
 21
452.7861979167
 31
0.0
  0
LINE
  5
3A4
100
AcDbEntity
  8
ﾚｲﾔｰ1
100
AcDbLine
 10
730.76328125
 20
282.4236979167
 30
0.0
 11
730.76328125
 21
368.7263020833
 31
0.0
  0
INSERT
  5
3A6
100
AcDbEntity
  8
0
100
AcDbBlockReference
  2
CLUMP82
 10
0.0
 20
0.0
 30
0.0
  0
INSERT
  5
3BD
100
AcDbEntity
  8
0
100
AcDbBlockReference
  2
CLUMP86
 10
0.0
 20
0.0
 30
0.0
  0
LINE
  5
3D3
100
AcDbEntity
  8
ﾚｲﾔｰ1
100
AcDbLine
 10
790.76328125
 20
492.5861979167
 30
0.0
 11
790.76328125
 21
460.5861979167
 31
0.0
  0
LINE
  5
3D4
100
AcDbEntity
  8
ﾚｲﾔｰ1
100
AcDbLine
 10
798.76328125
 20
492.5861979167
 30
0.0
 11
798.76328125
 21
460.5861979167
 31
0.0
  0
LINE
  5
3D5
100
AcDbEntity
  8
ﾚｲﾔｰ1
  6
BORDER
 62
         3
100
AcDbLine
 10
794.76328125
 20
509.1759770563
 30
0.0
 11
794.76328125
 21
450.1869060181
 31
0.0
  0
LINE
  5
3D6
100
AcDbEntity
  8
ﾚｲﾔｰ1
100
AcDbLine
 10
801.6718955663
 20
457.5861979167
 30
0.0
 11
801.6718955663
 21
453.4611979167
 31
0.0
  0
LINE
  5
3D7
100
AcDbEntity
  8
ﾚｲﾔｰ1
100
AcDbLine
 10
800.53828125
 20
495.5861979167
 30
0.0
 11
800.53828125
 21
500.8878803466
 31
0.0
  0
LINE
  5
3D8
100
AcDbEntity
  8
ﾚｲﾔｰ1
100
AcDbLine
 10
791.83828125
 20
505.9228389589
 30
0.0
 11
791.83828125
 21
503.0162739998
 31
0.0
  0
LINE
  5
3D9
100
AcDbEntity
  8
ﾚｲﾔｰ1
100
AcDbLine
 10
483.69453125
 20
498.0861979167
 30
0.0
 11
483.69453125
 21
502.9611979167
 31
0.0
  0
LINE
  5
3DA
100
AcDbEntity
  8
ﾚｲﾔｰ1
100
AcDbLine
 10
487.59453125
 20
498.0861979167
 30
0.0
 11
487.59453125
 21
502.9611979167
 31
0.0
  0
LINE
  5
3DB
100
AcDbEntity
  8
ﾚｲﾔｰ1
100
AcDbLine
 10
485.64453125
 20
503.7111979167
 30
0.0
 11
473.94453125
 21
503.7111979167
 31
0.0
  0
ARC
  5
3DC
100
AcDbEntity
  8
ﾚｲﾔｰ1
100
AcDbCircle
 10
-485.64453125
 20
500.7861979167
 30
0.0
 40
2.925
210
0.0
220
0.0
230
-1.0
100
AcDbArc
 50
47.9000000001
 51
132.1000000001
  0
LINE
  5
3DD
100
AcDbEntity
  8
ﾚｲﾔｰ1
100
AcDbLine
 10
471.99453125
 20
498.0861979167
 30
0.0
 11
471.99453125
 21
502.9611979167
 31
0.0
  0
LINE
  5
3DE
100
AcDbEntity
  8
ﾚｲﾔｰ1
100
AcDbLine
 10
487.59453125
 20
455.0861979167
 30
0.0
 11
471.99453125
 21
455.0861979167
 31
0.0
  0
ARC
  5
3DF
100
AcDbEntity
  8
ﾚｲﾔｰ1
100
AcDbCircle
 10
473.94453125
 20
449.9237413194
 30
0.0
 40
2.925
210
0.0
220
0.0
230
1.0
100
AcDbArc
 50
227.9
 51
312.1
  0
LINE
  5
3E0
100
AcDbEntity
  8
ﾚｲﾔｰ1
100
AcDbLine
 10
524.79453125
 20
283.6786458333
 30
0.0
 11
524.79453125
 21
264.6786458333
 31
0.0
  0
LINE
  5
3E1
100
AcDbEntity
  8
ﾚｲﾔｰ1
100
AcDbLine
 10
520.29453125
 20
283.6786458333
 30
0.0
 11
520.29453125
 21
264.6786458333
 31
0.0
  0
LINE
  5
3E2
100
AcDbEntity
  8
ﾚｲﾔｰ1
100
AcDbLine
 10
483.69453125
 20
455.0861979167
 30
0.0
 11
483.69453125
 21
447.7487413194
 31
0.0
  0
LINE
  5
3E3
100
AcDbEntity
  8
ﾚｲﾔｰ1
100
AcDbLine
 10
487.59453125
 20
455.0861979167
 30
0.0
 11
487.59453125
 21
447.7487413194
 31
0.0
  0
LINE
  5
3E4
100
AcDbEntity
  8
ﾚｲﾔｰ1
100
AcDbLine
 10
485.64453125
 20
446.9987413194
 30
0.0
 11
473.94453125
 21
446.9987413194
 31
0.0
  0
ARC
  5
3E5
100
AcDbEntity
  8
ﾚｲﾔｰ1
100
AcDbCircle
 10
485.64453125
 20
449.9237413194
 30
0.0
 40
2.925
210
0.0
220
0.0
230
1.0
100
AcDbArc
 50
227.9000000001
 51
312.1000000001
  0
LINE
  5
3E6
100
AcDbEntity
  8
ﾚｲﾔｰ1
100
AcDbLine
 10
471.99453125
 20
455.0861979167
 30
0.0
 11
471.99453125
 21
447.7487413194
 31
0.0
  0
LINE
  5
3E7
100
AcDbEntity
  8
ﾚｲﾔｰ1
100
AcDbLine
 10
475.29453125
 20
459.5861979167
 30
0.0
 11
475.29453125
 21
493.5861979167
 31
0.0
  0
CIRCLE
  5
3E8
100
AcDbEntity
  8
ﾚｲﾔｰ1
100
AcDbCircle
 10
479.79453125
 20
274.1786458333
 30
0.0
 40
6.4
210
0.0
220
0.0
230
1.0
  0
INSERT
  5
3EA
100
AcDbEntity
  8
0
100
AcDbBlockReference
  2
CLUMP90
 10
0.0
 20
0.0
 30
0.0
  0
LINE
  5
3FD
100
AcDbEntity
  8
ﾚｲﾔｰ1
  6
BORDER
 62
         3
100
AcDbLine
 10
470.2869205729
 20
274.1786458333
 30
0.0
 11
489.3021419271
 21
274.1786458333
 31
0.0
  0
LINE
  5
3FE
100
AcDbEntity
  8
ﾚｲﾔｰ1
  6
BORDER
 62
         3
100
AcDbLine
 10
479.79453125
 20
285.9352109936
 30
0.0
 11
479.79453125
 21
262.422080673
 31
0.0
  0
LINE
  5
3FF
100
AcDbEntity
  8
ﾚｲﾔｰ1
100
AcDbLine
 10
515.2427083333
 20
248.5541477123
 30
0.0
 11
515.2427083333
 21
286.5541477123
 31
0.0
  0
LINE
  5
400
100
AcDbEntity
  8
ﾚｲﾔｰ1
100
AcDbLine
 10
518.4427083333
 20
248.5541477123
 30
0.0
 11
515.2427083333
 21
248.5541477123
 31
0.0
  0
LINE
  5
401
100
AcDbEntity
  8
ﾚｲﾔｰ1
100
AcDbLine
 10
518.4427083333
 20
286.5541477123
 30
0.0
 11
518.4427083333
 21
248.5541477123
 31
0.0
  0
LINE
  5
402
100
AcDbEntity
  8
ﾚｲﾔｰ1
100
AcDbLine
 10
515.2427083333
 20
286.5541477123
 30
0.0
 11
518.4427083333
 21
286.5541477123
 31
0.0
  0
LINE
  5
403
100
AcDbEntity
  8
ﾚｲﾔｰ1
100
AcDbLine
 10
524.79453125
 20
283.6786458333
 30
0.0
 11
518.4427083333
 21
283.6786458333
 31
0.0
  0
LINE
  5
404
100
AcDbEntity
  8
ﾚｲﾔｰ1
100
AcDbLine
 10
515.2427083333
 20
283.6786458333
 30
0.0
 11
468.6698690903
 21
283.6786458333
 31
0.0
  0
LINE
  5
405
100
AcDbEntity
  8
ﾚｲﾔｰ1
100
AcDbLine
 10
466.79453125
 20
455.0861979167
 30
0.0
 11
515.2427083333
 21
455.0861979167
 31
0.0
  0
INSERT
  5
407
100
AcDbEntity
  8
0
100
AcDbBlockReference
  2
CLUMP92
 10
0.0
 20
0.0
 30
0.0
  0
INSERT
  5
41F
100
AcDbEntity
  8
0
100
AcDbBlockReference
  2
CLUMP94
 10
0.0
 20
0.0
 30
0.0
  0
LINE
  5
436
100
AcDbEntity
  8
ﾚｲﾔｰ1
100
AcDbLine
 10
495.79453125
 20
379.88828125
 30
0.0
 11
495.79453125
 21
283.6786458333
 31
0.0
  0
LINE
  5
437
100
AcDbEntity
  8
ﾚｲﾔｰ1
100
AcDbLine
 10
500.79453125
 20
283.6786458333
 30
0.0
 11
500.79453125
 21
379.88828125
 31
0.0
  0
LINE
  5
438
100
AcDbEntity
  8
ﾚｲﾔｰ1
100
AcDbLine
 10
463.79453125
 20
200.8645833333
 30
0.0
 11
463.79453125
 21
379.88828125
 31
0.0
  0
LINE
  5
439
100
AcDbEntity
  8
ﾚｲﾔｰ1
100
AcDbLine
 10
495.79453125
 20
379.88828125
 30
0.0
 11
495.79453125
 21
200.8645833333
 31
0.0
  0
LINE
  5
43A
100
AcDbEntity
  8
ﾚｲﾔｰ1
100
AcDbLine
 10
520.29453125
 20
429.5861979167
 30
0.0
 11
524.79453125
 21
429.5861979167
 31
0.0
  0
LINE
  5
43B
100
AcDbEntity
  8
ﾚｲﾔｰ1
100
AcDbLine
 10
520.29453125
 20
523.5861979167
 30
0.0
 11
524.79453125
 21
523.5861979167
 31
0.0
  0
LINE
  5
43C
100
AcDbEntity
  8
ﾚｲﾔｰ1
100
AcDbLine
 10
532.79453125
 20
200.8645833333
 30
0.0
 11
532.79453125
 21
379.88828125
 31
0.0
  0
LINE
  5
43D
100
AcDbEntity
  8
ﾚｲﾔｰ1
100
AcDbLine
 10
661.76328125
 20
201.88984375
 30
0.0
 11
661.76328125
 21
263.4236979167
 31
0.0
  0
LINE
  5
43E
100
AcDbEntity
  8
ﾚｲﾔｰ1
100
AcDbLine
 10
730.76328125
 20
201.88984375
 30
0.0
 11
730.76328125
 21
263.4236979167
 31
0.0
  0
LINE
  5
43F
100
AcDbEntity
  8
ﾚｲﾔｰ1
100
AcDbLine
 10
693.76328125
 20
368.7263020833
 30
0.0
 11
693.76328125
 21
201.88984375
 31
0.0
  0
LINE
  5
440
100
AcDbEntity
  8
ﾚｲﾔｰ1
100
AcDbLine
 10
698.76328125
 20
201.88984375
 30
0.0
 11
698.76328125
 21
368.7263020833
 31
0.0
  0
LINE
  5
441
100
AcDbEntity
  8
ﾚｲﾔｰ1
100
AcDbLine
 10
266.0808557567
 20
40.659375
 30
0.0
 11
505.1415239837
 21
40.659375
 31
0.0
  0
ARC
  5
442
100
AcDbEntity
  8
ﾚｲﾔｰ1
100
AcDbCircle
 10
518.79453125
 20
499.5861979167
 30
0.0
 40
6.0
210
0.0
220
0.0
230
1.0
100
AcDbArc
 50
270.0
 51
0.0
  0
LINE
  5
443
100
AcDbEntity
  8
ﾚｲﾔｰ1
  6
BORDER
 62
         3
100
AcDbLine
 10
479.79453125
 20
509.9971354167
 30
0.0
 11
479.79453125
 21
440.4604969539
 31
0.0
  0
LINE
  5
444
100
AcDbEntity
  8
ﾚｲﾔｰ1
100
AcDbLine
 10
518.4427083333
 20
460.5861979167
 30
0.0
 11
518.4427083333
 21
432.5861979167
 31
0.0
  0
LINE
  5
445
100
AcDbEntity
  8
ﾚｲﾔｰ1
100
AcDbLine
 10
515.2427083333
 20
432.5861979167
 30
0.0
 11
515.2427083333
 21
460.5861979167
 31
0.0
  0
LINE
  5
446
100
AcDbEntity
  8
ﾚｲﾔｰ1
100
AcDbLine
 10
515.2427083333
 20
432.5861979167
 30
0.0
 11
518.4427083333
 21
432.5861979167
 31
0.0
  0
LINE
  5
447
100
AcDbEntity
  8
ﾚｲﾔｰ1
100
AcDbLine
 10
515.2427083333
 20
460.5861979167
 30
0.0
 11
518.4427083333
 21
460.5861979167
 31
0.0
  0
ARC
  5
448
100
AcDbEntity
  8
ﾚｲﾔｰ1
100
AcDbCircle
 10
-473.94453125
 20
500.7861979167
 30
0.0
 40
2.925
210
0.0
220
0.0
230
-1.0
100
AcDbArc
 50
47.9
 51
132.1
  0
LINE
  5
449
100
AcDbEntity
  8
ﾚｲﾔｰ1
100
AcDbLine
 10
475.89453125
 20
498.0861979167
 30
0.0
 11
475.89453125
 21
502.9611979167
 31
0.0
  0
ARC
  5
44A
100
AcDbEntity
  8
ﾚｲﾔｰ1
100
AcDbCircle
 10
-479.79453125
 20
493.2111979167
 30
0.0
 40
10.5
210
0.0
220
0.0
230
-1.0
100
AcDbArc
 50
68.2
 51
111.8
  0
LINE
  5
44B
100
AcDbEntity
  8
ﾚｲﾔｰ1
100
AcDbLine
 10
487.59453125
 20
498.0861979167
 30
0.0
 11
471.99453125
 21
498.0861979167
 31
0.0
  0
LINE
  5
44C
100
AcDbEntity
  8
ﾚｲﾔｰ1
  6
DIVIDE
 62
         4
100
AcDbLine
 10
730.76328125
 20
368.7263020833
 30
0.0
 11
730.76328125
 21
379.88828125
 31
0.0
  0
LINE
  5
44D
100
AcDbEntity
  8
ﾚｲﾔｰ1
100
AcDbLine
 10
661.76328125
 20
282.4236979167
 30
0.0
 11
661.76328125
 21
368.7263020833
 31
0.0
  0
LINE
  5
44E
100
AcDbEntity
  8
ﾚｲﾔｰ1
  6
DIVIDE
 62
         4
100
AcDbLine
 10
661.76328125
 20
368.7263020833
 30
0.0
 11
661.76328125
 21
379.88828125
 31
0.0
  0
INSERT
  5
450
100
AcDbEntity
  8
0
100
AcDbBlockReference
  2
CLUMP96
 10
0.0
 20
0.0
 30
0.0
  0
INSERT
  5
46D
100
AcDbEntity
  8
0
100
AcDbBlockReference
  2
CLUMP98
 10
0.0
 20
0.0
 30
0.0
  0
LINE
  5
489
100
AcDbEntity
  8
ﾚｲﾔｰ1
  6
DIVIDE
 62
         4
100
AcDbLine
 10
790.76328125
 20
201.88984375
 30
0.0
 11
790.76328125
 21
263.4236979167
 31
0.0
  0
LINE
  5
48A
100
AcDbEntity
  8
ﾚｲﾔｰ1
  6
DIVIDE
 62
         4
100
AcDbLine
 10
602.01328125
 20
201.88984375
 30
0.0
 11
602.01328125
 21
263.4236979167
 31
0.0
  0
LINE
  5
48B
100
AcDbEntity
  8
ﾚｲﾔｰ1
100
AcDbLine
 10
475.89453125
 20
455.0861979167
 30
0.0
 11
475.89453125
 21
447.7487413194
 31
0.0
  0
ARC
  5
48C
100
AcDbEntity
  8
ﾚｲﾔｰ1
100
AcDbCircle
 10
479.79453125
 20
457.4987413194
 30
0.0
 40
10.5
210
0.0
220
0.0
230
1.0
100
AcDbArc
 50
248.2
 51
291.8
  0
DIMENSION
  5
49F
100
AcDbEntity
  8
寸法線
 62
         3
100
AcDbDimension
  2
*D100
 10
790.76328125
 20
171.88984375
 30
0.0
 11
760.76328125
 21
171.88984375
 31
0.0
 70
       128
210
0.0
220
0.0
230
1.0
  1
<>
  3
VELDIM0
100
AcDbAlignedDimension
 13
790.76328125
 23
201.88984375
 33
0.0
 14
730.76328125
 24
201.88984375
 34
0.0
100
AcDbRotatedDimension
  0
DIMENSION
  5
4B0
100
AcDbEntity
  8
寸法線
 62
         3
100
AcDbDimension
  2
*D101
 10
704.76328125
 20
302.9236979167
 30
0.0
 11
754.76328125
 21
302.9236979167
 31
0.0
 70
       128
210
0.0
220
0.0
230
1.0
  1
<>
  3
VELDIM0
100
AcDbAlignedDimension
 13
704.76328125
 23
272.9236979167
 33
0.0
 14
804.76328125
 24
272.9236979167
 34
0.0
100
AcDbRotatedDimension
  0
DIMENSION
  5
4C1
100
AcDbEntity
  8
寸法線
 62
         3
100
AcDbDimension
  2
*D102
 10
832.8879434097
 20
282.4236979167
 30
0.0
 11
832.8879434097
 21
272.9236979167
 31
0.0
 70
       128
210
0.0
220
0.0
230
1.0
  1
<>
  3
VELDIM0
100
AcDbAlignedDimension
 13
802.8879434097
 23
282.4236979167
 33
0.0
 14
802.8879434097
 24
263.4236979167
 34
0.0
 50
90.0
100
AcDbRotatedDimension
  0
DIMENSION
  5
4D2
100
AcDbEntity
  8
寸法線
 62
         3
100
AcDbDimension
  2
*D103
 10
661.76328125
 20
171.88984375
 30
0.0
 11
631.88828125
 21
171.88984375
 31
0.0
 70
       128
210
0.0
220
0.0
230
1.0
  1
60
  3
VELDIM0
100
AcDbAlignedDimension
 13
661.76328125
 23
201.88984375
 33
0.0
 14
602.01328125
 24
201.88984375
 34
0.0
100
AcDbRotatedDimension
  0
DIMENSION
  5
4E3
100
AcDbEntity
  8
寸法線
 62
         3
100
AcDbDimension
  2
*D104
 10
693.76328125
 20
171.88984375
 30
0.0
 11
677.76328125
 21
171.88984375
 31
0.0
 70
       128
210
0.0
220
0.0
230
1.0
  1
<>
  3
VELDIM0
100
AcDbAlignedDimension
 13
693.76328125
 23
201.88984375
 33
0.0
 14
661.76328125
 24
201.88984375
 34
0.0
100
AcDbRotatedDimension
  0
DIMENSION
  5
4F4
100
AcDbEntity
  8
寸法線
 62
         3
100
AcDbDimension
  2
*D105
 10
402.0122395833
 20
464.5571967399
 30
0.0
 11
402.0122395833
 21
294.4571967399
 31
0.0
 70
       128
210
0.0
220
0.0
230
1.0
  1
1700
  3
VELDIM0
100
AcDbAlignedDimension
 13
272.19453125
 23
464.5571967399
 33
0.0
 14
272.19453125
 24
124.3571967399
 34
0.0
 50
90.0
100
AcDbRotatedDimension
  0
LINE
  5
4F5
100
AcDbEntity
  8
ﾚｲﾔｰ1
100
AcDbLine
 10
470.0385416667
 20
122.0
 30
0.0
 11
541.34375
 21
122.0
 31
0.0
  0
LINE
  5
4F6
100
AcDbEntity
  8
ﾚｲﾔｰ1
100
AcDbLine
 10
650.63125
 20
122.0
 30
0.0
 11
736.753125
 21
122.0
 31
0.0
  0
LINE
  5
4F7
100
AcDbEntity
  8
ﾚｲﾔｰ1
 62
         3
100
AcDbLine
 10
634.8885416667
 20
413.2177083333
 30
0.0
 11
723.7885416667
 21
413.2177083333
 31
0.0
  0
LINE
  5
4F8
100
AcDbEntity
  8
ﾚｲﾔｰ1
 62
         3
100
AcDbLine
 10
612.3532078355
 20
461.5861979167
 30
0.0
 11
613.4926533292
 21
455.1116950079
 31
0.0
  0
LINE
  5
4F9
100
AcDbEntity
  8
ﾚｲﾔｰ1
 62
         3
100
AcDbLine
 10
612.3532078355
 20
461.5861979167
 30
0.0
 11
616.5772480337
 21
456.5488366676
 31
0.0
  0
LINE
  5
4FA
100
AcDbEntity
  8
ﾚｲﾔｰ1
 62
         3
100
AcDbLine
 10
612.3532078355
 20
461.5861979167
 30
0.0
 11
634.8885416667
 21
413.2177083333
 31
0.0
  0
LINE
  5
4FB
100
AcDbEntity
  8
ﾚｲﾔｰ1
 62
         3
100
AcDbLine
 10
678.5329586305
 20
368.7263020833
 30
0.0
 11
684.7210998567
 21
370.9454082353
 31
0.0
  0
LINE
  5
4FC
100
AcDbEntity
  8
ﾚｲﾔｰ1
 62
         3
100
AcDbLine
 10
678.5329586305
 20
368.7263020833
 30
0.0
 11
682.7824930587
 21
373.7421749977
 31
0.0
  0
LINE
  5
4FD
100
AcDbEntity
  8
ﾚｲﾔｰ1
 62
         3
100
AcDbLine
 10
678.5329586305
 20
368.7263020833
 30
0.0
 11
741.3833333333
 21
412.2916666667
 31
0.0
  0
LINE
  5
4FE
100
AcDbEntity
  8
ﾚｲﾔｰ1
 62
         3
100
AcDbLine
 10
714.76328125
 20
368.7263020833
 30
0.0
 11
719.5260841411
 21
373.2576630897
 31
0.0
  0
LINE
  5
4FF
100
AcDbEntity
  8
ﾚｲﾔｰ1
 62
         3
100
AcDbLine
 10
714.76328125
 20
368.7263020833
 30
0.0
 11
716.6223090438
 21
375.0319772741
 31
0.0
  0
LINE
  5
500
100
AcDbEntity
  8
ﾚｲﾔｰ1
 62
         3
100
AcDbLine
 10
714.76328125
 20
368.7263020833
 30
0.0
 11
741.3833333333
 21
412.2916666667
 31
0.0
  0
LINE
  5
501
100
AcDbEntity
  8
ﾚｲﾔｰ1
 62
         3
100
AcDbLine
 10
741.3833333333
 20
412.2916666667
 30
0.0
 11
803.923374205
 21
412.2916666667
 31
0.0
  0
LINE
  5
502
100
AcDbEntity
  8
ﾚｲﾔｰ1
  6
DIVIDE
 62
         4
100
AcDbLine
 10
601.76328125
 20
282.4236979167
 30
0.0
 11
601.76328125
 21
379.88828125
 31
0.0
  0
LINE
  5
503
100
AcDbEntity
  8
ﾚｲﾔｰ1
  6
DIVIDE
 62
         4
100
AcDbLine
 10
790.76328125
 20
282.4236979167
 30
0.0
 11
790.76328125
 21
379.88828125
 31
0.0
  0
LINE
  5
504
100
AcDbEntity
  8
ﾚｲﾔｰ1
100
AcDbLine
 10
484.29453125
 20
493.5861979167
 30
0.0
 11
484.29453125
 21
459.5861979167
 31
0.0
  0
LINE
  5
505
100
AcDbEntity
  8
ﾚｲﾔｰ1
100
AcDbLine
 10
466.79453125
 20
459.5861979167
 30
0.0
 11
515.2427083333
 21
459.5861979167
 31
0.0
  0
LINE
  5
506
100
AcDbEntity
  8
ﾚｲﾔｰ1
100
AcDbLine
 10
518.4427083333
 20
459.5861979167
 30
0.0
 11
518.79453125
 21
459.5861979167
 31
0.0
  0
LINE
  5
507
100
AcDbEntity
  8
ﾚｲﾔｰ1
100
AcDbLine
 10
500.79453125
 20
200.8645833333
 30
0.0
 11
500.79453125
 21
379.88828125
 31
0.0
  0
INSERT
  5
509
100
AcDbEntity
  8
0
100
AcDbBlockReference
  2
CLUMP100
 10
0.0
 20
0.0
 30
0.0
  0
MTEXT
  5
511
100
AcDbEntity
  8
ﾚｲﾔｰ1
100
AcDbMText
 10
578.9332731298
 20
90.5380006037
 30
0.0
 40
9.2357767105
 41
42.4910027952
 71
         1
 72
         1
  1
\W0.8;\fＭＳ Ｐゴシック;\W1.0;1/3
  0
MTEXT
  5
512
100
AcDbEntity
  8
ﾚｲﾔｰ1
100
AcDbMText
 10
647.4149543252
 20
89.275822395
 30
0.0
 40
8.8857463837
 41
73.0631897436
 71
         1
 72
         1
  1
\W0.8;\fＭＳ ゴシック;\W1.0;2001.1.24
  0
MTEXT
  5
513
100
AcDbEntity
  8
ﾚｲﾔｰ1
100
AcDbMText
 10
611.1625962199
 20
90.4379801943
 30
0.0
 40
8.0425718307
 41
43.7186385415
 71
         1
 72
         1
  1
\W0.8;\fＭＳ ゴシック;\W1.0;作成日
  0
MTEXT
  5
514
100
AcDbEntity
  8
ﾚｲﾔｰ1
100
AcDbMText
 10
540.7847185452
 20
70.2358760455
 30
0.0
 40
9.1674962997
 41
19.894925044
 71
         1
 72
         1
  1
\W0.8;\fＭＳ ゴシック;\W1.0;名\P称
  0
MTEXT
  5
515
100
AcDbEntity
  8
ﾚｲﾔｰ1
100
AcDbMText
 10
542.5904441703
 20
89.6083259618
 30
0.0
 40
8.795132494
 41
36.2150942836
 71
         1
 72
         1
  1
\W0.8;\fＭＳ Ｐゴシック;\W1.0;尺度
  0
MTEXT
  5
516
100
AcDbEntity
  8
ﾚｲﾔｰ1
100
AcDbMText
 10
704.4750175541
 20
24.4037040641
 30
0.0
 40
5.6739284992
 41
9.8862826012
 71
         1
 72
         1
  1
\W0.8;\fＭＳ ゴシック;\W1.0;番
  0
MTEXT
  5
517
100
AcDbEntity
  8
ﾚｲﾔｰ1
100
AcDbMText
 10
704.4750175541
 20
37.8326561276
 30
0.0
 40
5.6739284992
 41
17.8520594305
 71
         1
 72
         1
  1
\W0.8;\fＭＳ ゴシック;\W1.0;図
  0
MTEXT
  5
518
100
AcDbEntity
  8
ﾚｲﾔｰ1
100
AcDbMText
 10
744.2398833354
 20
35.8701576178
 30
0.0
 40
13.1210100651
 41
145.1078558637
 71
         1
 72
         1
  1
\W0.8;\fＭＳ Ｐゴシック;\W1.0;０１４１０１３
  0
MTEXT
  5
519
100
AcDbEntity
  8
ﾚｲﾔｰ1
100
AcDbMText
 10
834.2115876636
 20
89.0090112833
 30
0.0
 40
7.9132960796
 41
18.6684610906
 71
         1
 72
         1
  1
\W0.8;\fＭＳ ゴシック;\W1.0;殿
  0
MTEXT
  5
51A
100
AcDbEntity
  8
ﾚｲﾔｰ1
100
AcDbMText
 10
548.0933308592
 20
36.5041268572
 30
0.0
 40
13.5607342243
 41
195.6967992586
 71
         1
 72
         1
  1
\W0.8;\fＭＳ ゴシック;\W1.0;日本機電株式会社
  0
MTEXT
  5
51B
100
AcDbEntity
  8
ﾚｲﾔｰ1
100
AcDbMText
 10
266.4204489673
 20
52.8847316409
 30
0.0
 40
9.0394356728
 41
320.9923775037
 71
         1
 72
         1
  1
\W0.8;\fＭＳ ゴシック;\W1.0;パイプは亜鉛引き鋼管　□32×1.6ｔ Z27
  0
MTEXT
  5
51C
100
AcDbEntity
  8
ﾚｲﾔｰ1
100
AcDbMText
 10
472.1552083333
 20
136.8166655382
 30
0.0
 40
9.6586836815
 41
97.9944947917
 71
         1
 72
         1
  1
\W0.8;\fＭＳ Ｐゴシック;\W1.0;フック部詳細
  0
MTEXT
  5
51D
100
AcDbEntity
  8
ﾚｲﾔｰ1
100
AcDbMText
 10
652.7479166667
 20
136.1166663766
 30
0.0
 40
9.6586836815
 41
127.447671875
 71
         1
 72
         1
  1
\W0.8;\fＭＳ Ｐゴシック;\W1.0;PCG柱固定部
  0
MTEXT
  5
51E
100
AcDbEntity
  8
ﾚｲﾔｰ1
100
AcDbMText
 10
568.6174935167
 20
66.5375869846
 30
0.0
 40
13.8501031876
 41
374.7293294197
 71
         1
 72
         1
  1
\W0.8;\fＭＳ Ｐゴシック;\W1.0;PCG閉止固定用金具
  0
MTEXT
  5
51F
100
AcDbEntity
  8
ﾚｲﾔｰ1
100
AcDbMText
 10
644.0368699963
 20
426.2573015874
 30
0.0
 40
9.6586836815
 41
101.9211880534
 71
         1
 72
         1
  1
\W0.8;\fＭＳ Ｐゴシック;\W1.0;60x30x10x2.3t
  0
MTEXT
  5
520
100
AcDbEntity
  8
ﾚｲﾔｰ1
100
AcDbMText
 10
741.7229265439
 20
424.5170229811
 30
0.0
 40
9.0394356728
 41
101.9211880534
 71
         1
 72
         1
  1
\W0.8;\fＭＳ ゴシック;\W1.0;□32×1.6ｔ
  0
MTEXT
  5
521
100
AcDbEntity
  8
ﾚｲﾔｰ1
100
AcDbMText
 10
266.4204489673
 20
52.8847316409
 30
0.0
 40
9.0394356728
 41
320.9923775037
 71
         1
 72
         1
  1
\W0.8;\fＭＳ ゴシック;\W1.0;パイプは亜鉛引き鋼管　□32×1.6ｔ Z27
  0
DIMENSION
  5
532
100
AcDbEntity
  8
寸法線
 62
         3
100
AcDbDimension
  2
*D107
 10
524.79453125
 20
399.5861979167
 30
0.0
 11
495.79453125
 21
399.5861979167
 31
0.0
 70
       128
210
0.0
220
0.0
230
1.0
  1
<>
  3
VELDIM0
100
AcDbAlignedDimension
 13
524.79453125
 23
429.5861979167
 33
0.0
 14
466.79453125
 24
455.0861979167
 34
0.0
100
AcDbRotatedDimension
  0
DIMENSION
  5
543
100
AcDbEntity
  8
寸法線
 62
         3
100
AcDbDimension
  2
*D108
 10
559.59453125
 20
460.5861979167
 30
0.0
 11
559.59453125
 21
445.0861979167
 31
0.0
 70
       128
210
0.0
220
0.0
230
1.0
  1
<>
  3
VELDIM0
100
AcDbAlignedDimension
 13
529.59453125
 23
460.5861979167
 33
0.0
 14
524.79453125
 24
429.5861979167
 34
0.0
 50
90.0
100
AcDbRotatedDimension
  0
DIMENSION
  5
554
100
AcDbEntity
  8
寸法線
 62
         3
100
AcDbDimension
  2
*D109
 10
559.59453125
 20
492.5861979167
 30
0.0
 11
559.59453125
 21
476.5861979167
 31
0.0
 70
       128
210
0.0
220
0.0
230
1.0
  1
<>
  3
VELDIM0
100
AcDbAlignedDimension
 13
529.59453125
 23
492.5861979167
 33
0.0
 14
529.59453125
 24
460.5861979167
 34
0.0
 50
90.0
100
AcDbRotatedDimension
  0
DIMENSION
  5
565
100
AcDbEntity
  8
寸法線
 62
         3
100
AcDbDimension
  2
*D110
 10
495.79453125
 20
170.8645833333
 30
0.0
 11
479.79453125
 21
170.8645833333
 31
0.0
 70
       128
210
0.0
220
0.0
230
1.0
  1
<>
  3
VELDIM0
100
AcDbAlignedDimension
 13
495.79453125
 23
200.8645833333
 33
0.0
 14
463.79453125
 24
200.8645833333
 34
0.0
100
AcDbRotatedDimension
  0
DIMENSION
  5
576
100
AcDbEntity
  8
寸法線
 62
         3
100
AcDbDimension
  2
*D111
 10
532.79453125
 20
170.8645833333
 30
0.0
 11
516.79453125
 21
170.8645833333
 31
0.0
 70
       128
210
0.0
220
0.0
230
1.0
  1
<>
  3
VELDIM0
100
AcDbAlignedDimension
 13
532.79453125
 23
200.8645833333
 33
0.0
 14
500.79453125
 24
200.8645833333
 34
0.0
100
AcDbRotatedDimension
  0
DIMENSION
  5
587
100
AcDbEntity
  8
寸法線
 62
         3
100
AcDbDimension
  2
*D112
 10
698.76328125
 20
171.88984375
 30
0.0
 11
696.26328125
 21
171.88984375
 31
0.0
 70
       128
210
0.0
220
0.0
230
1.0
  1
<>
  3
VELDIM0
100
AcDbAlignedDimension
 13
698.76328125
 23
201.88984375
 33
0.0
 14
693.76328125
 24
201.88984375
 34
0.0
100
AcDbRotatedDimension
  0
DIMENSION
  5
598
100
AcDbEntity
  8
寸法線
 62
         3
100
AcDbDimension
  2
*D113
 10
730.76328125
 20
171.88984375
 30
0.0
 11
714.76328125
 21
171.88984375
 31
0.0
 70
       128
210
0.0
220
0.0
230
1.0
  1
<>
  3
VELDIM0
100
AcDbAlignedDimension
 13
730.76328125
 23
201.88984375
 33
0.0
 14
698.76328125
 24
201.88984375
 34
0.0
100
AcDbRotatedDimension
  0
ENDSEC
  0
SECTION
  2
OBJECTS
  0
DICTIONARY
  5
19
100
AcDbDictionary
  3
ACAD_GROUP
350
1A
  3
ACAD_MLINESTYLE
350
1B
  0
DICTIONARY
  5
1A
102
{ACAD_REACTORS
330
19
102
}
100
AcDbDictionary
  0
DICTIONARY
  5
1B
102
{ACAD_REACTORS
330
19
102
}
100
AcDbDictionary
  3
STANDARD
350
1C
  0
MLINESTYLE
  5
1C
102
{ACAD_REACTORS
330
1B
102
}
100
AcDbMlineStyle
  2
STANDARD
 70
         0
  3

 62
         0
 51
90.0
 52
90.0
 71
         2
 49
0.5
 62
       256
  6
BYLAYER
 49
-0.5
 62
       256
  6
BYLAYER
  0
ENDSEC
  0
EOF
