  0
SECTION
  2
HEADER
  9
$ACADVER
  1
AC1015
  9
$ACADMAINTVER
 70
     6
  9
$DWGCODEPAGE
  3
ANSI_932
  9
$INSBASE
 10
0.0
 20
0.0
 30
0.0
  9
$EXTMIN
 10
-1.5996527778
 20
34.0453741615
 30
-0.00000001
  9
$EXTMAX
 10
547.4989583333
 20
411.071875
 30
0.00000001
  9
$LIMMIN
 10
0.0
 20
0.0
  9
$LIMMAX
 10
0.0
 20
0.0
  9
$ORTHOMODE
 70
     0
  9
$REGENMODE
 70
     1
  9
$FILLMODE
 70
     1
  9
$QTEXTMODE
 70
     0
  9
$MIRRTEXT
 70
     1
  9
$LTSCALE
 40
1.0
  9
$ATTMODE
 70
     1
  9
$TEXTSIZE
 40
0.0
  9
$TRACEWID
 40
0.05
  9
$TEXTSTYLE
  7
STANDARD
  9
$CLAYER
  8
0
  9
$CELTYPE
  6
CONTINUOUS
  9
$CECOLOR
 62
   256
  9
$CELTSCALE
 40
1.0
  9
$DISPSILH
 70
     0
  9
$DIMSCALE
 40
1.0
  9
$DIMASZ
 40
0.18
  9
$DIMEXO
 40
0.0625
  9
$DIMDLI
 40
0.38
  9
$DIMRND
 40
0.0
  9
$DIMDLE
 40
0.0
  9
$DIMEXE
 40
0.18
  9
$DIMTP
 40
0.0
  9
$DIMTM
 40
0.0
  9
$DIMTXT
 40
0.18
  9
$DIMCEN
 40
0.09
  9
$DIMTSZ
 40
0.0
  9
$DIMTOL
 70
     0
  9
$DIMLIM
 70
     0
  9
$DIMTIH
 70
     1
  9
$DIMTOH
 70
     1
  9
$DIMSE1
 70
     0
  9
$DIMSE2
 70
     0
  9
$DIMTAD
 70
     0
  9
$DIMZIN
 70
     0
  9
$DIMBLK
  1

  9
$DIMASO
 70
     1
  9
$DIMSHO
 70
     1
  9
$DIMPOST
  1

  9
$DIMAPOST
  1

  9
$DIMALT
 70
     0
  9
$DIMALTD
 70
     2
  9
$DIMALTF
 40
25.4
  9
$DIMLFAC
 40
1.0
  9
$DIMTOFL
 70
     0
  9
$DIMTVP
 40
0.0
  9
$DIMTIX
 70
     0
  9
$DIMSOXD
 70
     0
  9
$DIMSAH
 70
     0
  9
$DIMBLK1
  1

  9
$DIMBLK2
  1

  9
$DIMSTYLE
  2
STANDARD
  9
$DIMCLRD
 70
     0
  9
$DIMCLRE
 70
     0
  9
$DIMCLRT
 70
     0
  9
$DIMTFAC
 40
1.0
  9
$DIMGAP
 40
0.09
  9
$DIMJUST
 70
     0
  9
$DIMSD1
 70
     0
  9
$DIMSD2
 70
     0
  9
$DIMTOLJ
 70
     1
  9
$DIMTZIN
 70
     0
  9
$DIMALTZ
 70
     0
  9
$DIMALTTZ
 70
     0
  9
$DIMUPT
 70
     0
  9
$DIMDEC
 70
     4
  9
$DIMTDEC
 70
     4
  9
$DIMALTU
 70
     2
  9
$DIMALTTD
 70
     2
  9
$DIMTXSTY
  7
STANDARD
  9
$DIMAUNIT
 70
     0
  9
$DIMADEC
 70
     0
  9
$DIMALTRND
 40
0.0
  9
$DIMAZIN
 70
     0
  9
$DIMDSEP
 70
    46
  9
$DIMATFIT
 70
     3
  9
$DIMFRAC
 70
     0
  9
$DIMLDRBLK
  1

  9
$DIMLUNIT
 70
     2
  9
$DIMLWD
 70
    -2
  9
$DIMLWE
 70
    -2
  9
$DIMTMOVE
 70
     0
  9
$LUNITS
 70
     2
  9
$LUPREC
 70
     4
  9
$SKETCHINC
 40
0.1
  9
$FILLETRAD
 40
0.0
  9
$AUNITS
 70
     0
  9
$AUPREC
 70
     0
  9
$MENU
  1
acad
  9
$ELEVATION
 40
0.0
  9
$PELEVATION
 40
0.0
  9
$THICKNESS
 40
0.0
  9
$LIMCHECK
 70
     0
  9
$CHAMFERA
 40
0.0
  9
$CHAMFERB
 40
0.0
  9
$CHAMFERC
 40
0.0
  9
$CHAMFERD
 40
0.0
  9
$SKPOLY
 70
     0
  9
$TDCREATE
 40
2376123.549311551
  9
$TDUCREATE
 40
2376123.174311551
  9
$TDUPDATE
 40
2451971.618356134
  9
$TDUUPDATE
 40
2451971.243356134
  9
$TDINDWG
 40
0.0225456019
  9
$TDUSRTIMER
 40
0.0225449074
  9
$USRTIMER
 70
     1
  9
$ANGBASE
 50
0.0
  9
$ANGDIR
 70
     0
  9
$PDMODE
 70
     3
  9
$PDSIZE
 40
-1.0
  9
$PLINEWID
 40
0.0
  9
$SPLFRAME
 70
     0
  9
$SPLINETYPE
 70
     6
  9
$SPLINESEGS
 70
     8
  9
$HANDSEED
  5
231
  9
$SURFTAB1
 70
     6
  9
$SURFTAB2
 70
     6
  9
$SURFTYPE
 70
     6
  9
$SURFU
 70
     6
  9
$SURFV
 70
     6
  9
$UCSBASE
  2

  9
$UCSNAME
  2

  9
$UCSORG
 10
0.0
 20
0.0
 30
0.0
  9
$UCSXDIR
 10
1.0
 20
0.0
 30
0.0
  9
$UCSYDIR
 10
0.0
 20
1.0
 30
0.0
  9
$UCSORTHOREF
  2

  9
$UCSORTHOVIEW
 70
     0
  9
$UCSORGTOP
 10
0.0
 20
0.0
 30
0.0
  9
$UCSORGBOTTOM
 10
0.0
 20
0.0
 30
0.0
  9
$UCSORGLEFT
 10
0.0
 20
0.0
 30
0.0
  9
$UCSORGRIGHT
 10
0.0
 20
0.0
 30
0.0
  9
$UCSORGFRONT
 10
0.0
 20
0.0
 30
0.0
  9
$UCSORGBACK
 10
0.0
 20
0.0
 30
0.0
  9
$PUCSBASE
  2

  9
$PUCSNAME
  2

  9
$PUCSORG
 10
0.0
 20
0.0
 30
0.0
  9
$PUCSXDIR
 10
1.0
 20
0.0
 30
0.0
  9
$PUCSYDIR
 10
0.0
 20
1.0
 30
0.0
  9
$PUCSORTHOREF
  2

  9
$PUCSORTHOVIEW
 70
     0
  9
$PUCSORGTOP
 10
0.0
 20
0.0
 30
0.0
  9
$PUCSORGBOTTOM
 10
0.0
 20
0.0
 30
0.0
  9
$PUCSORGLEFT
 10
0.0
 20
0.0
 30
0.0
  9
$PUCSORGRIGHT
 10
0.0
 20
0.0
 30
0.0
  9
$PUCSORGFRONT
 10
0.0
 20
0.0
 30
0.0
  9
$PUCSORGBACK
 10
0.0
 20
0.0
 30
0.0
  9
$USERI1
 70
     0
  9
$USERI2
 70
     0
  9
$USERI3
 70
     0
  9
$USERI4
 70
     0
  9
$USERI5
 70
     0
  9
$USERR1
 40
0.0
  9
$USERR2
 40
0.0
  9
$USERR3
 40
0.0
  9
$USERR4
 40
0.0
  9
$USERR5
 40
0.0
  9
$WORLDVIEW
 70
     1
  9
$SHADEDGE
 70
     3
  9
$SHADEDIF
 70
    70
  9
$TILEMODE
 70
     0
  9
$MAXACTVP
 70
    16
  9
$PINSBASE
 10
0.0
 20
0.0
 30
0.0
  9
$PLIMCHECK
 70
     0
  9
$PEXTMIN
 10
1.122749993181603
 20
0.7804166500962629
 30
0.0
  9
$PEXTMAX
 10
10.10474993863443
 20
7.023749850866363
 30
0.0
  9
$PLIMMIN
 10
-0.2312499519408218
 20
-0.2312499894870548
  9
$PLIMMAX
 10
11.45874984621062
 20
8.03874995764785
  9
$UNITMODE
 70
     0
  9
$VISRETAIN
 70
     0
  9
$PLINEGEN
 70
     1
  9
$PSLTSCALE
 70
     0
  9
$TREEDEPTH
 70
  3020
  9
$CMLSTYLE
  2
STANDARD
  9
$CMLJUST
 70
     0
  9
$CMLSCALE
 40
1.0
  9
$PROXYGRAPHICS
 70
     0
  9
$MEASUREMENT
 70
     0
  9
$CELWEIGHT
370
    -1
  9
$ENDCAPS
280
     0
  9
$JOINSTYLE
280
     0
  9
$LWDISPLAY
290
     0
  9
$INSUNITS
 70
     0
  9
$HYPERLINKBASE
  1

  9
$STYLESHEET
  1

  9
$XEDIT
290
     1
  9
$CEPSNTYPE
380
     0
  9
$PSTYLEMODE
290
     1
  9
$FINGERPRINTGUID
  2
{E81A9FF9-0EF6-11D5-8F4A-444553540000}
  9
$VERSIONGUID
  2
{E81AA00C-0EF6-11D5-8F4A-444553540000}
  9
$EXTNAMES
290
     1
  9
$PSVPSCALE
 40
0.0
  9
$OLESTARTUP
290
     0
  0
ENDSEC
  0
SECTION
  2
CLASSES
  0
CLASS
  1
LWPOLYLINE
  2
AcDbPolyline
  3
AutoCAD 2000
 90
    32768
280
     0
281
     1
  0
CLASS
  1
IMAGE
  2
AcDbRasterImage
  3
ISM
 90
    32895
280
     0
281
     1
  0
CLASS
  1
OLE2FRAME
  2
AcDbOle2Frame
  3
AutoCAD 2000
 90
    32768
280
     0
281
     1
  0
CLASS
  1
HATCH
  2
AcDbHatch
  3
AutoCAD 2000
 90
    32768
280
     0
281
     1
  0
CLASS
  1
DICTIONARYVAR
  2
AcDbDictionaryVar
  3
AutoCAD 2000
 90
    32768
280
     0
281
     0
  0
CLASS
  1
RASTERVARIABLES
  2
AcDbRasterVariables
  3
ISM
 90
    32768
280
     0
281
     0
  0
CLASS
  1
IMAGEDEF
  2
AcDbRasterImageDef
  3
ISM
 90
    32768
280
     0
281
     0
  0
CLASS
  1
IMAGEDEF_REACTOR
  2
AcDbRasterImageDefReactor
  3
ISM
 90
    32769
280
     0
281
     0
  0
CLASS
  1
IDBUFFER
  2
AcDbIdBuffer
  3
AutoCAD 2000
 90
    32768
280
     0
281
     0
  0
CLASS
  1
SPATIAL_FILTER
  2
AcDbSpatialFilter
  3
AutoCAD 2000
 90
    32768
280
     0
281
     0
  0
CLASS
  1
XRECORD
  2
AcDbXrecord
  3
AutoCAD 2000
 90
    32768
280
     0
281
     0
  0
CLASS
  1
SORTENTSTABLE
  2
AcDbSortentsTable
  3
AutoCAD 2000
 90
    32768
280
     0
281
     0
  0
CLASS
  1
LAYER_INDEX
  2
AcDbLayerIndex
  3
AutoCAD 2000
 90
    32768
280
     0
281
     0
  0
CLASS
  1
SPATIAL_INDEX
  2
AcDbSpatialIndex
  3
AutoCAD 2000
 90
    32768
280
     0
281
     0
  0
CLASS
  1
OBJECT_PTR
  2
CAseDLPNTableRecord
  3
"ASE-LPNTableRecord"
 90
    32769
280
     0
281
     0
  0
CLASS
  1
LAYOUT
  2
AcDbLayout
  3
AutoCAD 2000
 90
        0
280
     0
281
     0
  0
CLASS
  1
PLOTSETTINGS
  2
AcDbPlotSettings
  3
AutoCAD 2000
 90
    32768
280
     0
281
     0
  0
CLASS
  1
ACDBDICTIONARYWDFLT
  2
AcDbDictionaryWithDefault
  3
AutoCAD 2000
 90
        0
280
     0
281
     0
  0
CLASS
  1
ACDBPLACEHOLDER
  2
AcDbPlaceHolder
  3
AutoCAD 2000
 90
        0
280
     0
281
     0
  0
CLASS
  1
VBA_PROJECT
  2
AcDbVbaProject
  3
"acadvba"
 90
    32769
280
     0
281
     0
  0
CLASS
  1
WIPEOUT
  2
AcDbWipeout
  3
WipeOut|AutoCAD Express Tool|expresstools@autodesk.com
 90
    32895
280
     0
281
     1
  0
CLASS
  1
WIPEOUTVARIABLES
  2
AcDbWipeoutVariables
  3
WipeOut|AutoCAD Express Tool|expresstools@autodesk.com
 90
    32768
280
     0
281
     0
  0
CLASS
  1
RTEXT
  2
RText
  3
RText|AutoCAD Express Tool|expresstools@autodesk.com
 90
    32768
280
     0
281
     1
  0
CLASS
  1
ARCALIGNEDTEXT
  2
AcDbArcAlignedText
  3
ATEXT|AutoCAD Express Tool|expresstools@autodesk.com
 90
    32768
280
     0
281
     1
  0
ENDSEC
  0
SECTION
  2
TABLES
  0
TABLE
  2
VPORT
  5
7
330
0
100
AcDbSymbolTable
 70
     2
  0
VPORT
  5
22B
330
7
100
AcDbSymbolTableRecord
100
AcDbViewportTableRecord
  2
*Active
 70
     0
 10
0.0
 20
0.0
 11
1.0
 21
1.0
 12
11.45602361888665
 22
4.579183999999999
 13
0.0
 23
0.0
 14
1.0
 24
1.0
 15
0.0
 25
0.0
 16
0.0
 26
0.0
 36
1.0
 17
0.0
 27
0.0
 37
0.0
 40
9.158369
 41
1.750922509225092
 42
50.0
 43
0.0
 44
0.0
 50
0.0
 51
0.0
 71
     0
 72
   100
 73
     1
 74
     1
 75
     0
 76
     0
 77
     0
 78
     0
281
     0
 65
     1
110
0.0
120
0.0
130
0.0
111
1.0
121
0.0
131
0.0
112
0.0
122
1.0
132
0.0
 79
     0
146
0.0
  0
ENDTAB
  0
TABLE
  2
LTYPE
  5
4
330
0
100
AcDbSymbolTable
 70
    11
  0
LTYPE
  5
11
330
4
100
AcDbSymbolTableRecord
100
AcDbLinetypeTableRecord
  2
BYBLOCK
 70
     0
  3

 72
    65
 73
     0
 40
0.0
  0
LTYPE
  5
12
330
4
100
AcDbSymbolTableRecord
100
AcDbLinetypeTableRecord
  2
BYLAYER
 70
     0
  3

 72
    65
 73
     0
 40
0.0
  0
LTYPE
  5
13
330
4
100
AcDbSymbolTableRecord
100
AcDbLinetypeTableRecord
  2
CONTINUOUS
 70
     0
  3
Solid line
 72
    65
 73
     0
 40
0.0
  0
LTYPE
  5
1D
330
4
100
AcDbSymbolTableRecord
100
AcDbLinetypeTableRecord
  2
DOT
 70
     0
  3
. . . . . . . . 
 72
    65
 73
     2
 40
1.0
 49
0.0
 74
     0
 49
-1.0
 74
     0
  0
LTYPE
  5
1E
330
4
100
AcDbSymbolTableRecord
100
AcDbLinetypeTableRecord
  2
DASHED
 70
     0
  3
___  ___  ___  ___  
 72
    65
 73
     2
 40
4.0
 49
3.0
 74
     0
 49
-1.0
 74
     0
  0
LTYPE
  5
1F
330
4
100
AcDbSymbolTableRecord
100
AcDbLinetypeTableRecord
  2
HIDDEN
 70
     0
  3
__ __ __ __ 
 72
    65
 73
     2
 40
3.0
 49
2.0
 74
     0
 49
-1.0
 74
     0
  0
LTYPE
  5
20
330
4
100
AcDbSymbolTableRecord
100
AcDbLinetypeTableRecord
  2
STITCH
 70
     0
  3
_ _ _ _ 
 72
    65
 73
     2
 40
2.0
 49
1.0
 74
     0
 49
-1.0
 74
     0
  0
LTYPE
  5
21
330
4
100
AcDbSymbolTableRecord
100
AcDbLinetypeTableRecord
  2
CENTER
 70
     0
  3
______  __  ______  __  
 72
    65
 73
     4
 40
43.0
 49
40.0
 74
     0
 49
-1.0
 74
     0
 49
1.0
 74
     0
 49
-1.0
 74
     0
  0
LTYPE
  5
22
330
4
100
AcDbSymbolTableRecord
100
AcDbLinetypeTableRecord
  2
DASHDOT
 70
     0
  3
____ . ____ . 
 72
    65
 73
     4
 40
32.0
 49
30.0
 74
     0
 49
-1.0
 74
     0
 49
0.0
 74
     0
 49
-1.0
 74
     0
  0
LTYPE
  5
23
330
4
100
AcDbSymbolTableRecord
100
AcDbLinetypeTableRecord
  2
BORDER
 70
     0
  3
__ . __ . 
 72
    65
 73
     4
 40
22.0
 49
20.0
 74
     0
 49
-1.0
 74
     0
 49
0.0
 74
     0
 49
-1.0
 74
     0
  0
LTYPE
  5
24
330
4
100
AcDbSymbolTableRecord
100
AcDbLinetypeTableRecord
  2
CUTTING
 70
     0
  3
________   ___   ___   
 72
    65
 73
     6
 40
45.0
 49
40.0
 74
     0
 49
-1.0
 74
     0
 49
1.0
 74
     0
 49
-1.0
 74
     0
 49
1.0
 74
     0
 49
-1.0
 74
     0
  0
LTYPE
  5
25
330
4
100
AcDbSymbolTableRecord
100
AcDbLinetypeTableRecord
  2
PHANTOM
 70
     0
  3
______  __  __  
 72
    65
 73
     6
 40
35.0
 49
30.0
 74
     0
 49
-1.0
 74
     0
 49
1.0
 74
     0
 49
-1.0
 74
     0
 49
1.0
 74
     0
 49
-1.0
 74
     0
  0
LTYPE
  5
26
330
4
100
AcDbSymbolTableRecord
100
AcDbLinetypeTableRecord
  2
DIVIDE
 70
     0
  3
____ . . ____ . . 
 72
    65
 73
     6
 40
23.0
 49
20.0
 74
     0
 49
-1.0
 74
     0
 49
0.0
 74
     0
 49
-1.0
 74
     0
 49
0.0
 74
     0
 49
-1.0
 74
     0
  0
ENDTAB
  0
TABLE
  2
LAYER
  5
2
330
0
100
AcDbSymbolTable
 70
     3
  0
LAYER
  5
14
330
2
100
AcDbSymbolTableRecord
100
AcDbLayerTableRecord
  2
0
 70
     0
 62
     7
  6
CONTINUOUS
370
    -3
390
223
  0
LAYER
  5
27
330
2
100
AcDbSymbolTableRecord
100
AcDbLayerTableRecord
  2
ﾚｲﾔｰ1
 70
     0
 62
     7
  6
CONTINUOUS
370
    -3
390
223
  0
LAYER
  5
74
330
2
100
AcDbSymbolTableRecord
100
AcDbLayerTableRecord
  2
寸法線
 70
     0
 62
     7
  6
CONTINUOUS
370
    -3
390
223
  0
ENDTAB
  0
TABLE
  2
STYLE
  5
3
330
0
100
AcDbSymbolTable
 70
     1
  0
STYLE
  5
17
330
3
100
AcDbSymbolTableRecord
100
AcDbTextStyleTableRecord
  2
STANDARD
 70
     0
 40
0.0
 41
1.0
 50
0.0
 71
     0
 42
0.0
  3
txt
  4
extfont
  0
ENDTAB
  0
TABLE
  2
VIEW
  5
5
330
0
100
AcDbSymbolTable
 70
     0
  0
ENDTAB
  0
TABLE
  2
UCS
  5
6
330
0
100
AcDbSymbolTable
 70
     0
  0
ENDTAB
  0
TABLE
  2
APPID
  5
8
330
0
100
AcDbSymbolTable
 70
     1
  0
APPID
  5
16
330
8
100
AcDbSymbolTableRecord
100
AcDbRegAppTableRecord
  2
ACAD
 70
     0
  0
ENDTAB
  0
TABLE
  2
DIMSTYLE
  5
9
330
0
100
AcDbSymbolTable
 70
     3
100
AcDbDimStyleTable
 71
     0
  0
DIMSTYLE
105
18
330
9
100
AcDbSymbolTableRecord
100
AcDbDimStyleTableRecord
  2
STANDARD
 70
     0
340
17
  0
DIMSTYLE
105
63
102
{ACAD_REACTORS
330
75
330
86
330
123
330
134
330
145
330
156
330
173
330
184
330
195
330
1A6
330
1B7
330
1C8
102
}
330
9
100
AcDbSymbolTableRecord
100
AcDbDimStyleTableRecord
  2
VELDIM0
 70
     0
 41
6.0
 44
4.0
 46
10.0
 73
     0
 74
     0
 78
     8
140
8.396111345299999
271
     3
340
17
  0
DIMSTYLE
105
157
102
{ACAD_REACTORS
330
162
102
}
330
9
100
AcDbSymbolTableRecord
100
AcDbDimStyleTableRecord
  2
VELDIM1
 70
     0
 41
6.0
 44
1.25
 46
5.0
 73
     0
 74
     0
 78
     8
140
8.396111345299999
271
     3
340
17
  0
ENDTAB
  0
TABLE
  2
BLOCK_RECORD
  5
1
330
0
100
AcDbSymbolTable
 70
    15
  0
BLOCK_RECORD
  5
A
330
1
100
AcDbSymbolTableRecord
100
AcDbBlockTableRecord
  2
*MODEL_SPACE
340
226
  0
BLOCK_RECORD
  5
B
330
1
100
AcDbSymbolTableRecord
100
AcDbBlockTableRecord
  2
*PAPER_SPACE
340
227
  0
BLOCK_RECORD
  5
64
330
1
100
AcDbSymbolTableRecord
100
AcDbBlockTableRecord
  2
*D0
340
0
  0
BLOCK_RECORD
  5
76
330
1
100
AcDbSymbolTableRecord
100
AcDbBlockTableRecord
  2
*D1
340
0
  0
BLOCK_RECORD
  5
10A
330
1
100
AcDbSymbolTableRecord
100
AcDbBlockTableRecord
  2
CLUMP0
340
0
102
{BLKREFS
331
10B
102
}
  0
BLOCK_RECORD
  5
113
330
1
100
AcDbSymbolTableRecord
100
AcDbBlockTableRecord
  2
*D3
340
0
  0
BLOCK_RECORD
  5
124
330
1
100
AcDbSymbolTableRecord
100
AcDbBlockTableRecord
  2
*D4
340
0
  0
BLOCK_RECORD
  5
135
330
1
100
AcDbSymbolTableRecord
100
AcDbBlockTableRecord
  2
*D5
340
0
  0
BLOCK_RECORD
  5
146
330
1
100
AcDbSymbolTableRecord
100
AcDbBlockTableRecord
  2
*D6
340
0
  0
BLOCK_RECORD
  5
158
330
1
100
AcDbSymbolTableRecord
100
AcDbBlockTableRecord
  2
*D7
340
0
  0
BLOCK_RECORD
  5
163
330
1
100
AcDbSymbolTableRecord
100
AcDbBlockTableRecord
  2
*D8
340
0
  0
BLOCK_RECORD
  5
174
330
1
100
AcDbSymbolTableRecord
100
AcDbBlockTableRecord
  2
*D9
340
0
  0
BLOCK_RECORD
  5
185
330
1
100
AcDbSymbolTableRecord
100
AcDbBlockTableRecord
  2
*D10
340
0
  0
BLOCK_RECORD
  5
196
330
1
100
AcDbSymbolTableRecord
100
AcDbBlockTableRecord
  2
*D11
340
0
  0
BLOCK_RECORD
  5
1A7
330
1
100
AcDbSymbolTableRecord
100
AcDbBlockTableRecord
  2
*D12
340
0
  0
BLOCK_RECORD
  5
1B8
330
1
100
AcDbSymbolTableRecord
100
AcDbBlockTableRecord
  2
*D13
340
0
  0
BLOCK_RECORD
  5
1C9
330
1
100
AcDbSymbolTableRecord
100
AcDbBlockTableRecord
  2
CLUMP1
340
0
102
{BLKREFS
331
1CA
102
}
  0
ENDTAB
  0
ENDSEC
  0
SECTION
  2
BLOCKS
  0
BLOCK
  5
D
330
A
100
AcDbEntity
  8
0
100
AcDbBlockBegin
  2
*MODEL_SPACE
 70
     0
 10
0.0
 20
0.0
 30
0.0
  3
*MODEL_SPACE
  1

  0
ENDBLK
  5
E
330
A
100
AcDbEntity
  8
0
100
AcDbBlockEnd
  0
BLOCK
  5
F
330
B
100
AcDbEntity
 67
     1
  8
0
100
AcDbBlockBegin
  2
*PAPER_SPACE
 70
     0
 10
0.0
 20
0.0
 30
0.0
  3
*PAPER_SPACE
  1

  0
ENDBLK
  5
10
330
B
100
AcDbEntity
 67
     1
  8
0
100
AcDbBlockEnd
  0
BLOCK
  5
65
330
64
100
AcDbEntity
  8
0
100
AcDbBlockBegin
  2
*D0
 70
     1
 10
0.0
 20
0.0
 30
0.0
  3
*D0
  1

  0
TEXT
  5
66
330
64
100
AcDbEntity
  8
0
 62
     0
100
AcDbText
 10
184.9685937086999
 20
141.1221820632999
 30
0.0
 40
8.396111345299999
  1
%%c21.7
 50
90.0
100
AcDbText
  0
LINE
  5
67
330
64
100
AcDbEntity
  8
0
 62
     0
100
AcDbLine
 10
168.4502604166999
 20
143.6052734374999
 30
0.0
 11
192.4502604166999
 21
143.6052734374999
 31
0.0
  0
LINE
  5
68
330
64
100
AcDbEntity
  8
0
 62
     0
100
AcDbLine
 10
168.4502604166999
 20
165.3914062499999
 30
0.0
 11
192.4502604166999
 21
165.3914062499999
 31
0.0
  0
LINE
  5
69
330
64
100
AcDbEntity
  8
0
 62
     0
100
AcDbLine
 10
188.4502604166999
 20
143.6052734374999
 30
0.0
 11
188.4502604166999
 21
172.8133866509
 31
0.0
  0
LINE
  5
6A
330
64
100
AcDbEntity
  8
0
 62
     0
100
AcDbLine
 10
188.4502604166999
 20
165.3914062499999
 30
0.0
 11
188.4502604166999
 21
172.8133866509
 31
0.0
  0
LINE
  5
6B
330
64
100
AcDbEntity
  8
0
 62
     0
100
AcDbLine
 10
188.4502604166999
 20
143.6052734374999
 30
0.0
 11
188.4502604166999
 21
136.1832930365999
 31
0.0
  0
LINE
  5
6C
330
64
100
AcDbEntity
  8
0
 62
     0
100
AcDbLine
 10
188.4502604166999
 20
165.3914062499999
 30
0.0
 11
188.4502604166999
 21
136.1832930365999
 31
0.0
  0
LINE
  5
6D
330
64
100
AcDbEntity
  8
0
 62
     0
100
AcDbLine
 10
188.4502604166999
 20
165.3914062499999
 30
0.0
 11
188.4502604166999
 21
175.3914062499999
 31
0.0
  0
LINE
  5
6E
330
64
100
AcDbEntity
  8
0
 62
     0
100
AcDbLine
 10
186.8392604747999
 20
171.3914062499999
 30
0.0
 11
188.4502604166999
 21
165.3914062499999
 31
0.0
  0
LINE
  5
6F
330
64
100
AcDbEntity
  8
0
 62
     0
100
AcDbLine
 10
188.4502604166999
 20
165.3914062499999
 30
0.0
 11
190.0612603584999
 21
171.3914062499999
 31
0.0
  0
LINE
  5
70
330
64
100
AcDbEntity
  8
0
 62
     0
100
AcDbLine
 10
188.4502604166999
 20
143.6052734374999
 30
0.0
 11
188.4502604166999
 21
133.6052734374999
 31
0.0
  0
LINE
  5
71
330
64
100
AcDbEntity
  8
0
 62
     0
100
AcDbLine
 10
190.0612603584999
 20
137.6052734374999
 30
0.0
 11
188.4502604166999
 21
143.6052734374999
 31
0.0
  0
LINE
  5
72
330
64
100
AcDbEntity
  8
0
 62
     0
100
AcDbLine
 10
188.4502604166999
 20
143.6052734374999
 30
0.0
 11
186.8392604747999
 21
137.6052734374999
 31
0.0
  0
ENDBLK
  5
73
330
64
100
AcDbEntity
  8
0
100
AcDbBlockEnd
  0
BLOCK
  5
77
330
76
100
AcDbEntity
  8
0
100
AcDbBlockBegin
  2
*D1
 70
     1
 10
0.0
 20
0.0
 30
0.0
  3
*D1
  1

  0
TEXT
  5
78
330
76
100
AcDbEntity
  8
0
 62
     0
100
AcDbText
 10
138.51137139
 20
127.0869401454999
 30
0.0
 40
8.396111345299999
  1
50
100
AcDbText
  0
LINE
  5
79
330
76
100
AcDbEntity
  8
0
 62
     0
100
AcDbLine
 10
118.4502604167
 20
143.6052734374999
 30
0.0
 11
118.4502604167
 21
119.6052734375
 31
0.0
  0
LINE
  5
7A
330
76
100
AcDbEntity
  8
0
 62
     0
100
AcDbLine
 10
168.4502604166999
 20
143.6052734374999
 30
0.0
 11
168.4502604166999
 21
119.6052734375
 31
0.0
  0
LINE
  5
7B
330
76
100
AcDbEntity
  8
0
 62
     0
100
AcDbLine
 10
118.4502604167
 20
123.6052734375
 30
0.0
 11
153.32803847
 21
123.6052734375
 31
0.0
  0
LINE
  5
7C
330
76
100
AcDbEntity
  8
0
 62
     0
100
AcDbLine
 10
168.4502604166999
 20
123.6052734375
 30
0.0
 11
153.32803847
 21
123.6052734375
 31
0.0
  0
LINE
  5
7D
330
76
100
AcDbEntity
  8
0
 62
     0
100
AcDbLine
 10
118.4502604167
 20
123.6052734375
 30
0.0
 11
133.5724823634
 21
123.6052734375
 31
0.0
  0
LINE
  5
7E
330
76
100
AcDbEntity
  8
0
 62
     0
100
AcDbLine
 10
168.4502604166999
 20
123.6052734375
 30
0.0
 11
133.5724823634
 21
123.6052734375
 31
0.0
  0
LINE
  5
7F
330
76
100
AcDbEntity
  8
0
 62
     0
100
AcDbLine
 10
168.4502604166999
 20
123.6052734375
 30
0.0
 11
158.4502604166999
 21
123.6052734375
 31
0.0
  0
LINE
  5
80
330
76
100
AcDbEntity
  8
0
 62
     0
100
AcDbLine
 10
162.4502604166999
 20
121.9942734957
 30
0.0
 11
168.4502604166999
 21
123.6052734375
 31
0.0
  0
LINE
  5
81
330
76
100
AcDbEntity
  8
0
 62
     0
100
AcDbLine
 10
168.4502604166999
 20
123.6052734375
 30
0.0
 11
162.4502604166999
 21
125.2162733793
 31
0.0
  0
LINE
  5
82
330
76
100
AcDbEntity
  8
0
 62
     0
100
AcDbLine
 10
118.4502604167
 20
123.6052734375
 30
0.0
 11
128.4502604167
 21
123.6052734375
 31
0.0
  0
LINE
  5
83
330
76
100
AcDbEntity
  8
0
 62
     0
100
AcDbLine
 10
124.4502604166999
 20
125.2162733793
 30
0.0
 11
118.4502604167
 21
123.6052734375
 31
0.0
  0
LINE
  5
84
330
76
100
AcDbEntity
  8
0
 62
     0
100
AcDbLine
 10
118.4502604167
 20
123.6052734375
 30
0.0
 11
124.4502604166999
 21
121.9942734957
 31
0.0
  0
ENDBLK
  5
85
330
76
100
AcDbEntity
  8
0
100
AcDbBlockEnd
  0
BLOCK
  5
10C
330
10A
100
AcDbEntity
  8
0
100
AcDbBlockBegin
  2
CLUMP0
 70
     0
 10
0.0
 20
0.0
 30
0.0
  3
CLUMP0
  1

  0
LINE
  5
10D
330
10A
100
AcDbEntity
  8
ﾚｲﾔｰ1
  6
DIVIDE
 62
     4
100
AcDbLine
 10
457.1630208333
 20
132.7552734374999
 30
0.0
 11
457.1630208333
 21
154.4552734375
 31
0.0
  0
LINE
  5
10E
330
10A
100
AcDbEntity
  8
ﾚｲﾔｰ1
  6
DIVIDE
 62
     4
100
AcDbLine
 10
407.1630208333
 20
154.4552734375
 30
0.0
 11
407.1630208333
 21
132.7552734374999
 31
0.0
  0
LINE
  5
10F
330
10A
100
AcDbEntity
  8
ﾚｲﾔｰ1
  6
DIVIDE
 62
     4
100
AcDbLine
 10
407.1630208333
 20
154.4552734375
 30
0.0
 11
457.1630208333
 21
154.4552734375
 31
0.0
  0
LINE
  5
110
330
10A
100
AcDbEntity
  8
ﾚｲﾔｰ1
  6
DIVIDE
 62
     4
100
AcDbLine
 10
457.1630208333
 20
132.7552734374999
 30
0.0
 11
407.1630208333
 21
132.7552734374999
 31
0.0
  0
ENDBLK
  5
111
330
10A
100
AcDbEntity
  8
0
100
AcDbBlockEnd
  0
BLOCK
  5
114
330
113
100
AcDbEntity
  8
0
100
AcDbBlockBegin
  2
*D3
 70
     1
 10
0.0
 20
0.0
 30
0.0
  3
*D3
  1

  0
TEXT
  5
115
330
113
100
AcDbEntity
  8
0
 62
     0
100
AcDbText
 10
227.7339165424999
 20
146.1663844109
 30
0.0
 40
8.396111345299999
  1
15
 50
90.0
100
AcDbText
  0
LINE
  5
116
330
113
100
AcDbEntity
  8
0
 62
     0
100
AcDbLine
 10
338.0496021611
 20
158.6052734374999
 30
0.0
 11
227.2155832504
 21
158.6052734374999
 31
0.0
  0
LINE
  5
117
330
113
100
AcDbEntity
  8
0
 62
     0
100
AcDbLine
 10
251.2155832504
 20
143.6052734374999
 30
0.0
 11
227.2155832504
 21
143.6052734374999
 31
0.0
  0
LINE
  5
118
330
113
100
AcDbEntity
  8
0
 62
     0
100
AcDbLine
 10
231.2155832504
 20
158.6052734374999
 30
0.0
 11
231.2155832504
 21
160.9830514907999
 31
0.0
  0
LINE
  5
119
330
113
100
AcDbEntity
  8
0
 62
     0
100
AcDbLine
 10
231.2155832504
 20
143.6052734374999
 30
0.0
 11
231.2155832504
 21
160.9830514907999
 31
0.0
  0
LINE
  5
11A
330
113
100
AcDbEntity
  8
0
 62
     0
100
AcDbLine
 10
231.2155832504
 20
158.6052734374999
 30
0.0
 11
231.2155832504
 21
141.2274953842
 31
0.0
  0
LINE
  5
11B
330
113
100
AcDbEntity
  8
0
 62
     0
100
AcDbLine
 10
231.2155832504
 20
143.6052734374999
 30
0.0
 11
231.2155832504
 21
141.2274953842
 31
0.0
  0
LINE
  5
11C
330
113
100
AcDbEntity
  8
0
 62
     0
100
AcDbLine
 10
231.2155832504
 20
143.6052734374999
 30
0.0
 11
231.2155832504
 21
133.6052734374999
 31
0.0
  0
LINE
  5
11D
330
113
100
AcDbEntity
  8
0
 62
     0
100
AcDbLine
 10
232.8265831923
 20
137.6052734374999
 30
0.0
 11
231.2155832504
 21
143.6052734374999
 31
0.0
  0
LINE
  5
11E
330
113
100
AcDbEntity
  8
0
 62
     0
100
AcDbLine
 10
231.2155832504
 20
143.6052734374999
 30
0.0
 11
229.6045833086
 21
137.6052734374999
 31
0.0
  0
LINE
  5
11F
330
113
100
AcDbEntity
  8
0
 62
     0
100
AcDbLine
 10
231.2155832504
 20
158.6052734374999
 30
0.0
 11
231.2155832504
 21
168.6052734375
 31
0.0
  0
LINE
  5
120
330
113
100
AcDbEntity
  8
0
 62
     0
100
AcDbLine
 10
229.6045833086
 20
164.6052734374999
 30
0.0
 11
231.2155832504
 21
158.6052734374999
 31
0.0
  0
LINE
  5
121
330
113
100
AcDbEntity
  8
0
 62
     0
100
AcDbLine
 10
231.2155832504
 20
158.6052734374999
 30
0.0
 11
232.8265831923
 21
164.6052734374999
 31
0.0
  0
ENDBLK
  5
122
330
113
100
AcDbEntity
  8
0
100
AcDbBlockEnd
  0
BLOCK
  5
125
330
124
100
AcDbEntity
  8
0
100
AcDbBlockBegin
  2
*D4
 70
     1
 10
0.0
 20
0.0
 30
0.0
  3
*D4
  1

  0
TEXT
  5
126
330
124
100
AcDbEntity
  8
0
 62
     0
100
AcDbText
 10
495.1437908013999
 20
160.3163844109
 30
0.0
 40
8.396111345299999
  1
65
 50
90.0
100
AcDbText
  0
LINE
  5
127
330
124
100
AcDbEntity
  8
0
 62
     0
100
AcDbLine
 10
457.1630208333
 20
132.7552734374999
 30
0.0
 11
502.6254575093999
 21
132.7552734374999
 31
0.0
  0
LINE
  5
128
330
124
100
AcDbEntity
  8
0
 62
     0
100
AcDbLine
 10
385.6776763271
 20
197.7552734374999
 30
0.0
 11
502.6254575093999
 21
197.7552734374999
 31
0.0
  0
LINE
  5
129
330
124
100
AcDbEntity
  8
0
 62
     0
100
AcDbLine
 10
498.6254575094
 20
132.7552734374999
 30
0.0
 11
498.6254575094
 21
175.1330514908
 31
0.0
  0
LINE
  5
12A
330
124
100
AcDbEntity
  8
0
 62
     0
100
AcDbLine
 10
498.6254575094
 20
197.7552734374999
 30
0.0
 11
498.6254575094
 21
175.1330514908
 31
0.0
  0
LINE
  5
12B
330
124
100
AcDbEntity
  8
0
 62
     0
100
AcDbLine
 10
498.6254575094
 20
132.7552734374999
 30
0.0
 11
498.6254575094
 21
155.3774953841999
 31
0.0
  0
LINE
  5
12C
330
124
100
AcDbEntity
  8
0
 62
     0
100
AcDbLine
 10
498.6254575094
 20
197.7552734374999
 30
0.0
 11
498.6254575094
 21
155.3774953841999
 31
0.0
  0
LINE
  5
12D
330
124
100
AcDbEntity
  8
0
 62
     0
100
AcDbLine
 10
498.6254575094
 20
197.7552734374999
 30
0.0
 11
498.6254575094
 21
187.7552734374999
 31
0.0
  0
LINE
  5
12E
330
124
100
AcDbEntity
  8
0
 62
     0
100
AcDbLine
 10
500.2364574511999
 20
191.7552734375
 30
0.0
 11
498.6254575094
 21
197.7552734374999
 31
0.0
  0
LINE
  5
12F
330
124
100
AcDbEntity
  8
0
 62
     0
100
AcDbLine
 10
498.6254575094
 20
197.7552734374999
 30
0.0
 11
497.0144575675
 21
191.7552734375
 31
0.0
  0
LINE
  5
130
330
124
100
AcDbEntity
  8
0
 62
     0
100
AcDbLine
 10
498.6254575094
 20
132.7552734374999
 30
0.0
 11
498.6254575094
 21
142.7552734375
 31
0.0
  0
LINE
  5
131
330
124
100
AcDbEntity
  8
0
 62
     0
100
AcDbLine
 10
497.0144575675
 20
138.7552734375
 30
0.0
 11
498.6254575094
 21
132.7552734374999
 31
0.0
  0
LINE
  5
132
330
124
100
AcDbEntity
  8
0
 62
     0
100
AcDbLine
 10
498.6254575094
 20
132.7552734374999
 30
0.0
 11
500.2364574511999
 21
138.7552734375
 31
0.0
  0
ENDBLK
  5
133
330
124
100
AcDbEntity
  8
0
100
AcDbBlockEnd
  0
BLOCK
  5
136
330
135
100
AcDbEntity
  8
0
100
AcDbBlockBegin
  2
*D5
 70
     1
 10
0.0
 20
0.0
 30
0.0
  3
*D5
  1

  0
TEXT
  5
137
330
135
100
AcDbEntity
  8
0
 62
     0
100
AcDbText
 10
480.2775131067
 20
127.5395595550999
 30
0.0
 40
8.396111345299999
  1
%%c16
 50
90.0
100
AcDbText
  0
LINE
  5
138
330
135
100
AcDbEntity
  8
0
 62
     0
100
AcDbLine
 10
457.1630208333
 20
135.6052734374999
 30
0.0
 11
487.7591798147
 21
135.6052734374999
 31
0.0
  0
LINE
  5
139
330
135
100
AcDbEntity
  8
0
 62
     0
100
AcDbLine
 10
457.1630208333
 20
151.6052734374999
 30
0.0
 11
487.7591798147
 21
151.6052734374999
 31
0.0
  0
LINE
  5
13A
330
135
100
AcDbEntity
  8
0
 62
     0
100
AcDbLine
 10
483.7591798147
 20
135.6052734374999
 30
0.0
 11
483.7591798147
 21
152.2340046882999
 31
0.0
  0
LINE
  5
13B
330
135
100
AcDbEntity
  8
0
 62
     0
100
AcDbLine
 10
483.7591798147
 20
151.6052734374999
 30
0.0
 11
483.7591798147
 21
152.2340046882999
 31
0.0
  0
LINE
  5
13C
330
135
100
AcDbEntity
  8
0
 62
     0
100
AcDbLine
 10
483.7591798147
 20
135.6052734374999
 30
0.0
 11
483.7591798147
 21
122.6006705284
 31
0.0
  0
LINE
  5
13D
330
135
100
AcDbEntity
  8
0
 62
     0
100
AcDbLine
 10
483.7591798147
 20
151.6052734374999
 30
0.0
 11
483.7591798147
 21
122.6006705284
 31
0.0
  0
LINE
  5
13E
330
135
100
AcDbEntity
  8
0
 62
     0
100
AcDbLine
 10
483.7591798147
 20
151.6052734374999
 30
0.0
 11
483.7591798147
 21
161.6052734374999
 31
0.0
  0
LINE
  5
13F
330
135
100
AcDbEntity
  8
0
 62
     0
100
AcDbLine
 10
482.1481798727999
 20
157.6052734374999
 30
0.0
 11
483.7591798147
 21
151.6052734374999
 31
0.0
  0
LINE
  5
140
330
135
100
AcDbEntity
  8
0
 62
     0
100
AcDbLine
 10
483.7591798147
 20
151.6052734374999
 30
0.0
 11
485.3701797565
 21
157.6052734374999
 31
0.0
  0
LINE
  5
141
330
135
100
AcDbEntity
  8
0
 62
     0
100
AcDbLine
 10
483.7591798147
 20
135.6052734374999
 30
0.0
 11
483.7591798147
 21
125.6052734375
 31
0.0
  0
LINE
  5
142
330
135
100
AcDbEntity
  8
0
 62
     0
100
AcDbLine
 10
485.3701797565
 20
129.6052734374999
 30
0.0
 11
483.7591798147
 21
135.6052734374999
 31
0.0
  0
LINE
  5
143
330
135
100
AcDbEntity
  8
0
 62
     0
100
AcDbLine
 10
483.7591798147
 20
135.6052734374999
 30
0.0
 11
482.1481798727999
 21
129.6052734374999
 31
0.0
  0
ENDBLK
  5
144
330
135
100
AcDbEntity
  8
0
100
AcDbBlockEnd
  0
BLOCK
  5
147
330
146
100
AcDbEntity
  8
0
100
AcDbBlockBegin
  2
*D6
 70
     1
 10
0.0
 20
0.0
 30
0.0
  3
*D6
  1

  0
TEXT
  5
148
330
146
100
AcDbEntity
  8
0
 62
     0
100
AcDbText
 10
111.6537621761999
 20
391.9767243359999
 30
0.0
 40
8.396111345299999
  1
31
100
AcDbText
  0
LINE
  5
149
330
146
100
AcDbEntity
  8
0
 62
     0
100
AcDbLine
 10
132.06875
 20
344.6842940781999
 30
0.0
 11
132.06875
 21
392.495057628
 31
0.0
  0
LINE
  5
14A
330
146
100
AcDbEntity
  8
0
 62
     0
100
AcDbLine
 10
101.1165524056
 20
348.3842940782
 30
0.0
 11
101.1165524056
 21
392.495057628
 31
0.0
  0
LINE
  5
14B
330
146
100
AcDbEntity
  8
0
 62
     0
100
AcDbLine
 10
132.06875
 20
388.495057628
 30
0.0
 11
126.4704292561
 21
388.495057628
 31
0.0
  0
LINE
  5
14C
330
146
100
AcDbEntity
  8
0
 62
     0
100
AcDbLine
 10
101.1165524056
 20
388.495057628
 30
0.0
 11
126.4704292561
 21
388.495057628
 31
0.0
  0
LINE
  5
14D
330
146
100
AcDbEntity
  8
0
 62
     0
100
AcDbLine
 10
132.06875
 20
388.495057628
 30
0.0
 11
106.7148731495
 21
388.495057628
 31
0.0
  0
LINE
  5
14E
330
146
100
AcDbEntity
  8
0
 62
     0
100
AcDbLine
 10
101.1165524056
 20
388.495057628
 30
0.0
 11
106.7148731495
 21
388.495057628
 31
0.0
  0
LINE
  5
14F
330
146
100
AcDbEntity
  8
0
 62
     0
100
AcDbLine
 10
101.1165524056
 20
388.495057628
 30
0.0
 11
91.11655240559999
 21
388.495057628
 31
0.0
  0
LINE
  5
150
330
146
100
AcDbEntity
  8
0
 62
     0
100
AcDbLine
 10
95.11655240559999
 20
386.8840576862
 30
0.0
 11
101.1165524056
 21
388.495057628
 31
0.0
  0
LINE
  5
151
330
146
100
AcDbEntity
  8
0
 62
     0
100
AcDbLine
 10
101.1165524056
 20
388.495057628
 30
0.0
 11
95.11655240559999
 21
390.1060575698999
 31
0.0
  0
LINE
  5
152
330
146
100
AcDbEntity
  8
0
 62
     0
100
AcDbLine
 10
132.06875
 20
388.495057628
 30
0.0
 11
142.0687499999999
 21
388.495057628
 31
0.0
  0
LINE
  5
153
330
146
100
AcDbEntity
  8
0
 62
     0
100
AcDbLine
 10
138.06875
 20
390.1060575698999
 30
0.0
 11
132.06875
 21
388.495057628
 31
0.0
  0
LINE
  5
154
330
146
100
AcDbEntity
  8
0
 62
     0
100
AcDbLine
 10
132.06875
 20
388.495057628
 30
0.0
 11
138.06875
 21
386.8840576862
 31
0.0
  0
ENDBLK
  5
155
330
146
100
AcDbEntity
  8
0
100
AcDbBlockEnd
  0
BLOCK
  5
159
330
158
100
AcDbEntity
  8
0
100
AcDbBlockBegin
  2
*D7
 70
     1
 10
0.0
 20
0.0
 30
0.0
  3
*D7
  1

  0
TEXT
  5
15A
330
158
100
AcDbEntity
  8
0
 62
     0
100
AcDbText
 10
63.37943647189999
 20
284.7185568949999
 30
0.0
 40
8.396111345299999
  1
%%c 48.6
 50
30.0
100
AcDbText
  0
LINE
  5
15B
330
158
100
AcDbEntity
  8
0
 62
     0
100
AcDbLine
 10
111.0243326879999
 20
308.2342940781999
 30
0.0
 11
65.1080476313
 21
281.7245145404999
 31
0.0
  0
LINE
  5
15C
330
158
100
AcDbEntity
  8
0
 62
     0
100
AcDbLine
 10
111.0243326879999
 20
308.2342940781999
 30
0.0
 11
153.1131673119999
 21
332.5342940781999
 31
0.0
  0
LINE
  5
15D
330
158
100
AcDbEntity
  8
0
 62
     0
100
AcDbLine
 10
115.4149851397999
 20
312.6294609533
 30
0.0
 11
111.0243326879999
 21
308.2342940781999
 31
0.0
  0
LINE
  5
15E
330
158
100
AcDbEntity
  8
0
 62
     0
100
AcDbLine
 10
111.0243326879999
 20
308.2342940781999
 30
0.0
 11
117.0259850817
 21
309.8391272031
 31
0.0
  0
LINE
  5
15F
330
158
100
AcDbEntity
  8
0
 62
     0
100
AcDbLine
 10
148.7225148602
 20
328.1391272031
 30
0.0
 11
153.1131673119999
 21
332.5342940781999
 31
0.0
  0
LINE
  5
160
330
158
100
AcDbEntity
  8
0
 62
     0
100
AcDbLine
 10
153.1131673119999
 20
332.5342940781999
 30
0.0
 11
147.1115149183
 21
330.9294609533
 31
0.0
  0
ENDBLK
  5
161
330
158
100
AcDbEntity
  8
0
100
AcDbBlockEnd
  0
BLOCK
  5
164
330
163
100
AcDbEntity
  8
0
100
AcDbBlockBegin
  2
*D8
 70
     1
 10
0.0
 20
0.0
 30
0.0
  3
*D8
  1

  0
TEXT
  5
165
330
163
100
AcDbEntity
  8
0
 62
     0
100
AcDbText
 10
81.17766337899999
 20
392.0923096632
 30
0.0
 40
8.396111345299999
  1
30
100
AcDbText
  0
LINE
  5
166
330
163
100
AcDbEntity
  8
0
 62
     0
100
AcDbLine
 10
101.1165524056
 20
348.3842940782
 30
0.0
 11
101.1165524056
 21
392.6106429552
 31
0.0
  0
LINE
  5
167
330
163
100
AcDbEntity
  8
0
 62
     0
100
AcDbLine
 10
71.11655240560001
 20
347.4342940777999
 30
0.0
 11
71.11655240560001
 21
392.6106429552
 31
0.0
  0
LINE
  5
168
330
163
100
AcDbEntity
  8
0
 62
     0
100
AcDbLine
 10
101.1165524056
 20
388.6106429552
 30
0.0
 11
95.9943304589
 21
388.6106429552
 31
0.0
  0
LINE
  5
169
330
163
100
AcDbEntity
  8
0
 62
     0
100
AcDbLine
 10
71.11655240560001
 20
388.6106429552
 30
0.0
 11
95.9943304589
 21
388.6106429552
 31
0.0
  0
LINE
  5
16A
330
163
100
AcDbEntity
  8
0
 62
     0
100
AcDbLine
 10
101.1165524056
 20
388.6106429552
 30
0.0
 11
76.23877435229999
 21
388.6106429552
 31
0.0
  0
LINE
  5
16B
330
163
100
AcDbEntity
  8
0
 62
     0
100
AcDbLine
 10
71.11655240560001
 20
388.6106429552
 30
0.0
 11
76.23877435229999
 21
388.6106429552
 31
0.0
  0
LINE
  5
16C
330
163
100
AcDbEntity
  8
0
 62
     0
100
AcDbLine
 10
71.11655240560001
 20
388.6106429552
 30
0.0
 11
61.11655240560001
 21
388.6106429552
 31
0.0
  0
LINE
  5
16D
330
163
100
AcDbEntity
  8
0
 62
     0
100
AcDbLine
 10
65.1165524056
 20
386.9996430133999
 30
0.0
 11
71.11655240560001
 21
388.6106429552
 31
0.0
  0
LINE
  5
16E
330
163
100
AcDbEntity
  8
0
 62
     0
100
AcDbLine
 10
71.11655240560001
 20
388.6106429552
 30
0.0
 11
65.1165524056
 21
390.221642897
 31
0.0
  0
LINE
  5
16F
330
163
100
AcDbEntity
  8
0
 62
     0
100
AcDbLine
 10
101.1165524056
 20
388.6106429552
 30
0.0
 11
111.1165524055999
 21
388.6106429552
 31
0.0
  0
LINE
  5
170
330
163
100
AcDbEntity
  8
0
 62
     0
100
AcDbLine
 10
107.1165524055999
 20
390.221642897
 30
0.0
 11
101.1165524056
 21
388.6106429552
 31
0.0
  0
LINE
  5
171
330
163
100
AcDbEntity
  8
0
 62
     0
100
AcDbLine
 10
101.1165524056
 20
388.6106429552
 30
0.0
 11
107.1165524055999
 21
386.9996430133999
 31
0.0
  0
ENDBLK
  5
172
330
163
100
AcDbEntity
  8
0
100
AcDbBlockEnd
  0
BLOCK
  5
175
330
174
100
AcDbEntity
  8
0
100
AcDbBlockBegin
  2
*D9
 70
     1
 10
0.0
 20
0.0
 30
0.0
  3
*D9
  1

  0
TEXT
  5
176
330
174
100
AcDbEntity
  8
0
 62
     0
100
AcDbText
 10
219.1787928631
 20
314.0579431201999
 30
0.0
 40
8.396111345299999
  1
93
 50
90.0
100
AcDbText
  0
LINE
  5
177
330
174
100
AcDbEntity
  8
0
 62
     0
100
AcDbLine
 10
103.1165524055999
 20
271.8842940782
 30
0.0
 11
226.6604595711
 21
271.8842940782
 31
0.0
  0
LINE
  5
178
330
174
100
AcDbEntity
  8
0
 62
     0
100
AcDbLine
 10
144.1165524056
 20
366.1093702154
 30
0.0
 11
226.6604595711
 21
366.1093702154
 31
0.0
  0
LINE
  5
179
330
174
100
AcDbEntity
  8
0
 62
     0
100
AcDbLine
 10
222.6604595711
 20
271.8842940782
 30
0.0
 11
222.6604595711
 21
328.8746102000999
 31
0.0
  0
LINE
  5
17A
330
174
100
AcDbEntity
  8
0
 62
     0
100
AcDbLine
 10
222.6604595711
 20
366.1093702154
 30
0.0
 11
222.6604595711
 21
328.8746102000999
 31
0.0
  0
LINE
  5
17B
330
174
100
AcDbEntity
  8
0
 62
     0
100
AcDbLine
 10
222.6604595711
 20
271.8842940782
 30
0.0
 11
222.6604595711
 21
309.1190540935
 31
0.0
  0
LINE
  5
17C
330
174
100
AcDbEntity
  8
0
 62
     0
100
AcDbLine
 10
222.6604595711
 20
366.1093702154
 30
0.0
 11
222.6604595711
 21
309.1190540935
 31
0.0
  0
LINE
  5
17D
330
174
100
AcDbEntity
  8
0
 62
     0
100
AcDbLine
 10
222.6604595711
 20
366.1093702154
 30
0.0
 11
222.6604595711
 21
356.1093702154
 31
0.0
  0
LINE
  5
17E
330
174
100
AcDbEntity
  8
0
 62
     0
100
AcDbLine
 10
224.2714595129999
 20
360.1093702154
 30
0.0
 11
222.6604595711
 21
366.1093702154
 31
0.0
  0
LINE
  5
17F
330
174
100
AcDbEntity
  8
0
 62
     0
100
AcDbLine
 10
222.6604595711
 20
366.1093702154
 30
0.0
 11
221.0494596293
 21
360.1093702154
 31
0.0
  0
LINE
  5
180
330
174
100
AcDbEntity
  8
0
 62
     0
100
AcDbLine
 10
222.6604595711
 20
271.8842940782
 30
0.0
 11
222.6604595711
 21
281.8842940782
 31
0.0
  0
LINE
  5
181
330
174
100
AcDbEntity
  8
0
 62
     0
100
AcDbLine
 10
221.0494596293
 20
277.8842940782
 30
0.0
 11
222.6604595711
 21
271.8842940782
 31
0.0
  0
LINE
  5
182
330
174
100
AcDbEntity
  8
0
 62
     0
100
AcDbLine
 10
222.6604595711
 20
271.8842940782
 30
0.0
 11
224.2714595129999
 21
277.8842940782
 31
0.0
  0
ENDBLK
  5
183
330
174
100
AcDbEntity
  8
0
100
AcDbBlockEnd
  0
BLOCK
  5
186
330
185
100
AcDbEntity
  8
0
100
AcDbBlockBegin
  2
*D10
 70
     1
 10
0.0
 20
0.0
 30
0.0
  3
*D10
  1

  0
TEXT
  5
187
330
185
100
AcDbEntity
  8
0
 62
     0
100
AcDbText
 10
276.8677253461
 20
175.0869401454999
 30
0.0
 40
8.396111345299999
  1
50
100
AcDbText
  0
LINE
  5
188
330
185
100
AcDbEntity
  8
0
 62
     0
100
AcDbLine
 10
306.4502079121
 20
151.6052734374999
 30
0.0
 11
306.4502079121
 21
175.6052734374999
 31
0.0
  0
LINE
  5
189
330
185
100
AcDbEntity
  8
0
 62
     0
100
AcDbLine
 10
257.1630208333
 20
151.6052734374999
 30
0.0
 11
257.1630208333
 21
175.6052734374999
 31
0.0
  0
LINE
  5
18A
330
185
100
AcDbEntity
  8
0
 62
     0
100
AcDbLine
 10
306.4502079121
 20
171.6052734374999
 30
0.0
 11
291.6843924259999
 21
171.6052734374999
 31
0.0
  0
LINE
  5
18B
330
185
100
AcDbEntity
  8
0
 62
     0
100
AcDbLine
 10
257.1630208333
 20
171.6052734374999
 30
0.0
 11
291.6843924259999
 21
171.6052734374999
 31
0.0
  0
LINE
  5
18C
330
185
100
AcDbEntity
  8
0
 62
     0
100
AcDbLine
 10
306.4502079121
 20
171.6052734374999
 30
0.0
 11
271.9288363193999
 21
171.6052734374999
 31
0.0
  0
LINE
  5
18D
330
185
100
AcDbEntity
  8
0
 62
     0
100
AcDbLine
 10
257.1630208333
 20
171.6052734374999
 30
0.0
 11
271.9288363193999
 21
171.6052734374999
 31
0.0
  0
LINE
  5
18E
330
185
100
AcDbEntity
  8
0
 62
     0
100
AcDbLine
 10
257.1630208333
 20
171.6052734374999
 30
0.0
 11
267.1630208333
 21
171.6052734374999
 31
0.0
  0
LINE
  5
18F
330
185
100
AcDbEntity
  8
0
 62
     0
100
AcDbLine
 10
263.1630208333
 20
173.2162733792999
 30
0.0
 11
257.1630208333
 21
171.6052734374999
 31
0.0
  0
LINE
  5
190
330
185
100
AcDbEntity
  8
0
 62
     0
100
AcDbLine
 10
257.1630208333
 20
171.6052734374999
 30
0.0
 11
263.1630208333
 21
169.9942734957
 31
0.0
  0
LINE
  5
191
330
185
100
AcDbEntity
  8
0
 62
     0
100
AcDbLine
 10
306.4502079121
 20
171.6052734374999
 30
0.0
 11
296.4502079120999
 21
171.6052734374999
 31
0.0
  0
LINE
  5
192
330
185
100
AcDbEntity
  8
0
 62
     0
100
AcDbLine
 10
300.4502079120999
 20
169.9942734957
 30
0.0
 11
306.4502079121
 21
171.6052734374999
 31
0.0
  0
LINE
  5
193
330
185
100
AcDbEntity
  8
0
 62
     0
100
AcDbLine
 10
306.4502079121
 20
171.6052734374999
 30
0.0
 11
300.4502079120999
 21
173.2162733792999
 31
0.0
  0
ENDBLK
  5
194
330
185
100
AcDbEntity
  8
0
100
AcDbBlockEnd
  0
BLOCK
  5
197
330
196
100
AcDbEntity
  8
0
100
AcDbBlockBegin
  2
*D11
 70
     1
 10
0.0
 20
0.0
 30
0.0
  3
*D11
  1

  0
TEXT
  5
198
330
196
100
AcDbEntity
  8
0
 62
     0
100
AcDbText
 10
429.4561826143
 20
175.0869401454999
 30
0.0
 40
8.396111345299999
  1
50
100
AcDbText
  0
LINE
  5
199
330
196
100
AcDbEntity
  8
0
 62
     0
100
AcDbLine
 10
457.1630208333
 20
151.6052734374999
 30
0.0
 11
457.1630208333
 21
175.6052734374999
 31
0.0
  0
LINE
  5
19A
330
196
100
AcDbEntity
  8
0
 62
     0
100
AcDbLine
 10
411.6271224484999
 20
151.6052734374999
 30
0.0
 11
411.6271224484999
 21
175.6052734374999
 31
0.0
  0
LINE
  5
19B
330
196
100
AcDbEntity
  8
0
 62
     0
100
AcDbLine
 10
457.1630208333
 20
171.6052734374999
 30
0.0
 11
444.2728496942
 21
171.6052734374999
 31
0.0
  0
LINE
  5
19C
330
196
100
AcDbEntity
  8
0
 62
     0
100
AcDbLine
 10
411.6271224484999
 20
171.6052734374999
 30
0.0
 11
444.2728496942
 21
171.6052734374999
 31
0.0
  0
LINE
  5
19D
330
196
100
AcDbEntity
  8
0
 62
     0
100
AcDbLine
 10
457.1630208333
 20
171.6052734374999
 30
0.0
 11
424.5172935875999
 21
171.6052734374999
 31
0.0
  0
LINE
  5
19E
330
196
100
AcDbEntity
  8
0
 62
     0
100
AcDbLine
 10
411.6271224484999
 20
171.6052734374999
 30
0.0
 11
424.5172935875999
 21
171.6052734374999
 31
0.0
  0
LINE
  5
19F
330
196
100
AcDbEntity
  8
0
 62
     0
100
AcDbLine
 10
411.6271224484999
 20
171.6052734374999
 30
0.0
 11
421.6271224484999
 21
171.6052734374999
 31
0.0
  0
LINE
  5
1A0
330
196
100
AcDbEntity
  8
0
 62
     0
100
AcDbLine
 10
417.6271224484999
 20
173.2162733792999
 30
0.0
 11
411.6271224484999
 21
171.6052734374999
 31
0.0
  0
LINE
  5
1A1
330
196
100
AcDbEntity
  8
0
 62
     0
100
AcDbLine
 10
411.6271224484999
 20
171.6052734374999
 30
0.0
 11
417.6271224484999
 21
169.9942734957
 31
0.0
  0
LINE
  5
1A2
330
196
100
AcDbEntity
  8
0
 62
     0
100
AcDbLine
 10
457.1630208333
 20
171.6052734374999
 30
0.0
 11
447.1630208333
 21
171.6052734374999
 31
0.0
  0
LINE
  5
1A3
330
196
100
AcDbEntity
  8
0
 62
     0
100
AcDbLine
 10
451.1630208333
 20
169.9942734957
 30
0.0
 11
457.1630208333
 21
171.6052734374999
 31
0.0
  0
LINE
  5
1A4
330
196
100
AcDbEntity
  8
0
 62
     0
100
AcDbLine
 10
457.1630208333
 20
171.6052734374999
 30
0.0
 11
451.1630208333
 21
173.2162733792999
 31
0.0
  0
ENDBLK
  5
1A5
330
196
100
AcDbEntity
  8
0
100
AcDbBlockEnd
  0
BLOCK
  5
1A8
330
1A7
100
AcDbEntity
  8
0
100
AcDbBlockBegin
  2
*D12
 70
     1
 10
0.0
 20
0.0
 30
0.0
  3
*D12
  1

  0
TEXT
  5
1A9
330
1A7
100
AcDbEntity
  8
0
 62
     0
100
AcDbText
 10
349.7546872933999
 20
119.0869401454999
 30
0.0
 40
8.396111345299999
  1
200
100
AcDbText
  0
LINE
  5
1AA
330
1A7
100
AcDbEntity
  8
0
 62
     0
100
AcDbLine
 10
257.1630208333
 20
135.6052734374999
 30
0.0
 11
257.1630208333
 21
111.6052734374999
 31
0.0
  0
LINE
  5
1AB
330
1A7
100
AcDbEntity
  8
0
 62
     0
100
AcDbLine
 10
457.1630208333
 20
135.6052734374999
 30
0.0
 11
457.1630208333
 21
111.6052734374999
 31
0.0
  0
LINE
  5
1AC
330
1A7
100
AcDbEntity
  8
0
 62
     0
100
AcDbLine
 10
257.1630208333
 20
115.6052734375
 30
0.0
 11
369.5102433999
 21
115.6052734375
 31
0.0
  0
LINE
  5
1AD
330
1A7
100
AcDbEntity
  8
0
 62
     0
100
AcDbLine
 10
457.1630208333
 20
115.6052734375
 30
0.0
 11
369.5102433999
 21
115.6052734375
 31
0.0
  0
LINE
  5
1AE
330
1A7
100
AcDbEntity
  8
0
 62
     0
100
AcDbLine
 10
257.1630208333
 20
115.6052734375
 30
0.0
 11
344.8157982666999
 21
115.6052734375
 31
0.0
  0
LINE
  5
1AF
330
1A7
100
AcDbEntity
  8
0
 62
     0
100
AcDbLine
 10
457.1630208333
 20
115.6052734375
 30
0.0
 11
344.8157982666999
 21
115.6052734375
 31
0.0
  0
LINE
  5
1B0
330
1A7
100
AcDbEntity
  8
0
 62
     0
100
AcDbLine
 10
457.1630208333
 20
115.6052734375
 30
0.0
 11
447.1630208333
 21
115.6052734375
 31
0.0
  0
LINE
  5
1B1
330
1A7
100
AcDbEntity
  8
0
 62
     0
100
AcDbLine
 10
451.1630208333
 20
113.9942734956999
 30
0.0
 11
457.1630208333
 21
115.6052734375
 31
0.0
  0
LINE
  5
1B2
330
1A7
100
AcDbEntity
  8
0
 62
     0
100
AcDbLine
 10
457.1630208333
 20
115.6052734375
 30
0.0
 11
451.1630208333
 21
117.2162733793
 31
0.0
  0
LINE
  5
1B3
330
1A7
100
AcDbEntity
  8
0
 62
     0
100
AcDbLine
 10
257.1630208333
 20
115.6052734375
 30
0.0
 11
267.1630208333
 21
115.6052734375
 31
0.0
  0
LINE
  5
1B4
330
1A7
100
AcDbEntity
  8
0
 62
     0
100
AcDbLine
 10
263.1630208333
 20
117.2162733793
 30
0.0
 11
257.1630208333
 21
115.6052734375
 31
0.0
  0
LINE
  5
1B5
330
1A7
100
AcDbEntity
  8
0
 62
     0
100
AcDbLine
 10
257.1630208333
 20
115.6052734375
 30
0.0
 11
263.1630208333
 21
113.9942734956999
 31
0.0
  0
ENDBLK
  5
1B6
330
1A7
100
AcDbEntity
  8
0
100
AcDbBlockEnd
  0
BLOCK
  5
1B9
330
1B8
100
AcDbEntity
  8
0
100
AcDbBlockBegin
  2
*D13
 70
     1
 10
0.0
 20
0.0
 30
0.0
  3
*D13
  1

  0
TEXT
  5
1BA
330
1B8
100
AcDbEntity
  8
0
 62
     0
100
AcDbText
 10
348.7257520794999
 20
252.0869401455
 30
0.0
 40
8.396111345299999
  1
47.5
100
AcDbText
  0
LINE
  5
1BB
330
1B8
100
AcDbEntity
  8
0
 62
     0
100
AcDbLine
 10
380.9130208333
 20
228.6052734375
 30
0.0
 11
380.9130208333
 21
252.6052734374999
 31
0.0
  0
LINE
  5
1BC
330
1B8
100
AcDbEntity
  8
0
 62
     0
100
AcDbLine
 10
333.4130208333
 20
228.6052734375
 30
0.0
 11
333.4130208333
 21
252.6052734374999
 31
0.0
  0
LINE
  5
1BD
330
1B8
100
AcDbEntity
  8
0
 62
     0
100
AcDbLine
 10
380.9130208333
 20
248.6052734374999
 30
0.0
 11
370.5391786137999
 21
248.6052734374999
 31
0.0
  0
LINE
  5
1BE
330
1B8
100
AcDbEntity
  8
0
 62
     0
100
AcDbLine
 10
333.4130208333
 20
248.6052734374999
 30
0.0
 11
370.5391786137999
 21
248.6052734374999
 31
0.0
  0
LINE
  5
1BF
330
1B8
100
AcDbEntity
  8
0
 62
     0
100
AcDbLine
 10
380.9130208333
 20
248.6052734374999
 30
0.0
 11
343.7868630528
 21
248.6052734374999
 31
0.0
  0
LINE
  5
1C0
330
1B8
100
AcDbEntity
  8
0
 62
     0
100
AcDbLine
 10
333.4130208333
 20
248.6052734374999
 30
0.0
 11
343.7868630528
 21
248.6052734374999
 31
0.0
  0
LINE
  5
1C1
330
1B8
100
AcDbEntity
  8
0
 62
     0
100
AcDbLine
 10
333.4130208333
 20
248.6052734374999
 30
0.0
 11
343.4130208333
 21
248.6052734374999
 31
0.0
  0
LINE
  5
1C2
330
1B8
100
AcDbEntity
  8
0
 62
     0
100
AcDbLine
 10
339.4130208333
 20
250.2162733792999
 30
0.0
 11
333.4130208333
 21
248.6052734374999
 31
0.0
  0
LINE
  5
1C3
330
1B8
100
AcDbEntity
  8
0
 62
     0
100
AcDbLine
 10
333.4130208333
 20
248.6052734374999
 30
0.0
 11
339.4130208333
 21
246.9942734956999
 31
0.0
  0
LINE
  5
1C4
330
1B8
100
AcDbEntity
  8
0
 62
     0
100
AcDbLine
 10
380.9130208333
 20
248.6052734374999
 30
0.0
 11
370.9130208333
 21
248.6052734374999
 31
0.0
  0
LINE
  5
1C5
330
1B8
100
AcDbEntity
  8
0
 62
     0
100
AcDbLine
 10
374.9130208333
 20
246.9942734956999
 30
0.0
 11
380.9130208333
 21
248.6052734374999
 31
0.0
  0
LINE
  5
1C6
330
1B8
100
AcDbEntity
  8
0
 62
     0
100
AcDbLine
 10
380.9130208333
 20
248.6052734374999
 30
0.0
 11
374.9130208333
 21
250.2162733792999
 31
0.0
  0
ENDBLK
  5
1C7
330
1B8
100
AcDbEntity
  8
0
100
AcDbBlockEnd
  0
BLOCK
  5
1CB
330
1C9
100
AcDbEntity
  8
0
100
AcDbBlockBegin
  2
CLUMP1
 70
     0
 10
0.0
 20
0.0
 30
0.0
  3
CLUMP1
  1

  0
ARC
  5
1CC
330
1C9
100
AcDbEntity
  8
ﾚｲﾔｰ1
100
AcDbCircle
 10
-357.1630208333
 20
196.7403434813
 30
0.0
 40
16.850255477
210
0.0
220
0.0
230
-1.0
100
AcDbArc
 50
44.7600649766
 51
135.2399350233999
  0
ARC
  5
1CD
330
1C9
100
AcDbEntity
  8
ﾚｲﾔｰ1
100
AcDbCircle
 10
-375.9130208333
 20
219.285361376
 30
0.0
 40
5.0
210
0.0
220
0.0
230
-1.0
100
AcDbArc
 50
180.0
 51
217.1197123026999
  0
LINE
  5
1CE
330
1C9
100
AcDbEntity
  8
ﾚｲﾔｰ1
100
AcDbLine
 10
377.1015052687
 20
212.5704498726999
 30
0.0
 11
379.8999025891999
 21
216.2679495937
 31
0.0
  0
LINE
  5
1CF
330
1C9
100
AcDbEntity
  8
ﾚｲﾔｰ1
100
AcDbLine
 10
380.9130208333
 20
228.6052734375
 30
0.0
 11
380.9130208333
 21
219.285361376
 31
0.0
  0
ARC
  5
1D0
330
1C9
100
AcDbEntity
  8
ﾚｲﾔｰ1
100
AcDbCircle
 10
338.4130208333
 20
219.285361376
 30
0.0
 40
5.0
100
AcDbArc
 50
180.0
 51
217.1197123026999
  0
LINE
  5
1D1
330
1C9
100
AcDbEntity
  8
ﾚｲﾔｰ1
100
AcDbLine
 10
337.2245363979999
 20
212.5704498726999
 30
0.0
 11
334.4261390774
 21
216.2679495937
 31
0.0
  0
LINE
  5
1D2
330
1C9
100
AcDbEntity
  8
ﾚｲﾔｰ1
100
AcDbLine
 10
333.4130208333
 20
228.6052734375
 30
0.0
 11
333.4130208333
 21
219.285361376
 31
0.0
  0
ARC
  5
1D3
330
1C9
100
AcDbEntity
  8
ﾚｲﾔｰ1
100
AcDbCircle
 10
369.1277417568
 20
218.6052734374
 30
0.0
 40
10.0
100
AcDbArc
 50
270.0
 51
322.8802876972999
  0
ARC
  5
1D4
330
1C9
100
AcDbEntity
  8
ﾚｲﾔｰ1
100
AcDbCircle
 10
345.1982999098
 20
218.6052734374
 30
0.0
 40
10.0
100
AcDbArc
 50
217.1197123026999
 51
270.0
  0
ARC
  5
1D5
330
1C9
100
AcDbEntity
  8
ﾚｲﾔｰ1
100
AcDbCircle
 10
368.9130208333
 20
226.6052734374
 30
0.0
 40
7.1314637458
100
AcDbArc
 50
27.4551395853
 51
134.3452684909
  0
ARC
  5
1D6
330
1C9
100
AcDbEntity
  8
ﾚｲﾔｰ1
100
AcDbCircle
 10
-345.4130208333
 20
226.6052734374
 30
0.0
 40
7.0
210
0.0
220
0.0
230
-1.0
100
AcDbArc
 50
27.4551395853
 51
135.4066731228
  0
LINE
  5
1D7
330
1C9
100
AcDbEntity
  8
ﾚｲﾔｰ1
100
AcDbLine
 10
357.1630360921
 20
225.6052734374999
 30
0.0
 11
357.1630208333
 21
231.7052734375
 31
0.0
  0
LINE
  5
1D8
330
1C9
100
AcDbEntity
  8
ﾚｲﾔｰ1
100
AcDbLine
 10
353.4457903645999
 20
232.6052734375
 30
0.0
 11
360.8802513020999
 21
232.6052734375
 31
0.0
  0
LINE
  5
1D9
330
1C9
100
AcDbEntity
  8
ﾚｲﾔｰ1
100
AcDbLine
 10
363.9282818197
 20
225.6052734374999
 30
0.0
 11
363.9282665608999
 21
231.7052734375
 31
0.0
  0
ARC
  5
1DA
330
1C9
100
AcDbEntity
  8
ﾚｲﾔｰ1
100
AcDbCircle
 10
360.5456436971
 20
225.8607316657
 30
0.0
 40
6.7528368824
100
AcDbArc
 50
59.9391948645
 51
120.0608051354999
  0
ARC
  5
1DB
330
1C9
100
AcDbEntity
  8
ﾚｲﾔｰ1
100
AcDbCircle
 10
-353.7803979696
 20
225.8607316657
 30
0.0
 40
6.7528368824
210
0.0
220
0.0
230
-1.0
100
AcDbArc
 50
59.9391948645
 51
120.0608051354999
  0
LINE
  5
1DC
330
1C9
100
AcDbEntity
  8
ﾚｲﾔｰ1
100
AcDbLine
 10
350.3977751058
 20
231.7052734375
 30
0.0
 11
350.3977903645999
 21
225.6052734374999
 31
0.0
  0
LINE
  5
1DD
330
1C9
100
AcDbEntity
  8
ﾚｲﾔｰ1
100
AcDbLine
 10
348.2488072709999
 20
166.4025065104
 30
0.0
 11
366.0772343956999
 21
166.4025065104
 31
0.0
  0
LINE
  5
1DE
330
1C9
100
AcDbEntity
  8
ﾚｲﾔｰ1
100
AcDbLine
 10
366.6630208333
 20
176.6025065104
 30
0.0
 11
347.6630208333
 21
176.6025065104
 31
0.0
  0
LINE
  5
1DF
330
1C9
100
AcDbEntity
  8
ﾚｲﾔｰ1
100
AcDbLine
 10
348.6630208333
 20
176.6025065104
 30
0.0
 11
348.6630208333
 21
192.6052734375
 31
0.0
  0
LINE
  5
1E0
330
1C9
100
AcDbEntity
  8
ﾚｲﾔｰ1
100
AcDbLine
 10
347.6630208333
 20
174.6025065104
 30
0.0
 11
347.6630208333
 21
188.6052734375
 31
0.0
  0
ARC
  5
1E1
330
1C9
100
AcDbEntity
  8
ﾚｲﾔｰ1
100
AcDbCircle
 10
349.6630208333
 20
174.6025065104
 30
0.0
 40
2.0
100
AcDbArc
 50
180.0
 51
270.0
  0
LINE
  5
1E2
330
1C9
100
AcDbEntity
  8
ﾚｲﾔｰ1
100
AcDbLine
 10
344.4630208332999
 20
174.4025065104
 30
0.0
 11
344.4630208332999
 21
188.6052734375
 31
0.0
  0
ARC
  5
1E3
330
1C9
100
AcDbEntity
  8
ﾚｲﾔｰ1
100
AcDbCircle
 10
349.4630208333
 20
174.4025065104
 30
0.0
 40
5.0
100
AcDbArc
 50
180.0
 51
270.0
  0
LINE
  5
1E4
330
1C9
100
AcDbEntity
  8
ﾚｲﾔｰ1
100
AcDbLine
 10
339.0680013021
 20
188.6052734375
 30
0.0
 11
347.6630208333
 21
188.6052734375
 31
0.0
  0
LINE
  5
1E5
330
1C9
100
AcDbEntity
  8
ﾚｲﾔｰ1
100
AcDbLine
 10
339.0680013021
 20
188.6052734375
 30
0.0
 11
333.4130208333
 21
176.8275716146
 31
0.0
  0
ARC
  5
1E6
330
1C9
100
AcDbEntity
  8
ﾚｲﾔｰ1
100
AcDbCircle
 10
338.4130208333
 20
170.6052734374999
 30
0.0
 40
5.0
100
AcDbArc
 50
180.0
 51
270.0
  0
ARC
  5
1E7
330
1C9
100
AcDbEntity
  8
ﾚｲﾔｰ1
100
AcDbCircle
 10
-375.9130208333
 20
170.6052734374999
 30
0.0
 40
5.0
210
0.0
220
0.0
230
-1.0
100
AcDbArc
 50
180.0
 51
270.0
  0
LINE
  5
1E8
330
1C9
100
AcDbEntity
  8
ﾚｲﾔｰ1
100
AcDbLine
 10
380.9130208333
 20
170.6052734374999
 30
0.0
 11
380.9130208333
 21
213.0552734375
 31
0.0
  0
LINE
  5
1E9
330
1C9
100
AcDbEntity
  8
ﾚｲﾔｰ1
100
AcDbLine
 10
375.2580403646
 20
188.6052734375
 30
0.0
 11
380.9130208333
 21
176.8275716146
 31
0.0
  0
LINE
  5
1EA
330
1C9
100
AcDbEntity
  8
ﾚｲﾔｰ1
100
AcDbLine
 10
375.2580403646
 20
188.6052734375
 30
0.0
 11
366.6630208333
 21
188.6052734375
 31
0.0
  0
ARC
  5
1EB
330
1C9
100
AcDbEntity
  8
ﾚｲﾔｰ1
100
AcDbCircle
 10
-364.8630208333
 20
174.4025065104
 30
0.0
 40
5.0
210
0.0
220
0.0
230
-1.0
100
AcDbArc
 50
180.0
 51
270.0
  0
LINE
  5
1EC
330
1C9
100
AcDbEntity
  8
ﾚｲﾔｰ1
100
AcDbLine
 10
369.8630208333
 20
174.4025065104
 30
0.0
 11
369.8630208333
 21
188.6052734375
 31
0.0
  0
ARC
  5
1ED
330
1C9
100
AcDbEntity
  8
ﾚｲﾔｰ1
100
AcDbCircle
 10
-364.6630208333
 20
174.6025065104
 30
0.0
 40
2.0
210
0.0
220
0.0
230
-1.0
100
AcDbArc
 50
180.0
 51
270.0
  0
LINE
  5
1EE
330
1C9
100
AcDbEntity
  8
ﾚｲﾔｰ1
100
AcDbLine
 10
366.6630208333
 20
174.6025065104
 30
0.0
 11
366.6630208333
 21
188.6052734375
 31
0.0
  0
LINE
  5
1EF
330
1C9
100
AcDbEntity
  8
ﾚｲﾔｰ1
100
AcDbLine
 10
365.6630208333
 20
176.6025065104
 30
0.0
 11
365.6630208333
 21
192.6052734375
 31
0.0
  0
LINE
  5
1F0
330
1C9
100
AcDbEntity
  8
ﾚｲﾔｰ1
100
AcDbLine
 10
365.4272786668
 20
223.6052734374999
 30
0.0
 11
365.4272786668
 21
213.1552734375
 31
0.0
  0
LINE
  5
1F1
330
1C9
100
AcDbEntity
  8
ﾚｲﾔｰ1
100
AcDbLine
 10
348.8987629998999
 20
223.6052734374999
 30
0.0
 11
348.8987629998999
 21
213.1552734375
 31
0.0
  0
LINE
  5
1F2
330
1C9
100
AcDbEntity
  8
ﾚｲﾔｰ1
100
AcDbLine
 10
362.4630208332999
 20
192.6052734375
 30
0.0
 11
362.4630208332999
 21
212.7353773868999
 31
0.0
  0
LINE
  5
1F3
330
1C9
100
AcDbEntity
  8
ﾚｲﾔｰ1
100
AcDbLine
 10
361.4630208333
 20
192.6052734375
 30
0.0
 11
361.4630208333
 21
212.7353773868999
 31
0.0
  0
LINE
  5
1F4
330
1C9
100
AcDbEntity
  8
ﾚｲﾔｰ1
100
AcDbLine
 10
352.8629312562999
 20
192.6052804213999
 30
0.0
 11
352.8629572428
 21
212.7353843708
 31
0.0
  0
LINE
  5
1F5
330
1C9
100
AcDbEntity
  8
ﾚｲﾔｰ1
100
AcDbLine
 10
351.8629312563
 20
192.6052820456
 30
0.0
 11
351.8629572428
 21
212.7353859949
 31
0.0
  0
ARC
  5
1F6
330
1C9
100
AcDbEntity
  8
ﾚｲﾔｰ1
100
AcDbCircle
 10
-357.1630208333
 20
197.7403434813
 30
0.0
 40
16.850255477
210
0.0
220
0.0
230
-1.0
100
AcDbArc
 50
44.7600649766
 51
135.2399350233999
  0
LINE
  5
1F7
330
1C9
100
AcDbEntity
  8
ﾚｲﾔｰ1
100
AcDbLine
 10
348.6630208333
 20
192.6052734375
 30
0.0
 11
348.6630208333
 21
176.6025065104
 31
0.0
  0
LINE
  5
1F8
330
1C9
100
AcDbEntity
  8
ﾚｲﾔｰ1
100
AcDbLine
 10
367.6630237866999
 20
225.6052734374999
 30
0.0
 11
346.6630237866999
 21
225.6052734374999
 31
0.0
  0
LINE
  5
1F9
330
1C9
100
AcDbEntity
  8
ﾚｲﾔｰ1
100
AcDbLine
 10
367.6630237866999
 20
223.6052734374999
 30
0.0
 11
367.6630237866999
 21
225.6052734374999
 31
0.0
  0
LINE
  5
1FA
330
1C9
100
AcDbEntity
  8
ﾚｲﾔｰ1
  6
BORDER
 62
     3
100
AcDbLine
 10
357.1630208333
 20
242.1852734375
 30
0.0
 11
357.1630208333
 21
156.4252734375
 31
0.0
  0
LINE
  5
1FB
330
1C9
100
AcDbEntity
  8
ﾚｲﾔｰ1
100
AcDbLine
 10
365.6630208333
 20
192.6052734375
 30
0.0
 11
348.6630208333
 21
192.6052734375
 31
0.0
  0
LINE
  5
1FC
330
1C9
100
AcDbEntity
  8
ﾚｲﾔｰ1
100
AcDbLine
 10
347.9630237866999
 20
225.6052734374999
 30
0.0
 11
366.3630237866999
 21
225.6052734374999
 31
0.0
  0
LINE
  5
1FD
330
1C9
100
AcDbEntity
  8
ﾚｲﾔｰ1
100
AcDbLine
 10
346.6630237866999
 20
225.6052734374999
 30
0.0
 11
346.6630237866999
 21
223.6052734374999
 31
0.0
  0
LINE
  5
1FE
330
1C9
100
AcDbEntity
  8
ﾚｲﾔｰ1
100
AcDbLine
 10
346.6630237866999
 20
223.6052734374999
 30
0.0
 11
367.6630237866999
 21
223.6052734374999
 31
0.0
  0
LINE
  5
1FF
330
1C9
100
AcDbEntity
  8
ﾚｲﾔｰ1
100
AcDbLine
 10
380.9130208333
 20
228.6052734375
 30
0.0
 11
377.0789188671
 21
228.6052734375
 31
0.0
  0
LINE
  5
200
330
1C9
100
AcDbEntity
  8
ﾚｲﾔｰ1
100
AcDbLine
 10
375.5130208333
 20
228.5552734374999
 30
0.0
 11
375.5130208333
 21
218.1052734375
 31
0.0
  0
LINE
  5
201
330
1C9
100
AcDbEntity
  8
ﾚｲﾔｰ1
100
AcDbLine
 10
338.8130208333
 20
228.5552734374999
 30
0.0
 11
338.8130208333
 21
218.1052734375
 31
0.0
  0
LINE
  5
202
330
1C9
100
AcDbEntity
  8
ﾚｲﾔｰ1
100
AcDbLine
 10
333.4130208333
 20
228.6052734375
 30
0.0
 11
337.2471227995999
 21
228.6052734375
 31
0.0
  0
LINE
  5
203
330
1C9
100
AcDbEntity
  8
ﾚｲﾔｰ1
100
AcDbLine
 10
333.4130208333
 20
228.6052734375
 30
0.0
 11
337.0871227995999
 21
228.6052734375
 31
0.0
  0
LINE
  5
204
330
1C9
100
AcDbEntity
  8
ﾚｲﾔｰ1
100
AcDbLine
 10
380.9130208333
 20
228.6052734375
 30
0.0
 11
377.2389188670999
 21
228.6052734375
 31
0.0
  0
ELLIPSE
  5
205
330
1C9
100
AcDbEntity
  8
ﾚｲﾔｰ1
100
AcDbEllipse
 10
377.5732748711
 20
231.6052734374999
 30
0.0
 11
-2.598076210301542
 21
-1.500000001826266
 31
0.0
210
0.0
220
0.0
230
0.9999999999999998
 40
1.0
 41
0.0
 42
1.047197550494112
  0
LINE
  5
206
330
1C9
100
AcDbEntity
  8
ﾚｲﾔｰ1
  6
BORDER
 62
     3
100
AcDbLine
 10
357.1630208333
 20
247.7583984375
 30
0.0
 11
357.1630208333
 21
149.9434085320999
 31
0.0
  0
ARC
  5
207
330
1C9
100
AcDbEntity
  8
ﾚｲﾔｰ1
100
AcDbCircle
 10
336.7527667956
 20
231.6052734374999
 30
0.0
 40
3.0
100
AcDbArc
 50
293.7920295990999
 51
323.1301023609
  0
ARC
  5
208
330
1C9
100
AcDbEntity
  8
ﾚｲﾔｰ1
100
AcDbCircle
 10
336.7527667956
 20
231.6052734374999
 30
0.0
 40
3.0
100
AcDbArc
 50
270.0
 51
330.0000000068
  0
LINE
  5
209
330
1C9
100
AcDbEntity
  8
ﾚｲﾔｰ1
100
AcDbLine
 10
348.2488072709999
 20
169.4025065104
 30
0.0
 11
366.0772343956999
 21
169.4025065104
 31
0.0
  0
LINE
  5
20A
330
1C9
100
AcDbEntity
  8
ﾚｲﾔｰ1
100
AcDbLine
 10
348.2488072709999
 20
166.4025065104
 30
0.0
 11
348.2488072709999
 21
169.4025065104
 31
0.0
  0
LINE
  5
20B
330
1C9
100
AcDbEntity
  8
ﾚｲﾔｰ1
100
AcDbLine
 10
366.0772343956999
 20
166.4025065104
 30
0.0
 11
366.0772343956999
 21
169.4025065104
 31
0.0
  0
LINE
  5
20C
330
1C9
100
AcDbEntity
  8
ﾚｲﾔｰ1
100
AcDbLine
 10
338.4130208333
 20
165.6052734374999
 30
0.0
 11
375.9130208333
 21
165.6052734374999
 31
0.0
  0
LINE
  5
20D
330
1C9
100
AcDbEntity
  8
ﾚｲﾔｰ1
100
AcDbLine
 10
333.4130208333
 20
170.6052734374999
 30
0.0
 11
333.4130208333
 21
213.0552734375
 31
0.0
  0
LINE
  5
20E
330
1C9
100
AcDbEntity
  8
ﾚｲﾔｰ1
100
AcDbLine
 10
364.8630208333
 20
169.4025065104
 30
0.0
 11
349.4630198219
 21
169.4025065104
 31
0.0
  0
LINE
  5
20F
330
1C9
100
AcDbEntity
  8
ﾚｲﾔｰ1
100
AcDbLine
 10
364.6630208333
 20
172.6025065104
 30
0.0
 11
349.6630206837
 21
172.6025065104
 31
0.0
  0
ENDBLK
  5
210
330
1C9
100
AcDbEntity
  8
0
100
AcDbBlockEnd
  0
ENDSEC
  0
SECTION
  2
ENTITIES
  0
LINE
  5
28
330
A
100
AcDbEntity
  8
ﾚｲﾔｰ1
100
AcDbLine
 10
161.1165524056
 20
276.1842970313999
 30
0.0
 11
161.1165524056
 21
294.5842970314
 31
0.0
  0
LINE
  5
29
330
A
100
AcDbEntity
  8
ﾚｲﾔｰ1
100
AcDbLine
 10
159.1165524056
 20
274.8842970313999
 30
0.0
 11
159.1165524056
 21
295.8842970313999
 31
0.0
  0
LINE
  5
2A
330
A
100
AcDbEntity
  8
ﾚｲﾔｰ1
100
AcDbLine
 10
128.1165524056
 20
276.8842940782
 30
0.0
 11
120.7768064436
 21
276.8842940782
 31
0.0
  0
LINE
  5
2B
330
A
100
AcDbEntity
  8
ﾚｲﾔｰ1
100
AcDbLine
 10
128.1165524056
 20
281.0842940781999
 30
0.0
 11
144.6862868008
 21
281.0842940781999
 31
0.0
  0
LINE
  5
2C
330
A
100
AcDbEntity
  8
ﾚｲﾔｰ1
100
AcDbLine
 10
128.1165524056
 20
290.6842940781999
 30
0.0
 11
141.8862868008
 21
290.6842940781999
 31
0.0
  0
LINE
  5
2D
330
A
100
AcDbEntity
  8
ﾚｲﾔｰ1
100
AcDbLine
 10
101.1165524056
 20
274.8842940782
 30
0.0
 11
101.1165524056
 21
287.2842940781999
 31
0.0
  0
LINE
  5
2E
330
A
100
AcDbEntity
  8
ﾚｲﾔｰ1
100
AcDbLine
 10
112.1165524055999
 20
271.8842940777999
 30
0.0
 11
103.1165524055999
 21
271.8842940782
 31
0.0
  0
LINE
  5
2F
330
A
100
AcDbEntity
  8
ﾚｲﾔｰ1
100
AcDbLine
 10
103.1165524055999
 20
271.8842940782
 30
0.0
 11
103.1165524055999
 21
274.8842940782
 31
0.0
  0
LINE
  5
30
330
A
100
AcDbEntity
  8
ﾚｲﾔｰ1
100
AcDbLine
 10
101.1165524056
 20
295.8842940782
 30
0.0
 11
101.1165524056
 21
283.4842940777999
 31
0.0
  0
LINE
  5
31
330
A
100
AcDbEntity
  8
ﾚｲﾔｰ1
100
AcDbLine
 10
147.8481654512
 20
272.3842940782
 30
0.0
 11
151.1981654511999
 21
272.3842940778
 31
0.0
  0
LINE
  5
32
330
A
100
AcDbEntity
  8
ﾚｲﾔｰ1
100
AcDbLine
 10
143.1165524056
 20
285.3842940782
 30
0.0
 11
147.8481654512
 21
272.3842940782
 31
0.0
  0
LINE
  5
33
330
A
100
AcDbEntity
  8
ﾚｲﾔｰ1
100
AcDbLine
 10
168.4502604166999
 20
163.09140625
 30
0.0
 11
118.4502604167
 21
163.09140625
 31
0.0
  0
LINE
  5
34
330
A
100
AcDbEntity
  8
ﾚｲﾔｰ1
100
AcDbLine
 10
103.1165524055999
 20
289.9842940777999
 30
0.0
 11
103.1165524055999
 21
274.8842940782
 31
0.0
  0
LINE
  5
35
330
A
100
AcDbEntity
  8
ﾚｲﾔｰ1
  6
BORDER
 62
     3
100
AcDbLine
 10
177.6965524056
 20
285.3842940782
 30
0.0
 11
95.01655240519999
 21
285.3842940782
 31
0.0
  0
LINE
  5
36
330
A
100
AcDbEntity
  8
ﾚｲﾔｰ1
100
AcDbLine
 10
167.2165524056
 20
276.1842817725999
 30
0.0
 11
161.1165524056
 21
276.1842970313999
 31
0.0
  0
ARC
  5
37
330
A
100
AcDbEntity
  8
ﾚｲﾔｰ1
100
AcDbCircle
 10
164.7165524055999
 20
278.4842817725999
 30
0.0
 40
3.399999999999999
100
AcDbArc
 50
317.3000000178999
 51
42.70000002909999
  0
ARC
  5
38
330
A
100
AcDbEntity
  8
ﾚｲﾔｰ1
100
AcDbCircle
 10
155.9165524055999
 20
285.3842817726
 30
0.0
 40
12.19999999999999
100
AcDbArc
 50
337.9000000206
 51
22.1000000264
  0
LINE
  5
39
330
A
100
AcDbEntity
  8
ﾚｲﾔｰ1
100
AcDbLine
 10
161.1165524056
 20
274.8842970313999
 30
0.0
 11
159.1165524056
 21
274.8842970313999
 31
0.0
  0
LINE
  5
3A
330
A
100
AcDbEntity
  8
ﾚｲﾔｰ1
100
AcDbLine
 10
161.1165524056
 20
295.8842970313999
 30
0.0
 11
161.1165524056
 21
274.8842970313999
 31
0.0
  0
LINE
  5
3B
330
A
100
AcDbEntity
  8
ﾚｲﾔｰ1
100
AcDbLine
 10
168.1165524056
 20
278.4842817725999
 30
0.0
 11
168.1165524056
 21
292.2842817725999
 31
0.0
  0
LINE
  5
3C
330
A
100
AcDbEntity
  8
ﾚｲﾔｰ1
100
AcDbLine
 10
161.1165524056
 20
280.7842970314
 30
0.0
 11
167.2165524056
 21
280.7842817725999
 31
0.0
  0
LINE
  5
3D
330
A
100
AcDbEntity
  8
ﾚｲﾔｰ1
100
AcDbLine
 10
122.1165524055999
 20
293.8842940782
 30
0.0
 11
128.1165524056
 21
293.8842940782
 31
0.0
  0
LINE
  5
3E
330
A
100
AcDbEntity
  8
ﾚｲﾔｰ1
100
AcDbLine
 10
128.1165524056
 20
293.8842940782
 30
0.0
 11
128.1165524056
 21
276.8842940782
 31
0.0
  0
LINE
  5
3F
330
A
100
AcDbEntity
  8
ﾚｲﾔｰ1
100
AcDbLine
 10
142.89783373
 20
285.6882193445999
 30
0.0
 11
141.8862868008
 21
288.4674216913999
 31
0.0
  0
LINE
  5
40
330
A
100
AcDbEntity
  8
ﾚｲﾔｰ1
100
AcDbLine
 10
103.1165524055999
 20
289.9842940781999
 30
0.0
 11
103.1165524055999
 21
290.3985797922
 31
0.0
  0
LINE
  5
41
330
A
100
AcDbEntity
  8
ﾚｲﾔｰ1
100
AcDbLine
 10
101.7924144744
 20
295.8842940782
 30
0.0
 11
101.1165524056
 21
295.8842940782
 31
0.0
  0
LINE
  5
42
330
A
100
AcDbEntity
  8
ﾚｲﾔｰ1
100
AcDbLine
 10
103.1165524055999
 20
274.8842940782
 30
0.0
 11
101.1165524056
 21
274.8842940782
 31
0.0
  0
LINE
  5
43
330
A
100
AcDbEntity
  8
ﾚｲﾔｰ1
100
AcDbLine
 10
156.1165524056
 20
285.3842970313999
 30
0.0
 11
171.6165524056
 21
285.3842817726
 31
0.0
  0
LINE
  5
44
330
A
100
AcDbEntity
  8
ﾚｲﾔｰ1
100
AcDbLine
 10
128.1165524056
 20
276.8842940782
 30
0.0
 11
128.1165524056
 21
293.8842940782
 31
0.0
  0
LINE
  5
45
330
A
100
AcDbEntity
  8
ﾚｲﾔｰ1
100
AcDbLine
 10
159.1165524056
 20
295.8842970313999
 30
0.0
 11
161.1165524056
 21
295.8842970313999
 31
0.0
  0
LINE
  5
46
330
A
100
AcDbEntity
  8
ﾚｲﾔｰ1
100
AcDbLine
 10
128.1165524056
 20
289.6842940781999
 30
0.0
 11
141.8862868008
 21
289.6842940781999
 31
0.0
  0
ARC
  5
47
330
A
100
AcDbEntity
  8
ﾚｲﾔｰ1
100
AcDbCircle
 10
151.1386119372
 20
280.2842940777999
 30
0.0
 40
8.0
100
AcDbArc
 50
270.0000000118
 51
0.0000000235
  0
ARC
  5
48
330
A
100
AcDbEntity
  8
ﾚｲﾔｰ1
100
AcDbCircle
 10
112.1165524055999
 20
281.8842940777999
 30
0.0
 40
10.0
100
AcDbArc
 50
270.0000000118
 51
0.0000000235
  0
LINE
  5
49
330
A
100
AcDbEntity
  8
ﾚｲﾔｰ1
100
AcDbLine
 10
118.4502604167
 20
163.09140625
 30
0.0
 11
118.4502604167
 21
145.99140625
 31
0.0
  0
LINE
  5
4A
330
A
100
AcDbEntity
  8
ﾚｲﾔｰ1
100
AcDbLine
 10
118.4502604167
 20
143.69140625
 30
0.0
 11
118.4502604167
 21
165.3914062499999
 31
0.0
  0
LINE
  5
4B
330
A
100
AcDbEntity
  8
ﾚｲﾔｰ1
100
AcDbLine
 10
168.4502604166999
 20
143.69140625
 30
0.0
 11
118.4502604167
 21
143.69140625
 31
0.0
  0
ARC
  5
4C
330
A
100
AcDbEntity
  8
ﾚｲﾔｰ1
100
AcDbCircle
 10
164.7165524055999
 20
292.2842817725999
 30
0.0
 40
3.399999999999999
100
AcDbArc
 50
317.3000000178999
 51
42.70000002909999
  0
LINE
  5
4D
330
A
100
AcDbEntity
  8
ﾚｲﾔｰ1
  6
BORDER
 62
     3
100
AcDbLine
 10
176.3814590403
 20
154.5414062499999
 30
0.0
 11
110.5190617931
 21
154.5414062499999
 31
0.0
  0
LINE
  5
4E
330
A
100
AcDbEntity
  8
ﾚｲﾔｰ1
  6
BORDER
 62
     3
100
AcDbLine
 10
77.6361979167
 20
168.636344401
 30
0.0
 11
77.6361979167
 21
140.4464680989999
 31
0.0
  0
LINE
  5
4F
330
A
100
AcDbEntity
  8
ﾚｲﾔｰ1
  6
BORDER
 62
     3
100
AcDbLine
 10
94.10179722850001
 20
154.5414062499999
 30
0.0
 11
61.1705986049
 21
154.5414062499999
 31
0.0
  0
CIRCLE
  5
50
330
A
100
AcDbEntity
  8
ﾚｲﾔｰ1
100
AcDbCircle
 10
77.6361979167
 20
154.5414062499999
 30
0.0
 40
8.0
  0
CIRCLE
  5
51
330
A
100
AcDbEntity
  8
ﾚｲﾔｰ1
100
AcDbCircle
 10
77.6361979167
 20
154.5414062499999
 30
0.0
 40
10.84999999999999
  0
LINE
  5
52
330
A
100
AcDbEntity
  8
ﾚｲﾔｰ1
100
AcDbLine
 10
161.1165524056
 20
289.9842970313999
 30
0.0
 11
167.2165524056
 21
289.9842817725999
 31
0.0
  0
LINE
  5
53
330
A
100
AcDbEntity
  8
ﾚｲﾔｰ1
100
AcDbLine
 10
161.1165524056
 20
294.5842970314
 30
0.0
 11
167.2165524056
 21
294.5842817725999
 31
0.0
  0
LINE
  5
54
330
A
100
AcDbEntity
  8
ﾚｲﾔｰ1
  6
BORDER
 62
     3
100
AcDbLine
 10
95.5821517174
 20
347.4342940777999
 30
0.0
 11
62.6509530938
 21
347.4342940777999
 31
0.0
  0
CIRCLE
  5
55
330
A
100
AcDbEntity
  8
ﾚｲﾔｰ1
100
AcDbCircle
 10
144.1178534944
 20
351.8480916998
 30
0.0
 40
5.25
  0
LINE
  5
56
330
A
100
AcDbEntity
  8
ﾚｲﾔｰ1
100
AcDbLine
 10
103.2165524055999
 20
289.9842940777999
 30
0.0
 11
101.1165524056
 21
298.6842940781999
 31
0.0
  0
ARC
  5
57
330
A
100
AcDbEntity
  8
ﾚｲﾔｰ1
100
AcDbCircle
 10
169.1165524056
 20
302.1318877454
 30
0.0
 40
10.0
100
AcDbArc
 50
153.7718338896
 51
180.0
  0
ARC
  5
58
330
A
100
AcDbEntity
  8
ﾚｲﾔｰ1
100
AcDbCircle
 10
132.06875
 20
320.3842940782
 30
0.0
 40
27.3
100
AcDbArc
 50
291.0766601474999
 51
48.88724192390001
  0
LINE
  5
59
330
A
100
AcDbEntity
  8
ﾚｲﾔｰ1
100
AcDbLine
 10
366.1931639941
 20
69.0357773325
 30
0.0
 11
366.1931639941
 21
84.36009316720001
 31
0.0
  0
LINE
  5
5A
330
A
100
AcDbEntity
  8
ﾚｲﾔｰ1
100
AcDbLine
 10
409.9495344223
 20
69.0359305622
 30
0.0
 11
409.9495344223
 21
84.3602463969
 31
0.0
  0
LINE
  5
5B
330
A
100
AcDbEntity
  8
ﾚｲﾔｰ1
100
AcDbLine
 10
547.4989583333
 20
69.0360824686
 30
0.0
 11
347.1869211036
 21
69.035742613
 31
0.0
  0
LINE
  5
5C
330
A
100
AcDbEntity
  8
ﾚｲﾔｰ1
100
AcDbLine
 10
464.3900743304
 20
69.036039681
 30
0.0
 11
464.3900743304
 21
84.36035551569998
 31
0.0
  0
LINE
  5
5D
330
A
100
AcDbEntity
  8
ﾚｲﾔｰ1
100
AcDbLine
 10
356.1304903201
 20
69.0357589506
 30
0.0
 11
356.1304903201
 21
51.84306889689999
 31
0.0
  0
LINE
  5
5E
330
A
100
AcDbEntity
  8
ﾚｲﾔｰ1
100
AcDbLine
 10
347.1869211036
 20
84.3602463969
 30
0.0
 11
547.4989583333
 21
84.3602463969
 31
0.0
  0
LINE
  5
5F
330
A
100
AcDbEntity
  8
ﾚｲﾔｰ1
100
AcDbLine
 10
452.7210378582
 20
34.0453741615
 30
0.0
 11
452.7210378582
 21
51.9325125944
 31
0.0
  0
LINE
  5
60
330
A
100
AcDbEntity
  8
ﾚｲﾔｰ1
100
AcDbLine
 10
443.7774686416
 20
51.9325125944
 30
0.0
 11
443.7774686416
 21
34.0453741615
 31
0.0
  0
LINE
  5
61
330
A
100
AcDbEntity
  8
ﾚｲﾔｰ1
100
AcDbLine
 10
347.1869211036
 20
34.0453741615
 30
0.0
 11
347.1869211036
 21
84.3602463969
 31
0.0
  0
ARC
  5
62
330
A
100
AcDbEntity
  8
ﾚｲﾔｰ1
100
AcDbCircle
 10
93.11655240559998
 20
347.3842940782
 30
0.0
 40
8.0
100
AcDbArc
 50
283.7390351854999
 51
76.2609648615
  0
DIMENSION
  5
75
330
A
100
AcDbEntity
  8
寸法線
 62
     3
100
AcDbDimension
  2
*D0
 10
188.4502604166999
 20
143.6052734374999
 30
0.0
 11
188.4502604166999
 21
154.4983398437
 31
0.0
 70
   128
  1
%%c21.7
 71
     5
 42
-1.0
  3
VELDIM0
100
AcDbAlignedDimension
 13
168.4502604166999
 23
143.6052734374999
 33
0.0
 14
168.4502604166999
 24
165.3914062499999
 34
0.0
 50
90.0
100
AcDbRotatedDimension
  0
DIMENSION
  5
86
330
A
100
AcDbEntity
  8
寸法線
 62
     3
100
AcDbDimension
  2
*D1
 10
118.4502604167
 20
123.6052734375
 30
0.0
 11
143.4502604166999
 21
123.6052734375
 31
0.0
 70
   128
  1
<>
 71
     5
 42
-1.0
  3
VELDIM0
100
AcDbAlignedDimension
 13
118.4502604167
 23
143.6052734374999
 33
0.0
 14
168.4502604166999
 24
143.6052734374999
 34
0.0
 50
180.0
100
AcDbRotatedDimension
  0
LINE
  5
87
330
A
100
AcDbEntity
  8
ﾚｲﾔｰ1
100
AcDbLine
 10
128.1165524056
 20
280.3842940782
 30
0.0
 11
144.9364035768
 21
280.3842940782
 31
0.0
  0
LINE
  5
88
330
A
100
AcDbEntity
  8
ﾚｲﾔｰ1
100
AcDbLine
 10
122.1165524055999
 20
293.1842940781999
 30
0.0
 11
122.1165524055999
 21
281.8842940777999
 31
0.0
  0
LINE
  5
89
330
A
100
AcDbEntity
  8
ﾚｲﾔｰ1
100
AcDbLine
 10
118.4502604167
 20
145.99140625
 30
0.0
 11
168.4502604166999
 21
145.99140625
 31
0.0
  0
LINE
  5
8A
330
A
100
AcDbEntity
  8
ﾚｲﾔｰ1
100
AcDbLine
 10
168.4502604166999
 20
145.99140625
 30
0.0
 11
168.4502604166999
 21
163.09140625
 31
0.0
  0
LINE
  5
8B
330
A
100
AcDbEntity
  8
ﾚｲﾔｰ1
100
AcDbLine
 10
168.4502604166999
 20
165.3914062499999
 30
0.0
 11
168.4502604166999
 21
143.69140625
 31
0.0
  0
LINE
  5
8C
330
A
100
AcDbEntity
  8
ﾚｲﾔｰ1
100
AcDbLine
 10
118.4502604167
 20
165.3914062499999
 30
0.0
 11
168.4502604166999
 21
165.3914062499999
 31
0.0
  0
LINE
  5
8D
330
A
100
AcDbEntity
  8
ﾚｲﾔｰ1
100
AcDbLine
 10
257.1630208333
 20
151.6052734374999
 30
0.0
 11
257.1630208333
 21
135.6052734374999
 31
0.0
  0
MTEXT
  5
8E
330
A
100
AcDbEntity
  8
ﾚｲﾔｰ1
100
AcDbMText
 10
86.9216796875
 20
104.0248247352999
 30
0.0
 40
7.1966662884
 41
94.61452799479999
 71
     1
 72
     1
  1
\W0.8;\fＭＳ Ｐゴシック;\W1.0;Ｔ型蝶番用支点金具
 73
     1
 44
1.0
  0
LINE
  5
8F
330
A
100
AcDbEntity
  8
ﾚｲﾔｰ1
100
AcDbLine
 10
547.4989583333
 20
51.9325125944
 30
0.0
 11
347.1869211036
 21
51.9325125944
 31
0.0
  0
LINE
  5
90
330
A
100
AcDbEntity
  8
ﾚｲﾔｰ1
100
AcDbLine
 10
-1.5996527778
 20
34.0453741615
 30
0.0
 11
547.4989583333
 21
34.0453741615
 31
0.0
  0
LINE
  5
91
330
A
100
AcDbEntity
  8
ﾚｲﾔｰ1
100
AcDbLine
 10
547.4989583333
 20
34.0453741615
 30
0.0
 11
547.4989583333
 21
411.071875
 31
0.0
  0
LINE
  5
92
330
A
100
AcDbEntity
  8
ﾚｲﾔｰ1
100
AcDbLine
 10
429.8937912087
 20
69.0359669952
 30
0.0
 11
429.8937912087
 21
84.36028282989999
 31
0.0
  0
LINE
  5
93
330
A
100
AcDbEntity
  8
ﾚｲﾔｰ1
100
AcDbLine
 10
108.1165524055999
 20
355.3842940782
 30
0.0
 11
121.1165524055999
 21
355.3842940782
 31
0.0
  0
LINE
  5
94
330
A
100
AcDbEntity
  8
ﾚｲﾔｰ1
100
AcDbLine
 10
101.1165524056
 20
341.9215281206
 30
0.0
 11
101.1165524056
 21
349.2842940777999
 31
0.0
  0
ARC
  5
95
330
A
100
AcDbEntity
  8
ﾚｲﾔｰ1
100
AcDbCircle
 10
108.1165524055999
 20
348.3842940782
 30
0.0
 40
7.0
100
AcDbArc
 50
90.00000003530001
 51
180.0
  0
LINE
  5
96
330
A
100
AcDbEntity
  8
ﾚｲﾔｰ1
100
AcDbLine
 10
141.8862868008
 20
298.1557995006
 30
0.0
 11
141.8862868008
 21
288.4674216913999
 31
0.0
  0
CIRCLE
  5
97
330
A
100
AcDbEntity
  8
ﾚｲﾔｰ1
100
AcDbCircle
 10
132.06875
 20
320.3842940782
 30
0.0
 40
24.3
  0
ARC
  5
98
330
A
100
AcDbEntity
  8
ﾚｲﾔｰ1
100
AcDbCircle
 10
132.06875
 20
320.3842940782
 30
0.0
 40
24.3
100
AcDbArc
 50
293.8293453078999
 51
64.972179482
  0
LINE
  5
99
330
A
100
AcDbEntity
  8
ﾚｲﾔｰ1
100
AcDbLine
 10
101.1165524056
 20
313.4215281206
 30
0.0
 11
101.1165524056
 21
341.9215281206
 31
0.0
  0
LINE
  5
9A
330
A
100
AcDbEntity
  8
ﾚｲﾔｰ1
  6
BORDER
 62
     3
100
AcDbLine
 10
79.1165524056
 20
361.5292322289
 30
0.0
 11
79.1165524056
 21
333.3393559267999
 31
0.0
  0
LINE
  5
9B
330
A
100
AcDbEntity
  8
ﾚｲﾔｰ1
100
AcDbLine
 10
381.1630208333
 20
296.9933353664
 30
0.0
 11
376.1630208333
 21
296.9933353664
 31
0.0
  0
ARC
  5
9C
330
A
100
AcDbEntity
  8
ﾚｲﾔｰ1
100
AcDbCircle
 10
144.1178534944
 20
351.8480916998
 30
0.0
 40
9.0
100
AcDbArc
 50
257.7943023812
 51
43.45962374119999
  0
ARC
  5
9D
330
A
100
AcDbEntity
  8
ﾚｲﾔｰ1
100
AcDbCircle
 10
93.11655240559998
 20
347.3842940782
 30
0.0
 40
8.0
100
AcDbArc
 50
267.8514835885
 51
283.7390351854999
  0
LINE
  5
9E
330
A
100
AcDbEntity
  8
ﾚｲﾔｰ1
100
AcDbLine
 10
159.1165524056
 20
278.3842940778
 30
0.0
 11
159.1165524056
 21
303.1071225014
 31
0.0
  0
CIRCLE
  5
9F
330
A
100
AcDbEntity
  8
ﾚｲﾔｰ1
100
AcDbCircle
 10
79.1165524056
 20
347.4342940777999
 30
0.0
 40
8.0
  0
LINE
  5
A0
330
A
100
AcDbEntity
  8
ﾚｲﾔｰ1
100
AcDbLine
 10
101.1165524056
 20
298.5842940782
 30
0.0
 11
101.1165524056
 21
313.4215281206
 31
0.0
  0
ARC
  5
A1
330
A
100
AcDbEntity
  8
ﾚｲﾔｰ1
100
AcDbCircle
 10
132.06875
 20
320.3842940782
 30
0.0
 40
24.3
100
AcDbArc
 50
180.0
 51
235.6821687142999
  0
ARC
  5
A2
330
A
100
AcDbEntity
  8
ﾚｲﾔｰ1
100
AcDbCircle
 10
132.06875
 20
320.3842940782
 30
0.0
 40
31.3
100
AcDbArc
 50
333.0078762009999
 51
53.69156943050001
  0
LINE
  5
A3
330
A
100
AcDbEntity
  8
ﾚｲﾔｰ1
  6
BORDER
 62
     3
100
AcDbLine
 10
153.1178534944
 20
351.8480916998
 30
0.0
 11
135.1178534944
 21
351.8480916998
 31
0.0
  0
LINE
  5
A4
330
A
100
AcDbEntity
  8
ﾚｲﾔｰ1
  6
BORDER
 62
     3
100
AcDbLine
 10
144.1178534944
 20
342.8480916998
 30
0.0
 11
144.1178534944
 21
360.8480916998
 31
0.0
  0
LINE
  5
A5
330
A
100
AcDbEntity
  8
ﾚｲﾔｰ1
  6
BORDER
 62
     3
100
AcDbLine
 10
156.36875
 20
320.3842940782
 30
0.0
 11
107.7687499999999
 21
320.3842940782
 31
0.0
  0
LINE
  5
A6
330
A
100
AcDbEntity
  8
ﾚｲﾔｰ1
  6
BORDER
 62
     3
100
AcDbLine
 10
132.06875
 20
296.0842940782
 30
0.0
 11
132.06875
 21
344.6842940781999
 31
0.0
  0
LINE
  5
A7
330
A
100
AcDbEntity
  8
ﾚｲﾔｰ1
100
AcDbLine
 10
137.2063044047999
 20
344.1349895357999
 30
0.0
 11
142.2150555668
 21
343.0515378266
 31
0.0
  0
LINE
  5
A8
330
A
100
AcDbEntity
  8
ﾚｲﾔｰ1
100
AcDbLine
 10
150.3994632488
 20
340.6148390977999
 30
0.0
 11
142.0994632487999
 21
342.9148390977999
 31
0.0
  0
LINE
  5
A9
330
A
100
AcDbEntity
  8
ﾚｲﾔｰ1
100
AcDbLine
 10
122.1165524055999
 20
300.1842940781999
 30
0.0
 11
122.1165524055999
 21
300.0842940777999
 31
0.0
  0
CIRCLE
  5
AA
330
A
100
AcDbEntity
  8
ﾚｲﾔｰ1
100
AcDbCircle
 10
357.1630208333
 20
284.221829944
 30
0.0
 40
8.876760388799999
  0
LINE
  5
AB
330
A
100
AcDbEntity
  8
ﾚｲﾔｰ1
100
AcDbLine
 10
78.61655240560001
 20
339.4342940777999
 30
0.0
 11
93.02017385840001
 21
339.3842940778
 31
0.0
  0
LINE
  5
AC
330
A
100
AcDbEntity
  8
ﾚｲﾔｰ1
100
AcDbLine
 10
79.1165524056
 20
339.4342940777999
 30
0.0
 11
93.52017385839999
 21
339.3842940778
 31
0.0
  0
LINE
  5
AD
330
A
100
AcDbEntity
  8
ﾚｲﾔｰ1
100
AcDbLine
 10
144.1165524056
 20
366.1093702154
 30
0.0
 11
150.6608681395999
 21
358.0278133241999
 31
0.0
  0
LINE
  5
AE
330
A
100
AcDbEntity
  8
ﾚｲﾔｰ1
100
AcDbLine
 10
352.1630208333
 20
296.971829944
 30
0.0
 11
352.1630208333
 21
328.8468442904999
 31
0.0
  0
ARC
  5
AF
330
A
100
AcDbEntity
  8
ﾚｲﾔｰ1
100
AcDbCircle
 10
354.1630208333
 20
296.971829944
 30
0.0
 40
2.0
100
AcDbArc
 50
180.0
 51
270.0
  0
LINE
  5
B0
330
A
100
AcDbEntity
  8
ﾚｲﾔｰ1
100
AcDbLine
 10
362.1630208333
 20
296.971829944
 30
0.0
 11
362.1630208333
 21
328.8468442904999
 31
0.0
  0
LINE
  5
B1
330
A
100
AcDbEntity
  8
ﾚｲﾔｰ1
100
AcDbLine
 10
360.1630208333
 20
294.971829944
 30
0.0
 11
354.1630208333
 21
294.971829944
 31
0.0
  0
ARC
  5
B2
330
A
100
AcDbEntity
  8
ﾚｲﾔｰ1
100
AcDbCircle
 10
-360.1630208333
 20
296.971829944
 30
0.0
 40
2.0
210
0.0
220
0.0
230
-1.0
100
AcDbArc
 50
180.0
 51
270.0
  0
LINE
  5
B3
330
A
100
AcDbEntity
  8
ﾚｲﾔｰ1
100
AcDbLine
 10
333.1630208333
 20
296.9933353664
 30
0.0
 11
338.1630208333
 21
296.9933353664
 31
0.0
  0
ARC
  5
B4
330
A
100
AcDbEntity
  8
ﾚｲﾔｰ1
100
AcDbCircle
 10
-338.1630208333
 20
294.9933353664
 30
0.0
 40
2.0
210
0.0
220
0.0
230
-1.0
100
AcDbArc
 50
90.0
 51
180.0
  0
LINE
  5
B5
330
A
100
AcDbEntity
  8
ﾚｲﾔｰ1
100
AcDbLine
 10
339.5772343956999
 20
296.4075489288
 30
0.0
 11
346.4130208333
 21
284.221829944
 31
0.0
  0
ARC
  5
B6
330
A
100
AcDbEntity
  8
ﾚｲﾔｰ1
100
AcDbCircle
 10
132.06875
 20
320.3842940782
 30
0.0
 40
24.3
100
AcDbArc
 50
77.59821159260001
 51
180.0
  0
LINE
  5
B7
330
A
100
AcDbEntity
  8
ﾚｲﾔｰ1
100
AcDbLine
 10
121.1165524055999
 20
355.3842940782
 30
0.0
 11
144.1165524056
 21
366.1093702154
 31
0.0
  0
ARC
  5
B8
330
A
100
AcDbEntity
  8
ﾚｲﾔｰ1
100
AcDbCircle
 10
376.1630208333
 20
294.9933353664
 30
0.0
 40
2.0
100
AcDbArc
 50
90.0
 51
180.0
  0
LINE
  5
B9
330
A
100
AcDbEntity
  8
ﾚｲﾔｰ1
100
AcDbLine
 10
333.1630208333
 20
296.9933353664
 30
0.0
 11
333.1630208333
 21
359.9469060812
 31
0.0
  0
ARC
  5
BA
330
A
100
AcDbEntity
  8
ﾚｲﾔｰ1
100
AcDbCircle
 10
-338.1630208333
 20
330.0481165054
 30
0.0
 40
2.0
210
0.0
220
0.0
230
-1.0
100
AcDbArc
 50
136.4600332105999
 51
180.0
  0
LINE
  5
BB
330
A
100
AcDbEntity
  8
ﾚｲﾔｰ1
100
AcDbLine
 10
339.6128088961999
 20
331.4258372946
 30
0.0
 11
335.0130208333
 21
336.266235928
 31
0.0
  0
ARC
  5
BC
330
A
100
AcDbEntity
  8
ﾚｲﾔｰ1
100
AcDbCircle
 10
376.1630208333
 20
330.0481165054
 30
0.0
 40
2.0
100
AcDbArc
 50
136.4600332105999
 51
180.0
  0
LINE
  5
BD
330
A
100
AcDbEntity
  8
ﾚｲﾔｰ1
100
AcDbLine
 10
79.1165524056
 20
355.4342940777999
 30
0.0
 11
93.61655240559999
 21
355.3842940782
 31
0.0
  0
ARC
  5
BE
330
A
100
AcDbEntity
  8
ﾚｲﾔｰ1
100
AcDbCircle
 10
93.11655240559998
 20
347.3842940782
 30
0.0
 40
8.0
100
AcDbArc
 50
76.2609648615
 51
93.55049786069999
  0
LINE
  5
BF
330
A
100
AcDbEntity
  8
ﾚｲﾔｰ1
100
AcDbLine
 10
78.61655240560001
 20
355.4342940777999
 30
0.0
 11
93.11655240559998
 21
355.3842940782
 31
0.0
  0
LINE
  5
C0
330
A
100
AcDbEntity
  8
ﾚｲﾔｰ1
  6
BORDER
 62
     3
100
AcDbLine
 10
390.1170462362
 20
350.6856275655999
 30
0.0
 11
324.2089954304
 21
350.6856275655999
 31
0.0
  0
LINE
  5
C1
330
A
100
AcDbEntity
  8
ﾚｲﾔｰ1
100
AcDbLine
 10
381.1630208333
 20
355.6856275656
 30
0.0
 11
381.1630208333
 21
345.6856275655999
 31
0.0
  0
LINE
  5
C2
330
A
100
AcDbEntity
  8
ﾚｲﾔｰ1
100
AcDbLine
 10
383.1630208333
 20
355.6856275656
 30
0.0
 11
381.1630208333
 21
355.6856275656
 31
0.0
  0
LINE
  5
C3
330
A
100
AcDbEntity
  8
ﾚｲﾔｰ1
100
AcDbLine
 10
383.1630208333
 20
345.6856275655999
 30
0.0
 11
383.1630208333
 21
355.6856275656
 31
0.0
  0
LINE
  5
C4
330
A
100
AcDbEntity
  8
ﾚｲﾔｰ1
100
AcDbLine
 10
381.1630208333
 20
345.6856275655999
 30
0.0
 11
383.1630208333
 21
345.6856275655999
 31
0.0
  0
LINE
  5
C5
330
A
100
AcDbEntity
  8
ﾚｲﾔｰ1
100
AcDbLine
 10
257.6893002749
 20
338.2718299436
 30
0.0
 11
257.6893002749
 21
354.2718299435999
 31
0.0
  0
LINE
  5
C6
330
A
100
AcDbEntity
  8
ﾚｲﾔｰ1
100
AcDbLine
 10
331.1630208333
 20
345.6856275655999
 30
0.0
 11
333.1630208333
 21
345.6856275655999
 31
0.0
  0
LINE
  5
C7
330
A
100
AcDbEntity
  8
ﾚｲﾔｰ1
100
AcDbLine
 10
333.1630208333
 20
345.6856275655999
 30
0.0
 11
333.1630208333
 21
355.6856275656
 31
0.0
  0
LINE
  5
C8
330
A
100
AcDbEntity
  8
ﾚｲﾔｰ1
100
AcDbLine
 10
333.1630208333
 20
355.6856275656
 30
0.0
 11
331.1630208333
 21
355.6856275656
 31
0.0
  0
LINE
  5
C9
330
A
100
AcDbEntity
  8
ﾚｲﾔｰ1
100
AcDbLine
 10
331.1630208333
 20
355.6856275656
 30
0.0
 11
331.1630208333
 21
345.6856275655999
 31
0.0
  0
LINE
  5
CA
330
A
100
AcDbEntity
  8
ﾚｲﾔｰ1
100
AcDbLine
 10
377.9630208332999
 20
340.2209271229999
 30
0.0
 11
377.9630208332999
 21
359.7469060812
 31
0.0
  0
LINE
  5
CB
330
A
100
AcDbEntity
  8
ﾚｲﾔｰ1
100
AcDbLine
 10
377.4630208332999
 20
341.6856275655999
 30
0.0
 11
377.4630208332999
 21
359.7469060812
 31
0.0
  0
LINE
  5
CC
330
A
100
AcDbEntity
  8
ﾚｲﾔｰ1
100
AcDbLine
 10
336.8630208333
 20
341.6856275655999
 30
0.0
 11
336.8630208333
 21
359.7469060812
 31
0.0
  0
ARC
  5
CD
330
A
100
AcDbEntity
  8
ﾚｲﾔｰ1
100
AcDbCircle
 10
112.1165524055999
 20
292.4844766745999
 30
0.0
 40
10.0
100
AcDbArc
 50
0.0000000235
 51
54.4300302446
  0
CIRCLE
  5
CE
330
A
100
AcDbEntity
  8
ﾚｲﾔｰ1
100
AcDbCircle
 10
357.1630208333
 20
284.221829944
 30
0.0
 40
7.5
  0
LINE
  5
CF
330
A
100
AcDbEntity
  8
ﾚｲﾔｰ1
100
AcDbLine
 10
457.1630208333
 20
151.6052734374999
 30
0.0
 11
457.1630208333
 21
135.6052734374999
 31
0.0
  0
LINE
  5
D0
330
A
100
AcDbEntity
  8
ﾚｲﾔｰ1
100
AcDbLine
 10
357.1630208333
 20
294.471829944
 30
0.0
 11
366.0397812220999
 21
289.346829944
 31
0.0
  0
LINE
  5
D1
330
A
100
AcDbEntity
  8
ﾚｲﾔｰ1
100
AcDbLine
 10
348.2862604444999
 20
289.346829944
 30
0.0
 11
357.1630208333
 21
294.471829944
 31
0.0
  0
LINE
  5
D2
330
A
100
AcDbEntity
  8
ﾚｲﾔｰ1
100
AcDbLine
 10
348.2862604444999
 20
279.096829944
 30
0.0
 11
348.2862604444999
 21
289.346829944
 31
0.0
  0
LINE
  5
D3
330
A
100
AcDbEntity
  8
ﾚｲﾔｰ1
100
AcDbLine
 10
381.1630208333
 20
341.6856275655999
 30
0.0
 11
377.9630208332999
 21
341.6856275655999
 31
0.0
  0
LINE
  5
D4
330
A
100
AcDbEntity
  8
ﾚｲﾔｰ1
100
AcDbLine
 10
336.3630208333
 20
341.6856275655999
 30
0.0
 11
333.1630208333
 21
341.6856275655999
 31
0.0
  0
ARC
  5
D5
330
A
100
AcDbEntity
  8
ﾚｲﾔｰ1
100
AcDbCircle
 10
338.1630208333
 20
359.9469060812
 30
0.0
 40
5.0
100
AcDbArc
 50
90.0
 51
180.0
  0
LINE
  5
D6
330
A
100
AcDbEntity
  8
ﾚｲﾔｰ1
100
AcDbLine
 10
376.1630208333
 20
364.9469060812
 30
0.0
 11
338.1630208333
 21
364.9469060812
 31
0.0
  0
ARC
  5
D7
330
A
100
AcDbEntity
  8
ﾚｲﾔｰ1
100
AcDbCircle
 10
-376.1630208333
 20
359.9469060812
 30
0.0
 40
5.0
210
0.0
220
0.0
230
-1.0
100
AcDbArc
 50
90.0
 51
180.0
  0
LINE
  5
D8
330
A
100
AcDbEntity
  8
ﾚｲﾔｰ1
  6
BORDER
 62
     3
100
AcDbLine
 10
466.4339506778
 20
346.2718299435999
 30
0.0
 11
247.8487630208
 21
346.2718299435999
 31
0.0
  0
LINE
  5
D9
330
A
100
AcDbEntity
  8
ﾚｲﾔｰ1
  6
BORDER
 62
     3
100
AcDbLine
 10
357.1630208333
 20
267.8336588541999
 30
0.0
 11
357.1630208333
 21
375.8726562499999
 31
0.0
  0
LINE
  5
DA
330
A
100
AcDbEntity
  8
ﾚｲﾔｰ1
  6
BORDER
 62
     3
100
AcDbLine
 10
369.0720647848
 20
284.221829944
 30
0.0
 11
345.2539768819
 21
284.221829944
 31
0.0
  0
LINE
  5
DB
330
A
100
AcDbEntity
  8
ﾚｲﾔｰ1
100
AcDbLine
 10
456.6367413916999
 20
338.2718299436
 30
0.0
 11
381.1630208333
 21
338.2718299436
 31
0.0
  0
LINE
  5
DC
330
A
100
AcDbEntity
  8
ﾚｲﾔｰ1
100
AcDbLine
 10
333.1630208333
 20
338.2718299436
 30
0.0
 11
257.6893002749
 21
338.2718299436
 31
0.0
  0
LINE
  5
DD
330
A
100
AcDbEntity
  8
ﾚｲﾔｰ1
100
AcDbLine
 10
457.6893002749
 20
354.2718299435999
 30
0.0
 11
383.1630208333
 21
354.2718299435999
 31
0.0
  0
LINE
  5
DE
330
A
100
AcDbEntity
  8
ﾚｲﾔｰ1
100
AcDbLine
 10
331.1630208333
 20
354.2718299435999
 30
0.0
 11
257.6893002749
 21
354.2718299435999
 31
0.0
  0
ARC
  5
DF
330
A
100
AcDbEntity
  8
ﾚｲﾔｰ1
100
AcDbCircle
 10
338.3630208333
 20
359.7469060812
 30
0.0
 40
2.0
100
AcDbArc
 50
90.0
 51
180.0
  0
LINE
  5
E0
330
A
100
AcDbEntity
  8
ﾚｲﾔｰ1
100
AcDbLine
 10
340.1630208333
 20
294.9933353664
 30
0.0
 11
340.1630208333
 21
330.0481165054
 31
0.0
  0
LINE
  5
E1
330
A
100
AcDbEntity
  8
ﾚｲﾔｰ1
100
AcDbLine
 10
374.1630208333
 20
294.9933353664
 30
0.0
 11
374.1630208333
 21
330.0481165054
 31
0.0
  0
LINE
  5
E2
330
A
100
AcDbEntity
  8
ﾚｲﾔｰ1
100
AcDbLine
 10
374.7488072709999
 20
296.4075489288
 30
0.0
 11
367.9130208333
 21
284.221829944
 31
0.0
  0
LINE
  5
E3
330
A
100
AcDbEntity
  8
ﾚｲﾔｰ1
100
AcDbLine
 10
334.3950716409
 20
165.6052734374999
 30
0.0
 11
379.9309700256999
 21
165.6052734374999
 31
0.0
  0
LINE
  5
E4
330
A
100
AcDbEntity
  8
ﾚｲﾔｰ1
100
AcDbLine
 10
375.9630208333
 20
361.7469060812
 30
0.0
 11
338.3630208333
 21
361.7469060812
 31
0.0
  0
ARC
  5
E5
330
A
100
AcDbEntity
  8
ﾚｲﾔｰ1
100
AcDbCircle
 10
-375.9630208333
 20
359.7469060812
 30
0.0
 40
2.0
210
0.0
220
0.0
230
-1.0
100
AcDbArc
 50
90.0
 51
180.0
  0
LINE
  5
E6
330
A
100
AcDbEntity
  8
ﾚｲﾔｰ1
100
AcDbLine
 10
377.4630208332999
 20
359.7469060812
 30
0.0
 11
336.8630208333
 21
359.7469060812
 31
0.0
  0
LINE
  5
E7
330
A
100
AcDbEntity
  8
ﾚｲﾔｰ1
100
AcDbLine
 10
381.1630208333
 20
296.9933353664
 30
0.0
 11
381.1630208333
 21
359.9469060812
 31
0.0
  0
LINE
  5
E8
330
A
100
AcDbEntity
  8
ﾚｲﾔｰ1
100
AcDbLine
 10
374.7132327705
 20
331.4258372946
 30
0.0
 11
379.3130208333
 21
336.266235928
 31
0.0
  0
ARC
  5
E9
330
A
100
AcDbEntity
  8
ﾚｲﾔｰ1
100
AcDbCircle
 10
-360.1630208333
 20
328.8468442904999
 30
0.0
 40
2.0
210
0.0
220
0.0
230
-1.0
100
AcDbArc
 50
90.0
 51
180.0
  0
LINE
  5
EA
330
A
100
AcDbEntity
  8
ﾚｲﾔｰ1
100
AcDbLine
 10
360.1630208333
 20
330.8468442904999
 30
0.0
 11
354.1630208333
 21
330.8468442904999
 31
0.0
  0
ARC
  5
EB
330
A
100
AcDbEntity
  8
ﾚｲﾔｰ1
100
AcDbCircle
 10
354.1630208333
 20
328.8468442904999
 30
0.0
 40
2.0
100
AcDbArc
 50
90.0
 51
180.0
  0
ARC
  5
EC
330
A
100
AcDbEntity
  8
ﾚｲﾔｰ1
100
AcDbCircle
 10
-365.7130023285
 20
126.6052734375
 30
0.0
 40
25.0
210
0.0
220
0.0
230
-1.0
100
AcDbArc
 50
90.00000002350001
 51
120.0000000273999
  0
ARC
  5
ED
330
A
100
AcDbEntity
  8
ﾚｲﾔｰ1
100
AcDbCircle
 10
-348.6130393380999
 20
126.6052734375
 30
0.0
 40
25.0
210
0.0
220
0.0
230
-1.0
100
AcDbArc
 50
60.0000000196
 51
90.00000002350001
  0
LINE
  5
EE
330
A
100
AcDbEntity
  8
ﾚｲﾔｰ1
100
AcDbLine
 10
336.1130393380999
 20
148.2559085319
 30
0.0
 11
320.0027667952999
 21
138.9546383427
 31
0.0
  0
LINE
  5
EF
330
A
100
AcDbEntity
  8
ﾚｲﾔｰ1
  6
BORDER
 62
     3
100
AcDbLine
 10
338.0496021611
 20
158.6052734374999
 30
0.0
 11
308.2448942379
 21
143.6052734374999
 31
0.0
  0
ARC
  5
F0
330
A
100
AcDbEntity
  8
ﾚｲﾔｰ1
100
AcDbCircle
 10
-408.1630208333
 20
165.6052734374999
 30
0.0
 40
30.0
210
0.0
220
0.0
230
-1.0
100
AcDbArc
 50
270.0
 51
300.0000000038999
  0
LINE
  5
F1
330
A
100
AcDbEntity
  8
ﾚｲﾔｰ1
100
AcDbLine
 10
408.1630208333
 20
135.6052734374999
 30
0.0
 11
457.1630208333
 21
135.6052734374999
 31
0.0
  0
LINE
  5
F2
330
A
100
AcDbEntity
  8
ﾚｲﾔｰ1
100
AcDbLine
 10
334.1630208333
 20
165.6052734374999
 30
0.0
 11
307.1630208333
 21
152.0168161695
 31
0.0
  0
LINE
  5
F3
330
A
100
AcDbEntity
  8
ﾚｲﾔｰ1
  6
BORDER
 62
     3
100
AcDbLine
 10
357.1630208333
 20
238.1660778355
 30
0.0
 11
357.1630208333
 21
146.9234654015
 31
0.0
  0
LINE
  5
F4
330
A
100
AcDbEntity
  8
ﾚｲﾔｰ1
100
AcDbLine
 10
378.2130023285
 20
148.2559085319
 30
0.0
 11
393.1630208333
 21
139.6245113238999
 31
0.0
  0
LINE
  5
F5
330
A
100
AcDbEntity
  8
ﾚｲﾔｰ1
100
AcDbLine
 10
348.6130393380999
 20
151.6052734374999
 30
0.0
 11
365.7130023285
 21
151.6052734374999
 31
0.0
  0
ARC
  5
F6
330
A
100
AcDbEntity
  8
ﾚｲﾔｰ1
100
AcDbCircle
 10
-411.6271224484999
 20
165.6052734374999
 30
0.0
 40
14.0
210
0.0
220
0.0
230
-1.0
100
AcDbArc
 50
270.0
 51
300.0000000038999
  0
LINE
  5
F7
330
A
100
AcDbEntity
  8
ﾚｲﾔｰ1
100
AcDbLine
 10
306.4502079121
 20
151.6052734374999
 30
0.0
 11
257.1630208333
 21
151.6052734374999
 31
0.0
  0
LINE
  5
F8
330
A
100
AcDbEntity
  8
ﾚｲﾔｰ1
100
AcDbLine
 10
336.3630208333
 20
340.2209271229999
 30
0.0
 11
336.3630208333
 21
359.7469060812
 31
0.0
  0
LINE
  5
F9
330
A
100
AcDbEntity
  8
ﾚｲﾔｰ1
100
AcDbLine
 10
381.1630208333
 20
330.8468442904999
 30
0.0
 11
377.4630208332999
 21
341.6856275655999
 31
0.0
  0
LINE
  5
FA
330
A
100
AcDbEntity
  8
ﾚｲﾔｰ1
100
AcDbLine
 10
336.8630208333
 20
341.6856275655999
 30
0.0
 11
333.1630208333
 21
330.8468442904999
 31
0.0
  0
LINE
  5
FB
330
A
100
AcDbEntity
  8
ﾚｲﾔｰ1
  6
BORDER
 62
     3
100
AcDbLine
 10
376.2716038915
 20
158.6052734374999
 30
0.0
 11
338.0496021611
 21
158.6052734374999
 31
0.0
  0
LINE
  5
FC
330
A
100
AcDbEntity
  8
ﾚｲﾔｰ1
  6
BORDER
 62
     3
100
AcDbLine
 10
376.2716038915
 20
158.6052734374999
 30
0.0
 11
406.5380802903
 21
143.6052734374999
 31
0.0
  0
LINE
  5
FD
330
A
100
AcDbEntity
  8
ﾚｲﾔｰ1
  6
BORDER
 62
     3
100
AcDbLine
 10
463.0062733546
 20
143.6052734374999
 30
0.0
 11
406.5380802903
 21
143.6052734374999
 31
0.0
  0
LINE
  5
FE
330
A
100
AcDbEntity
  8
ﾚｲﾔｰ1
  6
BORDER
 62
     3
100
AcDbLine
 10
308.2448942379
 20
143.6052734374999
 30
0.0
 11
251.2155832504
 21
143.6052734374999
 31
0.0
  0
ARC
  5
FF
330
A
100
AcDbEntity
  8
ﾚｲﾔｰ1
100
AcDbCircle
 10
-307.5027667952999
 20
160.6052734374999
 30
0.0
 40
25.0
210
0.0
220
0.0
230
-1.0
100
AcDbArc
 50
240.0000000431
 51
270.0
  0
LINE
  5
100
330
A
100
AcDbEntity
  8
ﾚｲﾔｰ1
100
AcDbLine
 10
307.5027667952999
 20
135.6052734374999
 30
0.0
 11
257.1630208333
 21
135.6052734374999
 31
0.0
  0
LINE
  5
101
330
A
100
AcDbEntity
  8
ﾚｲﾔｰ1
100
AcDbLine
 10
380.1630208333
 20
165.6052734374999
 30
0.0
 11
404.6271224484999
 21
153.4809177842999
 31
0.0
  0
LINE
  5
102
330
A
100
AcDbEntity
  8
ﾚｲﾔｰ1
100
AcDbLine
 10
411.6271224484999
 20
151.6052734374999
 30
0.0
 11
457.1630208333
 21
151.6052734374999
 31
0.0
  0
LINE
  5
103
330
A
100
AcDbEntity
  8
ﾚｲﾔｰ1
100
AcDbLine
 10
357.1630208333
 20
273.971829944
 30
0.0
 11
348.2862604444999
 21
279.096829944
 31
0.0
  0
LINE
  5
104
330
A
100
AcDbEntity
  8
ﾚｲﾔｰ1
100
AcDbLine
 10
366.0397812220999
 20
279.096829944
 30
0.0
 11
357.1630208333
 21
273.971829944
 31
0.0
  0
LINE
  5
105
330
A
100
AcDbEntity
  8
ﾚｲﾔｰ1
100
AcDbLine
 10
366.0397812220999
 20
289.346829944
 30
0.0
 11
366.0397812220999
 21
279.096829944
 31
0.0
  0
CIRCLE
  5
106
330
A
100
AcDbEntity
  8
ﾚｲﾔｰ1
100
AcDbCircle
 10
357.1630208333
 20
284.221829944
 30
0.0
 40
10.74999999999999
  0
LINE
  5
107
330
A
100
AcDbEntity
  8
ﾚｲﾔｰ1
100
AcDbLine
 10
547.4989583333
 20
411.071875
 30
0.0
 11
-1.5996527778
 21
411.071875
 31
0.0
  0
LINE
  5
108
330
A
100
AcDbEntity
  8
ﾚｲﾔｰ1
100
AcDbLine
 10
-1.5996527778
 20
411.071875
 30
0.0
 11
-1.5996527778
 21
34.0453741615
 31
0.0
  0
LINE
  5
109
330
A
100
AcDbEntity
  8
ﾚｲﾔｰ1
  6
BORDER
 62
     3
100
AcDbLine
 10
385.6776763271
 20
197.7552734374999
 30
0.0
 11
328.6483653396
 21
197.7552734374999
 31
0.0
  0
INSERT
  5
10B
330
A
100
AcDbEntity
  8
0
100
AcDbBlockReference
  2
CLUMP0
 10
0.0
 20
0.0
 30
0.0
  0
LINE
  5
112
330
A
100
AcDbEntity
  8
ﾚｲﾔｰ1
100
AcDbLine
 10
457.6893002749
 20
338.2718299436
 30
0.0
 11
457.6893002749
 21
354.2718299435999
 31
0.0
  0
DIMENSION
  5
123
330
A
100
AcDbEntity
  8
寸法線
 62
     3
100
AcDbDimension
  2
*D3
 10
231.2155832504
 20
158.6052734374999
 30
0.0
 11
231.2155832504
 21
151.1052734375
 31
0.0
 70
   128
  1
<>
 71
     5
 42
-1.0
  3
VELDIM0
100
AcDbAlignedDimension
 13
338.0496021611
 23
158.6052734374999
 33
0.0
 14
251.2155832504
 24
143.6052734374999
 34
0.0
 50
90.0
100
AcDbRotatedDimension
  0
DIMENSION
  5
134
330
A
100
AcDbEntity
  8
寸法線
 62
     3
100
AcDbDimension
  2
*D4
 10
498.6254575094
 20
132.7552734374999
 30
0.0
 11
498.6254575094
 21
165.2552734374999
 31
0.0
 70
   128
  1
<>
 71
     5
 42
-1.0
  3
VELDIM0
100
AcDbAlignedDimension
 13
457.1630208333
 23
132.7552734374999
 33
0.0
 14
385.6776763271
 24
197.7552734374999
 34
0.0
 50
90.0
100
AcDbRotatedDimension
  0
DIMENSION
  5
145
330
A
100
AcDbEntity
  8
寸法線
 62
     3
100
AcDbDimension
  2
*D5
 10
483.7591798147
 20
135.6052734374999
 30
0.0
 11
483.7591798147
 21
137.4173376082999
 31
0.0
 70
   128
  1
%%c<>
 71
     5
 42
-1.0
  3
VELDIM0
100
AcDbAlignedDimension
 13
457.1630208333
 23
135.6052734374999
 33
0.0
 14
457.1630208333
 24
151.6052734374999
 34
0.0
 50
90.0
100
AcDbRotatedDimension
  0
DIMENSION
  5
156
330
A
100
AcDbEntity
  8
寸法線
 62
     3
100
AcDbDimension
  2
*D6
 10
132.06875
 20
388.495057628
 30
0.0
 11
116.5926512028
 21
388.495057628
 31
0.0
 70
   128
  1
31
 71
     5
 42
-1.0
  3
VELDIM0
100
AcDbAlignedDimension
 13
132.06875
 23
344.6842940781999
 33
0.0
 14
101.1165524056
 24
348.3842940782
 34
0.0
100
AcDbRotatedDimension
  0
DIMENSION
  5
162
330
A
100
AcDbEntity
  8
0
 62
     3
100
AcDbDimension
  2
*D7
 10
153.1131673119999
 20
332.5342940781999
 30
0.0
 11
58.97876612920001
 21
289.1842948411999
 31
0.0
 70
   131
  1
%%c <>
 71
     5
 42
-1.0
  3
VELDIM1
100
AcDbDiametricDimension
 15
111.0243326879999
 25
308.2342940781999
 35
0.0
 40
0.0
  0
DIMENSION
  5
173
330
A
100
AcDbEntity
  8
寸法線
 62
     3
100
AcDbDimension
  2
*D8
 10
101.1165524056
 20
388.6106429552
 30
0.0
 11
86.11655240559999
 21
388.6106429552
 31
0.0
 70
   128
  1
<>
 71
     5
 42
-1.0
  3
VELDIM0
100
AcDbAlignedDimension
 13
101.1165524056
 23
348.3842940782
 33
0.0
 14
71.11655240560001
 24
347.4342940777999
 34
0.0
100
AcDbRotatedDimension
  0
DIMENSION
  5
184
330
A
100
AcDbEntity
  8
寸法線
 62
     3
100
AcDbDimension
  2
*D9
 10
222.6604595711
 20
271.8842940782
 30
0.0
 11
222.6604595711
 21
318.9968321468
 31
0.0
 70
   128
  1
93
 71
     5
 42
-1.0
  3
VELDIM0
100
AcDbAlignedDimension
 13
103.1165524055999
 23
271.8842940782
 33
0.0
 14
144.1165524056
 24
366.1093702154
 34
0.0
 50
90.0
100
AcDbRotatedDimension
  0
DIMENSION
  5
195
330
A
100
AcDbEntity
  8
寸法線
 62
     3
100
AcDbDimension
  2
*D10
 10
306.4502079121
 20
171.6052734374999
 30
0.0
 11
281.8066143727
 21
171.6052734374999
 31
0.0
 70
   128
  1
50
 71
     5
 42
-1.0
  3
VELDIM0
100
AcDbAlignedDimension
 13
306.4502079121
 23
151.6052734374999
 33
0.0
 14
257.1630208333
 24
151.6052734374999
 34
0.0
100
AcDbRotatedDimension
  0
DIMENSION
  5
1A6
330
A
100
AcDbEntity
  8
寸法線
 62
     3
100
AcDbDimension
  2
*D11
 10
457.1630208333
 20
171.6052734374999
 30
0.0
 11
434.3950716409
 21
171.6052734374999
 31
0.0
 70
   128
  1
50
 71
     5
 42
-1.0
  3
VELDIM0
100
AcDbAlignedDimension
 13
457.1630208333
 23
151.6052734374999
 33
0.0
 14
411.6271224484999
 24
151.6052734374999
 34
0.0
100
AcDbRotatedDimension
  0
DIMENSION
  5
1B7
330
A
100
AcDbEntity
  8
寸法線
 62
     3
100
AcDbDimension
  2
*D12
 10
257.1630208333
 20
115.6052734375
 30
0.0
 11
357.1630208333
 21
115.6052734375
 31
0.0
 70
   128
  1
<>
 71
     5
 42
-1.0
  3
VELDIM0
100
AcDbAlignedDimension
 13
257.1630208333
 23
135.6052734374999
 33
0.0
 14
457.1630208333
 24
135.6052734374999
 34
0.0
 50
180.0
100
AcDbRotatedDimension
  0
DIMENSION
  5
1C8
330
A
100
AcDbEntity
  8
寸法線
 62
     3
100
AcDbDimension
  2
*D13
 10
380.9130208333
 20
248.6052734374999
 30
0.0
 11
357.1630208333
 21
248.6052734374999
 31
0.0
 70
   128
  1
<>
 71
     5
 42
-1.0
  3
VELDIM0
100
AcDbAlignedDimension
 13
380.9130208333
 23
228.6052734375
 33
0.0
 14
333.4130208333
 24
228.6052734375
 34
0.0
100
AcDbRotatedDimension
  0
INSERT
  5
1CA
330
A
100
AcDbEntity
  8
0
100
AcDbBlockReference
  2
CLUMP1
 10
0.0
 20
0.0
 30
0.0
  0
MTEXT
  5
211
330
A
100
AcDbEntity
  8
ﾚｲﾔｰ1
100
AcDbMText
 10
353.5420735877999
 20
47.41796086869999
 30
0.0
 40
9.084460521
 41
101.9992880795
 71
     1
 72
     1
  1
\W0.8;\fＭＳ ゴシック;\W1.0;日本機電株式会社
 73
     1
 44
1.0
  0
MTEXT
  5
212
330
A
100
AcDbEntity
  8
ﾚｲﾔｰ1
100
AcDbMText
 10
431.2832512212999
 20
79.2207951334
 30
0.0
 40
5.9753632685
 41
38.2266738116
 71
     1
 72
     1
  1
\W0.8;\fＭＳ ゴシック;\W1.0;2000.8.28
 73
     1
 44
1.0
  0
MTEXT
  5
213
330
A
100
AcDbEntity
  8
ﾚｲﾔｰ1
100
AcDbMText
 10
538.9871309771999
 20
79.06015105049999
 30
0.0
 40
5.321423683799999
 41
9.7673421483
 71
     1
 72
     1
  1
\W0.8;\fＭＳ ゴシック;\W1.0;殿
 73
     1
 44
1.0
  0
MTEXT
  5
214
330
A
100
AcDbEntity
  8
ﾚｲﾔｰ1
100
AcDbMText
 10
457.3093582943999
 20
46.9870139269
 30
0.0
 40
8.3458818143
 41
101.8160733024
 71
     1
 72
     1
  1
\W0.8;\fＭＳ ゴシック;\W1.0;００２２００７
 73
     1
 44
1.0
  0
MTEXT
  5
215
330
A
100
AcDbEntity
  8
ﾚｲﾔｰ1
100
AcDbMText
 10
457.3093582943999
 20
46.9870139269
 30
0.0
 40
8.3458818143
 41
101.8160733024
 71
     1
 72
     1
  1
\W0.8;\fＭＳ ゴシック;\W1.0;００２２００７
 73
     1
 44
1.0
  0
MTEXT
  5
216
330
A
100
AcDbEntity
  8
ﾚｲﾔｰ1
100
AcDbMText
 10
371.1239115349
 20
79.9801136562
 30
0.0
 40
6.2107467301
 41
43.94514181419999
 71
     1
 72
     1
  1
\W0.8;\fＭＳ Ｐゴシック;\W1.0;1/２
 73
     1
 44
1.0
  0
MTEXT
  5
217
330
A
100
AcDbEntity
  8
ﾚｲﾔｰ1
100
AcDbMText
 10
348.1706814438999
 20
67.7647272177
 30
0.0
 40
6.1648304401
 41
10.409028306
 71
     1
 72
     1
  1
\W0.8;\fＭＳ ゴシック;\W1.0;名\P称
 73
     1
 44
1.0
  0
MTEXT
  5
218
330
A
100
AcDbEntity
  8
ﾚｲﾔｰ1
100
AcDbMText
 10
472.5434114582999
 20
65.5919852664
 30
0.0
 40
8.6359995461
 41
63.2121757813
 71
     1
 72
     1
  1
\W0.8;\fＭＳ Ｐゴシック;\W1.0;Ｔ型蝶番
 73
     1
 44
1.0
  0
MTEXT
  5
219
330
A
100
AcDbEntity
  8
ﾚｲﾔｰ1
100
AcDbMText
 10
366.6800661251
 20
64.4604449818
 30
0.0
 40
6.712381192
 41
118.8218471332999
 71
     1
 72
     1
  1
\W0.8;\fＭＳ ゴシック;\W1.0;ＮＫキャスターゲート
 73
     1
 44
1.0
  0
MTEXT
  5
21A
330
A
100
AcDbEntity
  8
ﾚｲﾔｰ1
100
AcDbMText
 10
349.2571508057
 20
79.4207468284
 30
0.0
 40
5.9144283545
 41
18.9477437421
 71
     1
 72
     1
  1
\W0.8;\fＭＳ Ｐゴシック;\W1.0;尺度
 73
     1
 44
1.0
  0
MTEXT
  5
21B
330
A
100
AcDbEntity
  8
ﾚｲﾔｰ1
100
AcDbMText
 10
446.2816680223
 20
40.8276650225
 30
0.0
 40
3.881924561199999
 41
7.405275311299999
 71
     1
 72
     1
  1
\W0.8;\fＭＳ ゴシック;\W1.0;番
 73
     1
 44
1.0
  0
MTEXT
  5
21C
330
A
100
AcDbEntity
  8
ﾚｲﾔｰ1
100
AcDbMText
 10
410.124774725
 20
78.66328747199999
 30
0.0
 40
5.4083571832
 41
22.8735994265
 71
     1
 72
     1
  1
\W0.8;\fＭＳ ゴシック;\W1.0;作成日
 73
     1
 44
1.0
  0
MTEXT
  5
21D
330
A
100
AcDbEntity
  8
ﾚｲﾔｰ1
100
AcDbMText
 10
446.2816680223
 20
49.0482111522
 30
0.0
 40
3.881924561199999
 41
7.405275311299999
 71
     1
 72
     1
  1
\W0.8;\fＭＳ ゴシック;\W1.0;図
 73
     1
 44
1.0
  0
VIEWPORT
  5
22E
330
B
100
AcDbEntity
 67
     1
  8
0
  6
Continuous
100
AcDbViewport
 10
5.613749947134904
 20
3.903749984080397
 30
0.0
 40
15.32252691052573
 41
8.751116528456213
 68
     1
 69
     1
 12
5.613749947134904
 22
3.903749984080397
 13
0.0
 23
0.0
 14
10.0
 24
10.0
 15
10.0
 25
10.0
 16
0.0
 26
0.0
 36
1.0
 17
0.0
 27
0.0
 37
0.0
 42
50.0
 43
0.0
 44
0.0
 45
8.751116528456213
 50
0.0
 51
0.0
 72
   100
 90
    32800
  1

281
     0
 71
     1
 74
     0
110
0.0
120
0.0
130
0.0
111
1.0
121
0.0
131
0.0
112
0.0
122
1.0
132
0.0
 79
     0
146
0.0
  0
VIEWPORT
  5
230
330
B
100
AcDbEntity
 67
     1
  8
0
  6
Continuous
100
AcDbViewport
 10
5.61374996590802
 20
3.902083250481313
 30
0.0
 40
8.981999945452834
 41
6.2433332007701
 68
     2
 69
     2
 12
272.94965277775
 22
222.5586245807499
 13
0.0
 23
0.0
 14
1.0
 24
1.0
 15
0.0
 25
0.0
 16
0.0
 26
0.0
 36
1.0
 17
0.0
 27
0.0
 37
0.0
 42
50.0
 43
0.0
 44
0.0
 45
385.7938804982222
 50
0.0
 51
0.0
 72
   100
 90
    32800
  1

281
     0
 71
     1
 74
     0
110
0.0
120
0.0
130
0.0
111
1.0
121
0.0
131
0.0
112
0.0
122
1.0
132
0.0
 79
     0
146
0.0
  0
ENDSEC
  0
SECTION
  2
OBJECTS
  0
DICTIONARY
  5
19
330
0
100
AcDbDictionary
281
     1
  3
ACAD_GROUP
350
1A
  3
ACAD_MLINESTYLE
350
1B
  3
ACAD_PLOTSTYLENAME
350
222
  3
ACAD_LAYOUT
350
224
  3
ACAD_PLOTSETTINGS
350
225
  0
DICTIONARY
  5
1A
102
{ACAD_REACTORS
330
19
102
}
330
19
100
AcDbDictionary
281
     1
  0
DICTIONARY
  5
1B
102
{ACAD_REACTORS
330
19
102
}
330
19
100
AcDbDictionary
281
     1
  3
STANDARD
350
1C
  0
ACDBDICTIONARYWDFLT
  5
222
102
{ACAD_REACTORS
330
19
102
}
330
19
100
AcDbDictionary
281
     1
  3
Normal
350
223
100
AcDbDictionaryWithDefault
340
223
  0
DICTIONARY
  5
224
102
{ACAD_REACTORS
330
19
102
}
330
19
100
AcDbDictionary
281
     1
  3
Model
350
226
  3
ﾚｲｱｳﾄ1
350
227
  0
DICTIONARY
  5
225
102
{ACAD_REACTORS
330
19
102
}
330
19
100
AcDbDictionary
281
     1
  0
MLINESTYLE
  5
1C
102
{ACAD_REACTORS
330
1B
102
}
330
1B
100
AcDbMlineStyle
  2
STANDARD
 70
     0
  3

 62
     0
 51
90.0
 52
90.0
 71
     2
 49
0.5
 62
   256
  6
BYLAYER
 49
-0.5
 62
   256
  6
BYLAYER
  0
ACDBPLACEHOLDER
  5
223
102
{ACAD_REACTORS
330
222
102
}
330
222
  0
LAYOUT
  5
226
102
{ACAD_REACTORS
330
224
102
}
330
224
100
AcDbPlotSettings
  1

  2
Canon LASER SHOT LBP-880
  4

  6

 40
0.0
 41
0.0
 42
0.0
 43
0.0
 44
0.0
 45
0.0
 46
0.0
 47
0.0
 48
0.0
 49
0.0
140
0.0
141
0.0
142
1.0
143
1.0
 70
  1712
 72
     0
 73
     0
 74
     0
  7

 75
     0
147
1.0
148
0.0
149
0.0
100
AcDbLayout
  1
Model
 70
     1
 71
     0
 10
0.0
 20
0.0
 11
12.0
 21
9.0
 12
0.0
 22
0.0
 32
0.0
 14
0.0
 24
0.0
 34
0.0
 15
0.0
 25
0.0
 35
0.0
146
0.0
 13
0.0
 23
0.0
 33
0.0
 16
1.0
 26
0.0
 36
0.0
 17
0.0
 27
1.0
 37
0.0
 76
     0
330
A
  0
LAYOUT
  5
227
102
{ACAD_REACTORS
330
224
102
}
330
224
100
AcDbPlotSettings
  1

  2
Canon LASER SHOT LBP-880
  4
A4
  6

 40
5.873749732971191
 41
5.873747825622558
 42
5.958419799804687
 43
5.873748779296875
 44
210.0579986572265
 45
296.9259948730469
 46
0.0
 47
0.0
 48
0.0
 49
0.0
140
0.0
141
0.0
142
1.0
143
1.0
 70
   688
 72
     0
 73
     1
 74
     5
  7

 75
    16
147
1.0
148
0.0
149
0.0
100
AcDbLayout
  1
ﾚｲｱｳﾄ1
 70
     0
 71
     1
 10
-0.2312499519408218
 20
-0.2312499894870548
 11
11.45874984621062
 21
8.03874995764785
 12
0.0
 22
0.0
 32
0.0
 14
1.122749993181603
 24
0.7804166500962629
 34
0.0
 15
10.10474993863443
 25
7.023749850866363
 35
0.0
146
0.0
 13
0.0
 23
0.0
 33
0.0
 16
1.0
 26
0.0
 36
0.0
 17
0.0
 27
1.0
 37
0.0
 76
     0
330
B
331
22E
  0
ENDSEC
  0
EOF
