  0
SECTION
  2
HEADER
  9
$ACADVER
  1
AC1014
  9
$ACADMAINTVER
 70
         0
  9
$DWGCODEPAGE
  3
ANSI_932
  9
$INSBASE
 10
0.0
 20
0.0
 30
0.0
  9
$EXTMIN
 10
1.0000000000E+20
 20
1.0000000000E+20
 30
1.0000000000E+20
  9
$EXTMAX
 10
-1.0000000000E+20
 20
-1.0000000000E+20
 30
-1.0000000000E+20
  9
$LIMMIN
 10
0.0
 20
0.0
  9
$LIMMAX
 10
0.0
 20
0.0
  9
$ORTHOMODE
 70
         0
  9
$REGENMODE
 70
         1
  9
$FILLMODE
 70
         1
  9
$QTEXTMODE
 70
         0
  9
$MIRRTEXT
 70
         1
  9
$DRAGMODE
 70
         2
  9
$LTSCALE
 40
1.0
  9
$OSMODE
 70
         0
  9
$ATTMODE
 70
         1
  9
$TEXTSIZE
 40
0.2
  9
$TRACEWID
 40
0.05
  9
$TEXTSTYLE
  7
STANDARD
  9
$CLAYER
  8
0
  9
$CELTYPE
  6
CONTINUOUS
  9
$CECOLOR
 62
       256
  9
$CELTSCALE
 40
1.0
  9
$DELOBJ
 70
         1
  9
$DISPSILH
 70
         0
  9
$DIMSCALE
 40
1.0
  9
$DIMASZ
 40
0.18
  9
$DIMEXO
 40
0.0625
  9
$DIMDLI
 40
0.38
  9
$DIMRND
 40
0.0
  9
$DIMDLE
 40
0.0
  9
$DIMEXE
 40
0.18
  9
$DIMTP
 40
0.0
  9
$DIMTM
 40
0.0
  9
$DIMTXT
 40
0.18
  9
$DIMCEN
 40
0.09
  9
$DIMTSZ
 40
0.0
  9
$DIMTOL
 70
         0
  9
$DIMLIM
 70
         0
  9
$DIMTIH
 70
         1
  9
$DIMTOH
 70
         1
  9
$DIMSE1
 70
         0
  9
$DIMSE2
 70
         0
  9
$DIMTAD
 70
         0
  9
$DIMZIN
 70
         0
  9
$DIMBLK
  1

  9
$DIMASO
 70
         1
  9
$DIMSHO
 70
         1
  9
$DIMPOST
  1

  9
$DIMAPOST
  1

  9
$DIMALT
 70
         0
  9
$DIMALTD
 70
         2
  9
$DIMALTF
 40
25.4
  9
$DIMLFAC
 40
1.0
  9
$DIMTOFL
 70
         0
  9
$DIMTVP
 40
0.0
  9
$DIMTIX
 70
         0
  9
$DIMSOXD
 70
         0
  9
$DIMSAH
 70
         0
  9
$DIMBLK1
  1

  9
$DIMBLK2
  1

  9
$DIMSTYLE
  2
STANDARD
  9
$DIMCLRD
 70
         0
  9
$DIMCLRE
 70
         0
  9
$DIMCLRT
 70
         0
  9
$DIMTFAC
 40
1.0
  9
$DIMGAP
 40
0.09
  9
$DIMJUST
 70
         0
  9
$DIMSD1
 70
         0
  9
$DIMSD2
 70
         0
  9
$DIMTOLJ
 70
         1
  9
$DIMTZIN
 70
         0
  9
$DIMALTZ
 70
         0
  9
$DIMALTTZ
 70
         0
  9
$DIMFIT
 70
         3
  9
$DIMUPT
 70
         0
  9
$DIMUNIT
 70
         2
  9
$DIMDEC
 70
         4
  9
$DIMTDEC
 70
         4
  9
$DIMALTU
 70
         2
  9
$DIMALTTD
 70
         2
  9
$DIMTXSTY
  7
STANDARD
  9
$DIMAUNIT
 70
         0
  9
$LUNITS
 70
         2
  9
$LUPREC
 70
         4
  9
$SKETCHINC
 40
0.1
  9
$FILLETRAD
 40
0.0
  9
$AUNITS
 70
         0
  9
$AUPREC
 70
         0
  9
$MENU
  1
acad
  9
$ELEVATION
 40
0.0
  9
$PELEVATION
 40
0.0
  9
$THICKNESS
 40
0.0
  9
$LIMCHECK
 70
         0
  9
$BLIPMODE
 70
         1
  9
$CHAMFERA
 40
0.0
  9
$CHAMFERB
 40
0.0
  9
$CHAMFERC
 40
0.0
  9
$CHAMFERD
 40
0.0
  9
$SKPOLY
 70
         0
  9
$TDCREATE
 40
0.000000000
  9
$TDUPDATE
 40
0.000000000
  9
$TDINDWG
 40
0.0000000000
  9
$TDUSRTIMER
 40
0.0000000000
  9
$USRTIMER
 70
         1
  9
$ANGBASE
 50
0.0
  9
$ANGDIR
 70
         0
  9
$PDMODE
 70
         3
  9
$PDSIZE
 40
-1.0
  9
$PLINEWID
 40
0.0
  9
$COORDS
 70
         0
  9
$SPLFRAME
 70
         0
  9
$SPLINETYPE
 70
         6
  9
$SPLINESEGS
 70
         8
  9
$ATTDIA
 70
         0
  9
$ATTREQ
 70
         1
  9
$HANDLING
 70
         1
  9
$HANDSEED
  5
128
  9
$SURFTAB1
 70
         6
  9
$SURFTAB2
 70
         6
  9
$SURFTYPE
 70
         6
  9
$SURFU
 70
         6
  9
$SURFV
 70
         6
  9
$UCSNAME
  2

  9
$UCSORG
 10
0.0
 20
0.0
 30
0.0
  9
$UCSXDIR
 10
1.0
 20
0.0
 30
0.0
  9
$UCSYDIR
 10
0.0
 20
1.0
 30
0.0
  9
$PUCSNAME
  2

  9
$PUCSORG
 10
0.0
 20
0.0
 30
0.0
  9
$PUCSXDIR
 10
1.0
 20
0.0
 30
0.0
  9
$PUCSYDIR
 10
0.0
 20
1.0
 30
0.0
  9
$USERI1
 70
         0
  9
$USERI2
 70
         0
  9
$USERI3
 70
         0
  9
$USERI4
 70
         0
  9
$USERI5
 70
         0
  9
$USERR1
 40
0.0
  9
$USERR2
 40
0.0
  9
$USERR3
 40
0.0
  9
$USERR4
 40
0.0
  9
$USERR5
 40
0.0
  9
$WORLDVIEW
 70
         1
  9
$SHADEDGE
 70
         3
  9
$SHADEDIF
 70
        70
  9
$TILEMODE
 70
         1
  9
$MAXACTVP
 70
        16
  9
$PINSBASE
 10
0.0
 20
0.0
 30
0.0
  9
$PLIMCHECK
 70
         0
  9
$PEXTMIN
 10
1.0000000000E+20
 20
1.0000000000E+20
 30
1.0000000000E+20
  9
$PEXTMAX
 10
-1.0000000000E+20
 20
-1.0000000000E+20
 30
-1.0000000000E+20
  9
$PLIMMIN
 10
0.0
 20
0.0
  9
$PLIMMAX
 10
12.0
 20
9.0
  9
$UNITMODE
 70
         0
  9
$VISRETAIN
 70
         0
  9
$PLINEGEN
 70
         1
  9
$PSLTSCALE
 70
         0
  9
$TREEDEPTH
 70
      3020
  9
$PICKSTYLE
 70
         1
  9
$CMLSTYLE
  2
STANDARD
  9
$CMLJUST
 70
         0
  9
$CMLSCALE
 40
1.0
  9
$PROXYGRAPHICS
 70
         0
  9
$MEASUREMENT
 70
         0
  0
ENDSEC
  0
SECTION
  2
CLASSES
  0
CLASS
  1
LWPOLYLINE
  2
AcDbPolyline
  3
"AutoCAD"
 90
        0
280
         0
281
         1
  0
CLASS
  1
IMAGE
  2
AcDbRasterImage
  3
ISM
 90
      127
280
         0
281
         1
  0
CLASS
  1
OLE2FRAME
  2
AcDbOle2Frame
  3
""
 90
        0
280
         0
281
         1
  0
CLASS
  1
HATCH
  2
AcDbHatch
  3
"ACAD_SEDONA"
 90
        0
280
         0
281
         1
  0
CLASS
  1
DICTIONARYVAR
  2
AcDbDictionaryVar
  3
"AutoCAD"
 90
        0
280
         0
281
         0
  0
CLASS
  1
RASTERVARIABLES
  2
AcDbRasterVariables
  3
ISM
 90
        0
280
         0
281
         0
  0
CLASS
  1
IMAGEDEF
  2
AcDbRasterImageDef
  3
ISM
 90
        0
280
         0
281
         0
  0
CLASS
  1
IMAGEDEF_REACTOR
  2
AcDbRasterImageDefReactor
  3
ISM
 90
        1
280
         0
281
         0
  0
CLASS
  1
IDBUFFER
  2
AcDbIdBuffer
  3
"Acad"
 90
        0
280
         0
281
         0
  0
CLASS
  1
SPATIAL_FILTER
  2
AcDbSpatialFilter
  3
"Acad"
 90
        0
280
         0
281
         0
  0
CLASS
  1
XRECORD
  2
AcDbXrecord
  3
"<Built In>"
 90
        0
280
         0
281
         0
  0
CLASS
  1
SORTENTSTABLE
  2
AcDbSortentsTable
  3
"AutoCAD"
 90
        0
280
         0
281
         0
  0
CLASS
  1
LAYER_INDEX
  2
AcDbLayerIndex
  3
"Acad"
 90
        0
280
         0
281
         0
  0
CLASS
  1
SPATIAL_INDEX
  2
AcDbSpatialIndex
  3
"Acad"
 90
        0
280
         0
281
         0
  0
CLASS
  1
OBJECT_PTR
  2
CAseDLPNTableRecord
  3
"ASE-LPNTableRecord"
 90
        1
280
         0
281
         0
  0
CLASS
  1
LAYOUT
  2
AcDbLayout
  3
"AutoCAD 2000"
 90
        1
280
         0
281
         0
  0
CLASS
  1
PLOTSETTINGS
  2
AcDbPlotSettings
  3
"AutoCAD 2000"
 90
        1
280
         0
281
         0
  0
CLASS
  1
ACDBDICTIONARYWDFLT
  2
AcDbDictionaryWithDefault
  3
"AutoCAD 2000"
 90
        1
280
         0
281
         0
  0
CLASS
  1
ACDBPLACEHOLDER
  2
AcDbPlaceHolder
  3
"AutoCAD 2000"
 90
        1
280
         0
281
         0
  0
CLASS
  1
VBA_PROJECT
  2
AcDbVbaProject
  3
"acadvba"
 90
        1
280
         0
281
         0
  0
CLASS
  1
WIPEOUT
  2
AcDbWipeout
  3
WipeOut|AutoCAD Express Tool|expresstools@autodesk.com
 90
      127
280
         0
281
         1
  0
CLASS
  1
WIPEOUTVARIABLES
  2
AcDbWipeoutVariables
  3
WipeOut|AutoCAD Express Tool|expresstools@autodesk.com
 90
        0
280
         0
281
         0
  0
CLASS
  1
RTEXT
  2
RText
  3
RText|AutoCAD Express Tool|expresstools@autodesk.com
 90
        0
280
         0
281
         1
  0
CLASS
  1
ARCALIGNEDTEXT
  2
AcDbArcAlignedText
  3
ATEXT|AutoCAD Express Tool|expresstools@autodesk.com
 90
        0
280
         0
281
         1
  0
ENDSEC
  0
SECTION
  2
TABLES
  0
TABLE
  2
VPORT
  5
7
100
AcDbSymbolTable
 70
         1
  0
VPORT
  5
15
100
AcDbSymbolTableRecord
100
AcDbViewportTableRecord
  2
*ACTIVE
 70
         0
 10
0.0
 20
0.0
 11
1.0
 21
1.0
 12
6.591288
 22
4.579184
 13
0.0
 23
0.0
 14
1.0
 24
1.0
 15
0.0
 25
0.0
 16
0.0
 26
0.0
 36
1.0
 17
0.0
 27
0.0
 37
0.0
 40
9.158369
 41
0.688564
 42
50.0
 43
0.0
 44
0.0
 50
0.0
 51
0.0
 71
         0
 72
       100
 73
         1
 74
         1
 75
         0
 76
         0
 77
         0
 78
         0
  0
ENDTAB
  0
TABLE
  2
LTYPE
  5
4
100
AcDbSymbolTable
 70
        13
  0
LTYPE
  5
11
100
AcDbSymbolTableRecord
100
AcDbLinetypeTableRecord
  2
BYBLOCK
 70
        64
  3

 72
        65
 73
         0
 40
0.0
  0
LTYPE
  5
12
100
AcDbSymbolTableRecord
100
AcDbLinetypeTableRecord
  2
BYLAYER
 70
        64
  3

 72
        65
 73
         0
 40
0.0
  0
LTYPE
  5
13
100
AcDbSymbolTableRecord
100
AcDbLinetypeTableRecord
  2
CONTINUOUS
 70
        64
  3
Solid line
 72
        65
 73
         0
 40
0.0
  0
LTYPE
  5
1D
100
AcDbSymbolTableRecord
100
AcDbLinetypeTableRecord
  2
DOT
 70
        64
  3
. . . . . . . . 
 72
        65
 73
         2
 40
1.0
 49
0.0
 74
         0
 49
-1.0
 74
         0
  0
LTYPE
  5
1E
100
AcDbSymbolTableRecord
100
AcDbLinetypeTableRecord
  2
DASHED
 70
        64
  3
___  ___  ___  ___  
 72
        65
 73
         2
 40
4.0
 49
3.0
 74
         0
 49
-1.0
 74
         0
  0
LTYPE
  5
1F
100
AcDbSymbolTableRecord
100
AcDbLinetypeTableRecord
  2
HIDDEN
 70
        64
  3
__ __ __ __ 
 72
        65
 73
         2
 40
3.0
 49
2.0
 74
         0
 49
-1.0
 74
         0
  0
LTYPE
  5
20
100
AcDbSymbolTableRecord
100
AcDbLinetypeTableRecord
  2
STITCH
 70
        64
  3
_ _ _ _ 
 72
        65
 73
         2
 40
2.0
 49
1.0
 74
         0
 49
-1.0
 74
         0
  0
LTYPE
  5
21
100
AcDbSymbolTableRecord
100
AcDbLinetypeTableRecord
  2
CENTER
 70
        64
  3
______  __  ______  __  
 72
        65
 73
         4
 40
43.0
 49
40.0
 74
         0
 49
-1.0
 74
         0
 49
1.0
 74
         0
 49
-1.0
 74
         0
  0
LTYPE
  5
22
100
AcDbSymbolTableRecord
100
AcDbLinetypeTableRecord
  2
DASHDOT
 70
        64
  3
____ . ____ . 
 72
        65
 73
         4
 40
32.0
 49
30.0
 74
         0
 49
-1.0
 74
         0
 49
0.0
 74
         0
 49
-1.0
 74
         0
  0
LTYPE
  5
23
100
AcDbSymbolTableRecord
100
AcDbLinetypeTableRecord
  2
BORDER
 70
        64
  3
__ . __ . 
 72
        65
 73
         4
 40
22.0
 49
20.0
 74
         0
 49
-1.0
 74
         0
 49
0.0
 74
         0
 49
-1.0
 74
         0
  0
LTYPE
  5
24
100
AcDbSymbolTableRecord
100
AcDbLinetypeTableRecord
  2
CUTTING
 70
        64
  3
________   ___   ___   
 72
        65
 73
         6
 40
45.0
 49
40.0
 74
         0
 49
-1.0
 74
         0
 49
1.0
 74
         0
 49
-1.0
 74
         0
 49
1.0
 74
         0
 49
-1.0
 74
         0
  0
LTYPE
  5
25
100
AcDbSymbolTableRecord
100
AcDbLinetypeTableRecord
  2
PHANTOM
 70
        64
  3
______  __  __  
 72
        65
 73
         6
 40
35.0
 49
30.0
 74
         0
 49
-1.0
 74
         0
 49
1.0
 74
         0
 49
-1.0
 74
         0
 49
1.0
 74
         0
 49
-1.0
 74
         0
  0
LTYPE
  5
26
100
AcDbSymbolTableRecord
100
AcDbLinetypeTableRecord
  2
DIVIDE
 70
        64
  3
____ . . ____ . . 
 72
        65
 73
         6
 40
23.0
 49
20.0
 74
         0
 49
-1.0
 74
         0
 49
0.0
 74
         0
 49
-1.0
 74
         0
 49
0.0
 74
         0
 49
-1.0
 74
         0
  0
ENDTAB
  0
TABLE
  2
LAYER
  5
2
100
AcDbSymbolTable
 70
         3
  0
LAYER
  5
14
100
AcDbSymbolTableRecord
100
AcDbLayerTableRecord
  2
0
 70
         0
 62
         7
  6
CONTINUOUS
  0
LAYER
  5
27
100
AcDbSymbolTableRecord
100
AcDbLayerTableRecord
  2
ﾚｲﾔｰ1
 70
         0
 62
         7
  6
CONTINUOUS
  0
LAYER
  5
7D
100
AcDbSymbolTableRecord
100
AcDbLayerTableRecord
  2
寸法線
 70
         0
 62
         7
  6
CONTINUOUS
  0
ENDTAB
  0
TABLE
  2
STYLE
  5
3
100
AcDbSymbolTable
 70
         1
  0
STYLE
  5
17
100
AcDbSymbolTableRecord
100
AcDbTextStyleTableRecord
  2
STANDARD
 70
         0
 40
0.0
 41
1.0
 50
0.0
 71
         0
 42
0.0
  3
txt
  4
extfont
  0
ENDTAB
  0
TABLE
  2
VIEW
  5
5
100
AcDbSymbolTable
 70
         0
  0
ENDTAB
  0
TABLE
  2
UCS
  5
6
100
AcDbSymbolTable
 70
         0
  0
ENDTAB
  0
TABLE
  2
APPID
  5
8
100
AcDbSymbolTable
 70
         1
  0
APPID
  5
16
100
AcDbSymbolTableRecord
100
AcDbRegAppTableRecord
  2
ACAD
 70
         0
  0
ENDTAB
  0
TABLE
  2
DIMSTYLE
  5
9
100
AcDbSymbolTable
 70
         2
  0
DIMSTYLE
105
18
100
AcDbSymbolTableRecord
100
AcDbDimStyleTableRecord
  2
STANDARD
 70
         0
  3

  4

  5

  6

  7

 40
1.0
 41
0.18
 42
0.0625
 43
0.38
 44
0.18
 45
0.0
 46
0.0
 47
0.0
 48
0.0
 71
         0
 72
         0
 73
         1
 74
         1
 75
         0
 76
         0
 77
         0
 78
         0
140
0.18
141
0.09
142
0.0
143
25.4
144
1.0
145
0.0
146
1.0
147
0.09
170
         0
171
         2
172
         0
173
         0
174
         0
175
         0
176
         0
177
         0
178
         0
270
         2
271
         4
272
         4
273
         2
274
         2
275
         0
280
         0
281
         0
282
         0
283
         1
284
         0
285
         0
286
         0
287
         0
288
         0
340
17
  0
DIMSTYLE
105
6C
100
AcDbSymbolTableRecord
100
AcDbDimStyleTableRecord
  2
VELDIM0
 70
         0
  3

  4

  5

  6

  7

 40
1.0
 41
4.5
 42
0.0625
 43
0.38
 44
3.0
 45
0.0
 46
9.0
 47
0.0
 48
0.0
 71
         0
 72
         0
 73
         0
 74
         0
 75
         0
 76
         0
 77
         0
 78
         8
140
5.6342322826
141
0.09
142
0.0
143
25.4
144
1.0
145
0.0
146
1.0
147
0.09
170
         0
171
         2
172
         0
173
         0
174
         0
175
         0
176
         0
177
         0
178
         0
270
         2
271
         3
272
         4
273
         2
274
         2
275
         0
280
         0
281
         0
282
         0
283
         1
284
         0
285
         0
286
         0
287
         3
288
         0
340
17
  0
ENDTAB
  0
TABLE
  2
BLOCK_RECORD
  5
1
100
AcDbSymbolTable
 70
         5
  0
BLOCK_RECORD
  5
A
100
AcDbSymbolTableRecord
100
AcDbBlockTableRecord
  2
*MODEL_SPACE
  0
BLOCK_RECORD
  5
B
100
AcDbSymbolTableRecord
100
AcDbBlockTableRecord
  2
*PAPER_SPACE
  0
BLOCK_RECORD
  5
6D
100
AcDbSymbolTableRecord
100
AcDbBlockTableRecord
  2
*D0
  0
BLOCK_RECORD
  5
94
100
AcDbSymbolTableRecord
100
AcDbBlockTableRecord
  2
*D1
  0
BLOCK_RECORD
  5
E8
100
AcDbSymbolTableRecord
100
AcDbBlockTableRecord
  2
*D2
  0
BLOCK_RECORD
  5
F9
100
AcDbSymbolTableRecord
100
AcDbBlockTableRecord
  2
*D3
  0
BLOCK_RECORD
  5
10A
100
AcDbSymbolTableRecord
100
AcDbBlockTableRecord
  2
*D4
  0
ENDTAB
  0
ENDSEC
  0
SECTION
  2
BLOCKS
  0
BLOCK
  5
D
100
AcDbEntity
  8
0
100
AcDbBlockBegin
  2
*MODEL_SPACE
 70
         0
 10
0.0
 20
0.0
 30
0.0
  3
*MODEL_SPACE
  1

  0
ENDBLK
  5
E
100
AcDbEntity
  8
0
100
AcDbBlockEnd
  0
BLOCK
  5
F
100
AcDbEntity
 67
         1
  8
0
100
AcDbBlockBegin
  2
*PAPER_SPACE
 70
         0
 10
0.0
 20
0.0
 30
0.0
  3
*PAPER_SPACE
  1

  0
ENDBLK
  5
10
100
AcDbEntity
 67
         1
  8
0
100
AcDbBlockEnd
  0
BLOCK
  5
6E
100
AcDbEntity
  8
0
100
AcDbBlockBegin
  2
*D0
 70
         1
 10
0.0
 20
0.0
 30
0.0
  3

  1

  0
TEXT
  5
6F
100
AcDbEntity
  8
0
 62
         0
100
AcDbText
 10
125.577848962
 20
260.5286548139
 30
0.0
 40
5.6342322826
  1
8
100
AcDbText
  0
LINE
  5
70
100
AcDbEntity
  8
0
 62
         0
100
AcDbLine
 10
123.006406843
 20
236.2083984376
 30
0.0
 11
123.006406843
 21
265.8486328126
 31
0.0
  0
LINE
  5
71
100
AcDbEntity
  8
0
 62
         0
100
AcDbLine
 10
131.006406843
 20
236.2083984376
 30
0.0
 11
131.006406843
 21
265.8486328126
 31
0.0
  0
LINE
  5
72
100
AcDbEntity
  8
0
 62
         0
100
AcDbLine
 10
123.006406843
 20
262.8486328126
 30
0.0
 11
123.006406843
 21
262.8486328126
 31
0.0
  0
LINE
  5
73
100
AcDbEntity
  8
0
 62
         0
100
AcDbLine
 10
131.006406843
 20
262.8486328126
 30
0.0
 11
131.006406843
 21
262.8486328126
 31
0.0
  0
LINE
  5
74
100
AcDbEntity
  8
0
 62
         0
100
AcDbLine
 10
123.006406843
 20
262.8486328126
 30
0.0
 11
123.006406843
 21
262.8486328126
 31
0.0
  0
LINE
  5
75
100
AcDbEntity
  8
0
 62
         0
100
AcDbLine
 10
131.006406843
 20
262.8486328126
 30
0.0
 11
131.006406843
 21
262.8486328126
 31
0.0
  0
LINE
  5
76
100
AcDbEntity
  8
0
 62
         0
100
AcDbLine
 10
131.006406843
 20
262.8486328126
 30
0.0
 11
131.006406843
 21
262.8486328126
 31
0.0
  0
LINE
  5
77
100
AcDbEntity
  8
0
 62
         0
100
AcDbLine
 10
131.006406843
 20
262.8486328126
 30
0.0
 11
131.006406843
 21
262.8486328126
 31
0.0
  0
LINE
  5
78
100
AcDbEntity
  8
0
 62
         0
100
AcDbLine
 10
131.006406843
 20
262.8486328126
 30
0.0
 11
131.006406843
 21
262.8486328126
 31
0.0
  0
LINE
  5
79
100
AcDbEntity
  8
0
 62
         0
100
AcDbLine
 10
123.006406843
 20
262.8486328126
 30
0.0
 11
123.006406843
 21
262.8486328126
 31
0.0
  0
LINE
  5
7A
100
AcDbEntity
  8
0
 62
         0
100
AcDbLine
 10
123.006406843
 20
262.8486328126
 30
0.0
 11
123.006406843
 21
262.8486328126
 31
0.0
  0
LINE
  5
7B
100
AcDbEntity
  8
0
 62
         0
100
AcDbLine
 10
123.006406843
 20
262.8486328126
 30
0.0
 11
123.006406843
 21
262.8486328126
 31
0.0
  0
ENDBLK
  5
7C
100
AcDbEntity
  8
0
100
AcDbBlockEnd
  0
BLOCK
  5
95
100
AcDbEntity
  8
0
100
AcDbBlockBegin
  2
*D1
 70
         1
 10
0.0
 20
0.0
 30
0.0
  3

  1

  0
TEXT
  5
96
100
AcDbEntity
  8
0
 62
         0
100
AcDbText
 10
124.993899119
 20
79.4050220014
 30
0.0
 40
5.6342322826
  1
94
100
AcDbText
  0
LINE
  5
97
100
AcDbEntity
  8
0
 62
         0
100
AcDbLine
 10
175.1064068412
 20
116.9885364973
 30
0.0
 11
175.1064068412
 21
78.7250000001
 31
0.0
  0
LINE
  5
98
100
AcDbEntity
  8
0
 62
         0
100
AcDbLine
 10
81.2813307036
 20
124.010596032
 30
0.0
 11
81.2813307036
 21
78.7250000001
 31
0.0
  0
LINE
  5
99
100
AcDbEntity
  8
0
 62
         0
100
AcDbLine
 10
175.1064068412
 20
81.7250000001
 30
0.0
 11
134.7080927097
 21
81.7250000001
 31
0.0
  0
LINE
  5
9A
100
AcDbEntity
  8
0
 62
         0
100
AcDbLine
 10
81.2813307036
 20
81.7250000001
 30
0.0
 11
121.6796448351
 21
81.7250000001
 31
0.0
  0
LINE
  5
9B
100
AcDbEntity
  8
0
 62
         0
100
AcDbLine
 10
175.1064068412
 20
81.7250000001
 30
0.0
 11
134.7080927097
 21
81.7250000001
 31
0.0
  0
LINE
  5
9C
100
AcDbEntity
  8
0
 62
         0
100
AcDbLine
 10
81.2813307036
 20
81.7250000001
 30
0.0
 11
121.6796448351
 21
81.7250000001
 31
0.0
  0
LINE
  5
9D
100
AcDbEntity
  8
0
 62
         0
100
AcDbLine
 10
81.2813307036
 20
81.7250000001
 30
0.0
 11
90.2813307036
 21
81.7250000001
 31
0.0
  0
LINE
  5
9E
100
AcDbEntity
  8
0
 62
         0
100
AcDbLine
 10
85.7813307036
 20
82.8500000001
 30
0.0
 11
81.2813307036
 21
81.7250000001
 31
0.0
  0
LINE
  5
9F
100
AcDbEntity
  8
0
 62
         0
100
AcDbLine
 10
81.2813307036
 20
81.7250000001
 30
0.0
 11
85.7813307036
 21
80.6000000001
 31
0.0
  0
LINE
  5
A0
100
AcDbEntity
  8
0
 62
         0
100
AcDbLine
 10
175.1064068412
 20
81.7250000001
 30
0.0
 11
166.1064068412
 21
81.7250000001
 31
0.0
  0
LINE
  5
A1
100
AcDbEntity
  8
0
 62
         0
100
AcDbLine
 10
170.6064068412
 20
80.6000000001
 30
0.0
 11
175.1064068412
 21
81.7250000001
 31
0.0
  0
LINE
  5
A2
100
AcDbEntity
  8
0
 62
         0
100
AcDbLine
 10
175.1064068412
 20
81.7250000001
 30
0.0
 11
170.6064068412
 21
82.8500000001
 31
0.0
  0
ENDBLK
  5
A3
100
AcDbEntity
  8
0
100
AcDbBlockEnd
  0
BLOCK
  5
E9
100
AcDbEntity
  8
0
100
AcDbBlockBegin
  2
*D2
 70
         1
 10
0.0
 20
0.0
 30
0.0
  3

  1

  0
TEXT
  5
EA
100
AcDbEntity
  8
0
 62
         0
100
AcDbText
 10
285.4895367546
 20
60.0026782513
 30
0.0
 40
5.6342322826
  1
47.5
100
AcDbText
  0
LINE
  5
EB
100
AcDbEntity
  8
0
 62
         0
100
AcDbLine
 10
316.0966145833
 20
104.0105960319
 30
0.0
 11
316.0966145833
 21
59.32265625
 31
0.0
  0
LINE
  5
EC
100
AcDbEntity
  8
0
 62
         0
100
AcDbLine
 10
268.5966145833
 20
104.0105960319
 30
0.0
 11
268.5966145833
 21
59.32265625
 31
0.0
  0
LINE
  5
ED
100
AcDbEntity
  8
0
 62
         0
100
AcDbLine
 10
316.0966145833
 20
62.32265625
 30
0.0
 11
302.517946696
 21
62.32265625
 31
0.0
  0
LINE
  5
EE
100
AcDbEntity
  8
0
 62
         0
100
AcDbLine
 10
268.5966145833
 20
62.32265625
 30
0.0
 11
282.1752824707
 21
62.32265625
 31
0.0
  0
LINE
  5
EF
100
AcDbEntity
  8
0
 62
         0
100
AcDbLine
 10
316.0966145833
 20
62.32265625
 30
0.0
 11
302.517946696
 21
62.32265625
 31
0.0
  0
LINE
  5
F0
100
AcDbEntity
  8
0
 62
         0
100
AcDbLine
 10
268.5966145833
 20
62.32265625
 30
0.0
 11
282.1752824707
 21
62.32265625
 31
0.0
  0
LINE
  5
F1
100
AcDbEntity
  8
0
 62
         0
100
AcDbLine
 10
268.5966145833
 20
62.32265625
 30
0.0
 11
277.5966145833
 21
62.32265625
 31
0.0
  0
LINE
  5
F2
100
AcDbEntity
  8
0
 62
         0
100
AcDbLine
 10
273.0966145833
 20
63.44765625
 30
0.0
 11
268.5966145833
 21
62.32265625
 31
0.0
  0
LINE
  5
F3
100
AcDbEntity
  8
0
 62
         0
100
AcDbLine
 10
268.5966145833
 20
62.32265625
 30
0.0
 11
273.0966145833
 21
61.19765625
 31
0.0
  0
LINE
  5
F4
100
AcDbEntity
  8
0
 62
         0
100
AcDbLine
 10
316.0966145833
 20
62.32265625
 30
0.0
 11
307.0966145833
 21
62.32265625
 31
0.0
  0
LINE
  5
F5
100
AcDbEntity
  8
0
 62
         0
100
AcDbLine
 10
311.5966145833
 20
61.19765625
 30
0.0
 11
316.0966145833
 21
62.32265625
 31
0.0
  0
LINE
  5
F6
100
AcDbEntity
  8
0
 62
         0
100
AcDbLine
 10
316.0966145833
 20
62.32265625
 30
0.0
 11
311.5966145833
 21
63.44765625
 31
0.0
  0
ENDBLK
  5
F7
100
AcDbEntity
  8
0
100
AcDbBlockEnd
  0
BLOCK
  5
FA
100
AcDbEntity
  8
0
100
AcDbBlockBegin
  2
*D3
 70
         1
 10
0.0
 20
0.0
 30
0.0
  3

  1

  0
TEXT
  5
FB
100
AcDbEntity
  8
0
 62
         0
100
AcDbText
 10
289.1466449299
 20
259.5067798138
 30
0.0
 40
5.6342322826
  1
43
100
AcDbText
  0
LINE
  5
FC
100
AcDbEntity
  8
0
 62
         0
100
AcDbLine
 10
270.8466145833
 20
166.186419304
 30
0.0
 11
270.8466145833
 21
264.8267578125
 31
0.0
  0
LINE
  5
FD
100
AcDbEntity
  8
0
 62
         0
100
AcDbLine
 10
313.7870231822
 20
167.7860689885
 30
0.0
 11
313.7870231822
 21
264.8267578125
 31
0.0
  0
LINE
  5
FE
100
AcDbEntity
  8
0
 62
         0
100
AcDbLine
 10
270.8466145833
 20
261.8267578125
 30
0.0
 11
285.832390646
 21
261.8267578125
 31
0.0
  0
LINE
  5
FF
100
AcDbEntity
  8
0
 62
         0
100
AcDbLine
 10
313.7870231822
 20
261.8267578125
 30
0.0
 11
298.8608385207
 21
261.8267578125
 31
0.0
  0
LINE
  5
100
100
AcDbEntity
  8
0
 62
         0
100
AcDbLine
 10
270.8466145833
 20
261.8267578125
 30
0.0
 11
285.832390646
 21
261.8267578125
 31
0.0
  0
LINE
  5
101
100
AcDbEntity
  8
0
 62
         0
100
AcDbLine
 10
313.7870231822
 20
261.8267578125
 30
0.0
 11
298.8608385207
 21
261.8267578125
 31
0.0
  0
LINE
  5
102
100
AcDbEntity
  8
0
 62
         0
100
AcDbLine
 10
313.7870231822
 20
261.8267578125
 30
0.0
 11
304.7870231822
 21
261.8267578125
 31
0.0
  0
LINE
  5
103
100
AcDbEntity
  8
0
 62
         0
100
AcDbLine
 10
309.2870231822
 20
260.7017578125
 30
0.0
 11
313.7870231822
 21
261.8267578125
 31
0.0
  0
LINE
  5
104
100
AcDbEntity
  8
0
 62
         0
100
AcDbLine
 10
313.7870231822
 20
261.8267578125
 30
0.0
 11
309.2870231822
 21
262.9517578125
 31
0.0
  0
LINE
  5
105
100
AcDbEntity
  8
0
 62
         0
100
AcDbLine
 10
270.8466145833
 20
261.8267578125
 30
0.0
 11
279.8466145833
 21
261.8267578125
 31
0.0
  0
LINE
  5
106
100
AcDbEntity
  8
0
 62
         0
100
AcDbLine
 10
275.3466145833
 20
262.9517578125
 30
0.0
 11
270.8466145833
 21
261.8267578125
 31
0.0
  0
LINE
  5
107
100
AcDbEntity
  8
0
 62
         0
100
AcDbLine
 10
270.8466145833
 20
261.8267578125
 30
0.0
 11
275.3466145833
 21
260.7017578125
 31
0.0
  0
ENDBLK
  5
108
100
AcDbEntity
  8
0
100
AcDbBlockEnd
  0
BLOCK
  5
10B
100
AcDbEntity
  8
0
100
AcDbBlockBegin
  2
*D4
 70
         1
 10
0.0
 20
0.0
 30
0.0
  3

  1

  0
TEXT
  5
10C
100
AcDbEntity
  8
0
 62
         0
100
AcDbText
 10
343.5213770817
 20
199.8106263785
 30
0.0
 40
5.6342322826
  1
72
 50
90.0
100
AcDbText
  0
LINE
  5
10D
100
AcDbEntity
  8
0
 62
         0
100
AcDbLine
 10
292.3466145833
 20
239.0105960319
 30
0.0
 11
344.2013990829
 21
239.0105960319
 31
0.0
  0
LINE
  5
10E
100
AcDbEntity
  8
0
 62
         0
100
AcDbLine
 10
305.8103625528
 20
167.0105960319
 30
0.0
 11
344.2013990829
 21
167.0105960319
 31
0.0
  0
LINE
  5
10F
100
AcDbEntity
  8
0
 62
         0
100
AcDbLine
 10
341.2013990829
 20
239.0105960319
 30
0.0
 11
341.2013990829
 21
209.5248199692
 31
0.0
  0
LINE
  5
110
100
AcDbEntity
  8
0
 62
         0
100
AcDbLine
 10
341.2013990829
 20
167.0105960319
 30
0.0
 11
341.2013990829
 21
196.4963720946
 31
0.0
  0
LINE
  5
111
100
AcDbEntity
  8
0
 62
         0
100
AcDbLine
 10
341.2013990829
 20
239.0105960319
 30
0.0
 11
341.2013990829
 21
209.5248199692
 31
0.0
  0
LINE
  5
112
100
AcDbEntity
  8
0
 62
         0
100
AcDbLine
 10
341.2013990829
 20
167.0105960319
 30
0.0
 11
341.2013990829
 21
196.4963720946
 31
0.0
  0
LINE
  5
113
100
AcDbEntity
  8
0
 62
         0
100
AcDbLine
 10
341.2013990829
 20
167.0105960319
 30
0.0
 11
341.2013990829
 21
176.0105960319
 31
0.0
  0
LINE
  5
114
100
AcDbEntity
  8
0
 62
         0
100
AcDbLine
 10
340.0763990829
 20
171.5105960319
 30
0.0
 11
341.2013990829
 21
167.0105960319
 31
0.0
  0
LINE
  5
115
100
AcDbEntity
  8
0
 62
         0
100
AcDbLine
 10
341.2013990829
 20
167.0105960319
 30
0.0
 11
342.3263990829
 21
171.5105960319
 31
0.0
  0
LINE
  5
116
100
AcDbEntity
  8
0
 62
         0
100
AcDbLine
 10
341.2013990829
 20
239.0105960319
 30
0.0
 11
341.2013990829
 21
230.0105960319
 31
0.0
  0
LINE
  5
117
100
AcDbEntity
  8
0
 62
         0
100
AcDbLine
 10
342.3263990829
 20
234.5105960319
 30
0.0
 11
341.2013990829
 21
239.0105960319
 31
0.0
  0
LINE
  5
118
100
AcDbEntity
  8
0
 62
         0
100
AcDbLine
 10
341.2013990829
 20
239.0105960319
 30
0.0
 11
340.0763990829
 21
234.5105960319
 31
0.0
  0
ENDBLK
  5
119
100
AcDbEntity
  8
0
100
AcDbBlockEnd
  0
ENDSEC
  0
SECTION
  2
ENTITIES
  0
LINE
  5
28
100
AcDbEntity
  8
ﾚｲﾔｰ1
100
AcDbLine
 10
283.8466145833
 20
140.0105960319
 30
0.0
 11
283.8466145833
 21
156.013362959
 31
0.0
  0
LINE
  5
29
100
AcDbEntity
  8
ﾚｲﾔｰ1
  6
BORDER
 62
         3
100
AcDbLine
 10
292.3466145833
 20
90.4305960319
 30
0.0
 11
292.3466145833
 21
176.1905960319
 31
0.0
  0
LINE
  5
2A
100
AcDbEntity
  8
ﾚｲﾔｰ1
100
AcDbLine
 10
281.8466175367
 20
107.0105960319
 30
0.0
 11
281.8466175367
 21
109.0105960319
 31
0.0
  0
ARC
  5
2B
100
AcDbEntity
  8
ﾚｲﾔｰ1
100
AcDbCircle
 10
-273.5966145833
 20
113.3305080934
 30
0.0
 40
5.0
210
0.0
220
0.0
230
-1.0
100
AcDbArc
 50
0.0
 51
37.1197123027
  0
LINE
  5
2C
100
AcDbEntity
  8
ﾚｲﾔｰ1
100
AcDbLine
 10
272.408130148
 20
120.0454195967
 30
0.0
 11
269.6097328274
 21
116.3479198758
 31
0.0
  0
ARC
  5
2D
100
AcDbEntity
  8
ﾚｲﾔｰ1
100
AcDbCircle
 10
-280.3818936598
 20
114.010596032
 30
0.0
 40
10.0
210
0.0
220
0.0
230
-1.0
100
AcDbArc
 50
37.1197123027
 51
90.0
  0
ARC
  5
2E
100
AcDbEntity
  8
ﾚｲﾔｰ1
100
AcDbCircle
 10
280.5966145833
 20
106.010596032
 30
0.0
 40
7.0
210
0.0
220
0.0
230
1.0
100
AcDbArc
 50
207.4551395853
 51
315.4066731229
  0
LINE
  5
2F
100
AcDbEntity
  8
ﾚｲﾔｰ1
100
AcDbLine
 10
292.3466298421
 20
107.0105960319
 30
0.0
 11
292.3466145833
 21
100.9105960319
 31
0.0
  0
LINE
  5
30
100
AcDbEntity
  8
ﾚｲﾔｰ1
100
AcDbLine
 10
288.6293841146
 20
100.0105960319
 30
0.0
 11
296.0638450521
 21
100.0105960319
 31
0.0
  0
LINE
  5
31
100
AcDbEntity
  8
ﾚｲﾔｰ1
  6
BORDER
 62
         3
100
AcDbLine
 10
292.3466145833
 20
84.8574710319
 30
0.0
 11
292.3466145833
 21
182.6724609373
 31
0.0
  0
ARC
  5
32
100
AcDbEntity
  8
ﾚｲﾔｰ1
100
AcDbCircle
 10
-271.9363605456
 20
101.0105960319
 30
0.0
 40
3.0
210
0.0
220
0.0
230
-1.0
100
AcDbArc
 50
113.7920295991
 51
143.1301023609
  0
ARC
  5
33
100
AcDbEntity
  8
ﾚｲﾔｰ1
100
AcDbCircle
 10
-271.9363605456
 20
101.0105960319
 30
0.0
 40
3.0
210
0.0
220
0.0
230
-1.0
100
AcDbArc
 50
90.0
 51
150.0000000068
  0
LINE
  5
34
100
AcDbEntity
  8
ﾚｲﾔｰ1
100
AcDbLine
 10
283.432401021
 20
166.213362959
 30
0.0
 11
283.432401021
 21
163.213362959
 31
0.0
  0
LINE
  5
35
100
AcDbEntity
  8
ﾚｲﾔｰ1
100
AcDbLine
 10
268.5966145833
 20
162.0105960319
 30
0.0
 11
268.5966145833
 21
113.3305080934
 31
0.0
  0
ARC
  5
36
100
AcDbEntity
  8
ﾚｲﾔｰ1
100
AcDbCircle
 10
-273.5966145833
 20
162.0105960319
 30
0.0
 40
5.0
210
0.0
220
0.0
230
-1.0
100
AcDbArc
 50
0.0
 51
90.0
  0
LINE
  5
37
100
AcDbEntity
  8
ﾚｲﾔｰ1
100
AcDbLine
 10
284.0823567499
 20
109.0105960319
 30
0.0
 11
284.0823567499
 21
119.4605960319
 31
0.0
  0
LINE
  5
38
100
AcDbEntity
  8
ﾚｲﾔｰ1
100
AcDbLine
 10
288.0465250064
 20
140.010589048
 30
0.0
 11
288.0465509928
 21
119.8804850986
 31
0.0
  0
LINE
  5
39
100
AcDbEntity
  8
ﾚｲﾔｰ1
100
AcDbLine
 10
273.9966145833
 20
104.0605960319
 30
0.0
 11
273.9966145833
 21
114.5105960319
 31
0.0
  0
LINE
  5
3A
100
AcDbEntity
  8
ﾚｲﾔｰ1
100
AcDbLine
 10
268.5966145833
 20
104.0105960319
 30
0.0
 11
272.4307165496
 21
104.0105960319
 31
0.0
  0
LINE
  5
3B
100
AcDbEntity
  8
ﾚｲﾔｰ1
100
AcDbLine
 10
268.5966145833
 20
104.0105960319
 30
0.0
 11
272.2707165496
 21
104.0105960319
 31
0.0
  0
MTEXT
  5
3C
100
AcDbEntity
  8
ﾚｲﾔｰ1
100
AcDbMText
 10
265.0375331467
 20
32.966432621
 30
0.0
 40
4.5034575462
 41
18.5435686221
 71
         1
 72
         1
  1
\W0.8;\fＭＳ Ｐゴシック;\W1.0;尺度
  0
MTEXT
  5
3D
100
AcDbEntity
  8
ﾚｲﾔｰ1
100
AcDbMText
 10
263.6723595332
 20
22.4033746914
 30
0.0
 40
4.6941226006
 41
10.1869928846
 71
         1
 72
         1
  1
\W0.8;\fＭＳ ゴシック;\W1.0;名\P称
  0
LINE
  5
3E
100
AcDbEntity
  8
ﾚｲﾔｰ1
100
AcDbLine
 10
279.009789286
 20
23.4850592924
 30
0.0
 11
279.009789286
 21
36.5263046907
 31
0.0
  0
LINE
  5
3F
100
AcDbEntity
  8
ﾚｲﾔｰ1
100
AcDbLine
 10
270.4462881051
 20
23.4850436491
 30
0.0
 11
270.4462881051
 21
8.85378099
 31
0.0
  0
LINE
  5
40
100
AcDbEntity
  8
ﾚｲﾔｰ1
100
AcDbLine
 10
172.5064038872
 20
107.0105960316
 30
0.0
 11
172.5064038872
 21
109.0105960316
 31
0.0
  0
LINE
  5
41
100
AcDbEntity
  8
ﾚｲﾔｰ1
100
AcDbLine
 10
151.5064038879
 20
107.0105960318
 30
0.0
 11
172.5064038872
 21
107.0105960316
 31
0.0
  0
LINE
  5
42
100
AcDbEntity
  8
ﾚｲﾔｰ1
100
AcDbLine
 10
175.506406841
 20
156.0105960312
 30
0.0
 11
175.5064068416
 21
165.0105960316
 31
0.0
  0
LINE
  5
43
100
AcDbEntity
  8
ﾚｲﾔｰ1
100
AcDbLine
 10
175.5064068416
 20
165.0105960316
 30
0.0
 11
172.5064068418
 21
165.0105960312
 31
0.0
  0
LINE
  5
44
100
AcDbEntity
  8
ﾚｲﾔｰ1
100
AcDbLine
 10
157.4064068411
 20
165.0105960316
 30
0.0
 11
172.5064068418
 21
165.0105960312
 31
0.0
  0
LINE
  5
45
100
AcDbEntity
  8
ﾚｲﾔｰ1
100
AcDbLine
 10
153.5064068415
 20
146.0105960317
 30
0.0
 11
153.5064068414
 21
140.0105960316
 31
0.0
  0
LINE
  5
46
100
AcDbEntity
  8
ﾚｲﾔｰ1
100
AcDbLine
 10
154.2064068408
 20
146.0105960318
 30
0.0
 11
165.5064068417
 21
146.0105960316
 31
0.0
  0
ARC
  5
47
100
AcDbEntity
  8
ﾚｲﾔｰ1
100
AcDbCircle
 10
-127.0064068413
 20
136.0583984376
 30
0.0
 40
24.3
210
0.0
220
0.0
230
-1.0
100
AcDbArc
 50
90.0
 51
145.6821687183
  0
LINE
  5
48
100
AcDbEntity
  8
ﾚｲﾔｰ1
100
AcDbLine
 10
172.5064038872
 20
109.0105960316
 30
0.0
 11
151.506403888
 21
109.0105960318
 31
0.0
  0
LINE
  5
49
100
AcDbEntity
  8
ﾚｲﾔｰ1
100
AcDbLine
 10
169.0064068414
 20
109.0105960319
 30
0.0
 11
144.2835784174
 21
109.0105960317
 31
0.0
  0
ARC
  5
4A
100
AcDbEntity
  8
ﾚｲﾔｰ1
100
AcDbCircle
 10
-145.2588131735
 20
99.0105960313
 30
0.0
 40
10.0
210
0.0
220
0.0
230
-1.0
100
AcDbArc
 50
63.7718338466
 51
90.000000004
  0
ARC
  5
4B
100
AcDbEntity
  8
ﾚｲﾔｰ1
100
AcDbCircle
 10
288.9639917196
 20
106.7551378037
 30
0.0
 40
6.7528368824
210
0.0
220
0.0
230
1.0
100
AcDbArc
 50
239.9391948645
 51
300.0608051355
  0
LINE
  5
4C
100
AcDbEntity
  8
ﾚｲﾔｰ1
100
AcDbLine
 10
285.5813688558
 20
100.9105960319
 30
0.0
 11
285.5813841146
 21
107.0105960319
 31
0.0
  0
LINE
  5
4D
100
AcDbEntity
  8
ﾚｲﾔｰ1
100
AcDbLine
 10
283.8466145833
 20
156.013362959
 30
0.0
 11
283.8466145833
 21
140.0105960319
 31
0.0
  0
LINE
  5
4E
100
AcDbEntity
  8
ﾚｲﾔｰ1
100
AcDbLine
 10
282.8466145833
 20
158.013362959
 30
0.0
 11
282.8466145833
 21
144.0105960319
 31
0.0
  0
ARC
  5
4F
100
AcDbEntity
  8
ﾚｲﾔｰ1
100
AcDbCircle
 10
-284.8466145833
 20
158.013362959
 30
0.0
 40
2.0
210
0.0
220
0.0
230
-1.0
100
AcDbArc
 50
0.0
 51
90.0
  0
LINE
  5
50
100
AcDbEntity
  8
ﾚｲﾔｰ1
100
AcDbLine
 10
279.6466145833
 20
158.213362959
 30
0.0
 11
279.6466145833
 21
144.0105960319
 31
0.0
  0
ARC
  5
51
100
AcDbEntity
  8
ﾚｲﾔｰ1
100
AcDbCircle
 10
-284.6466145833
 20
158.213362959
 30
0.0
 40
5.0
210
0.0
220
0.0
230
-1.0
100
AcDbArc
 50
0.0
 51
90.0
  0
LINE
  5
52
100
AcDbEntity
  8
ﾚｲﾔｰ1
100
AcDbLine
 10
274.2515950521
 20
144.0105960319
 30
0.0
 11
282.8466145833
 21
144.0105960319
 31
0.0
  0
LINE
  5
53
100
AcDbEntity
  8
ﾚｲﾔｰ1
100
AcDbLine
 10
274.2515950521
 20
144.0105960319
 30
0.0
 11
268.5966145833
 21
155.7882978548
 31
0.0
  0
LINE
  5
54
100
AcDbEntity
  8
ﾚｲﾔｰ1
  6
BORDER
 62
         3
100
AcDbLine
 10
292.3466145833
 20
182.6724609373
 30
0.0
 11
292.3466145833
 21
243.1003850567
 31
0.0
  0
LINE
  5
55
100
AcDbEntity
  8
ﾚｲﾔｰ1
100
AcDbLine
 10
280.8545859637
 20
219.9387060699
 30
0.0
 11
278.8828666139
 21
167.0105960319
 31
0.0
  0
LINE
  5
56
100
AcDbEntity
  8
ﾚｲﾔｰ1
100
AcDbLine
 10
272.8601312717
 20
220.2365217484
 30
0.0
 11
270.8466145833
 21
166.186419304
 31
0.0
  0
LINE
  5
57
100
AcDbEntity
  8
ﾚｲﾔｰ1
100
AcDbLine
 10
268.5966145833
 20
104.0105960319
 30
0.0
 11
268.5966145833
 21
113.3305080934
 31
0.0
  0
LINE
  5
58
100
AcDbEntity
  8
ﾚｲﾔｰ1
100
AcDbLine
 10
287.0465250064
 20
140.0105874238
 30
0.0
 11
287.0465509928
 21
119.8804834745
 31
0.0
  0
LINE
  5
59
100
AcDbEntity
  8
ﾚｲﾔｰ1
100
AcDbLine
 10
167.0064068417
 20
140.0105960313
 30
0.0
 11
167.0064068414
 21
123.1907448599
 31
0.0
  0
ARC
  5
5A
100
AcDbEntity
  8
ﾚｲﾔｰ1
100
AcDbCircle
 10
-165.5064068418
 20
156.0105960318
 30
0.0
 40
10.0
210
0.0
220
0.0
230
-1.0
100
AcDbArc
 50
180.0000000158
 51
270.0000000275
  0
LINE
  5
5B
100
AcDbEntity
  8
ﾚｲﾔｰ1
100
AcDbLine
 10
170.5064068414
 20
140.0105960319
 30
0.0
 11
153.5064068414
 21
140.0105960316
 31
0.0
  0
ARC
  5
5C
100
AcDbEntity
  8
ﾚｲﾔｰ1
100
AcDbCircle
 10
-154.9062242446
 20
156.010596032
 30
0.0
 40
10.0
210
0.0
220
0.0
230
-1.0
100
AcDbArc
 50
270.0000000276
 51
324.4300302487
  0
LINE
  5
5D
100
AcDbEntity
  8
ﾚｲﾔｰ1
100
AcDbLine
 10
151.506403888
 20
109.0105960318
 30
0.0
 11
151.5064038879
 21
107.0105960318
 31
0.0
  0
LINE
  5
5E
100
AcDbEntity
  8
ﾚｲﾔｰ1
100
AcDbLine
 10
175.0064068415
 20
120.2789829859
 30
0.0
 11
175.0064068415
 21
116.9289829862
 31
0.0
  0
LINE
  5
5F
100
AcDbEntity
  8
ﾚｲﾔｰ1
100
AcDbLine
 10
170.5064068414
 20
140.0105960319
 30
0.0
 11
170.5064068415
 21
147.3503419935
 31
0.0
  0
LINE
  5
60
100
AcDbEntity
  8
ﾚｲﾔｰ1
100
AcDbLine
 10
157.4064068411
 20
165.0105960316
 30
0.0
 11
156.9921211273
 21
165.0105960311
 31
0.0
  0
LINE
  5
61
100
AcDbEntity
  8
ﾚｲﾔｰ1
100
AcDbLine
 10
166.3064068411
 20
140.0105960317
 30
0.0
 11
166.306406841
 21
123.4408616363
 31
0.0
  0
LINE
  5
62
100
AcDbEntity
  8
ﾚｲﾔｰ1
  6
BORDER
 62
         3
100
AcDbLine
 10
162.0064068412
 20
90.4305960316
 30
0.0
 11
162.0064068412
 21
173.1105960322
 31
0.0
  0
LINE
  5
63
100
AcDbEntity
  8
ﾚｲﾔｰ1
100
AcDbLine
 10
151.5064068411
 20
166.3347339628
 30
0.0
 11
151.5064068412
 21
167.0105960319
 31
0.0
  0
LINE
  5
64
100
AcDbEntity
  8
ﾚｲﾔｰ1
100
AcDbLine
 10
157.4064068413
 20
164.9105960315
 30
0.0
 11
148.7064068417
 21
167.0105960317
 31
0.0
  0
LINE
  5
65
100
AcDbEntity
  8
ﾚｲﾔｰ1
100
AcDbLine
 10
157.4064038879
 20
107.0105960316
 30
0.0
 11
157.4064191461
 21
100.9105960317
 31
0.0
  0
LINE
  5
66
100
AcDbEntity
  8
ﾚｲﾔｰ1
100
AcDbLine
 10
152.8064038878
 20
107.0105960313
 30
0.0
 11
152.8064191469
 21
100.9105960318
 31
0.0
  0
ARC
  5
67
100
AcDbEntity
  8
ﾚｲﾔｰ1
100
AcDbCircle
 10
-167.1064068412
 20
116.9885364996
 30
0.0
 40
8.0
210
0.0
220
0.0
230
-1.0
100
AcDbArc
 50
180.0000000158
 51
270.0000000275
  0
LINE
  5
68
100
AcDbEntity
  8
ﾚｲﾔｰ1
100
AcDbLine
 10
162.0064068408
 20
125.0105960313
 30
0.0
 11
175.0064068415
 21
120.2789829859
 31
0.0
  0
LINE
  5
69
100
AcDbEntity
  8
ﾚｲﾔｰ1
100
AcDbLine
 10
162.0064038876
 20
112.0105960318
 30
0.0
 11
162.0064191467
 21
96.5105960313
 31
0.0
  0
ARC
  5
6A
100
AcDbEntity
  8
ﾚｲﾔｰ1
100
AcDbCircle
 10
-168.9064191462
 20
103.4105960312
 30
0.0
 40
3.4
210
0.0
220
0.0
230
-1.0
100
AcDbArc
 50
227.300000022
 51
312.7000000332
  0
ELLIPSE
  5
6B
100
AcDbEntity
  8
ﾚｲﾔｰ1
100
AcDbEllipse
 10
155.1064191463
 20
103.4105960317
 30
0.0
 11
-2.4987096243980651
 21
-2.3057428765906689
 31
0.0
210
0.0
220
0.0
230
-1.0
 40
1.0
 41
-1.5707963267948966
 42
-0.0802851453978368
  0
DIMENSION
  5
7E
100
AcDbEntity
  8
寸法線
 62
         3
100
AcDbDimension
  2
*D0
 10
123.006406843
 20
262.8486328126
 30
0.0
 11
127.006406843
 21
262.8486328126
 31
0.0
 70
       128
210
0.0
220
0.0
230
1.0
  1
<>
  3
VELDIM0
100
AcDbAlignedDimension
 13
123.006406843
 23
236.2083984376
 33
0.0
 14
131.006406843
 24
236.2083984376
 34
0.0
100
AcDbRotatedDimension
  0
CIRCLE
  5
7F
100
AcDbEntity
  8
ﾚｲﾔｰ1
100
AcDbCircle
 10
127.006406843
 20
236.2083984376
 30
0.0
 40
4.0
210
0.0
220
0.0
230
1.0
  0
LINE
  5
80
100
AcDbEntity
  8
ﾚｲﾔｰ1
100
AcDbLine
 10
123.006406843
 20
236.2083984376
 30
0.0
 11
123.0371100632
 21
167.0072777879
 31
0.0
  0
LINE
  5
81
100
AcDbEntity
  8
ﾚｲﾔｰ1
100
AcDbLine
 10
131.006406843
 20
236.2083984376
 30
0.0
 11
131.037109375
 21
167.0105960319
 31
0.0
  0
LINE
  5
82
100
AcDbEntity
  8
ﾚｲﾔｰ1
  6
BORDER
 62
         3
100
AcDbLine
 10
127.0064068412
 20
101.7146125832
 30
0.0
 11
127.006406838
 21
244.0527768343
 31
0.0
  0
LINE
  5
83
100
AcDbEntity
  8
ﾚｲﾔｰ1
100
AcDbLine
 10
171.2064038878
 20
107.0105960312
 30
0.0
 11
152.8064038878
 21
107.0105960313
 31
0.0
  0
LINE
  5
84
100
AcDbEntity
  8
ﾚｲﾔｰ1
100
AcDbLine
 10
81.2813307036
 20
124.010596032
 30
0.0
 11
89.3628875944
 21
117.4662802986
 31
0.0
  0
CIRCLE
  5
85
100
AcDbEntity
  8
ﾚｲﾔｰ1
100
AcDbCircle
 10
-95.5426092188
 20
124.0092949435
 30
0.0
 40
5.25
210
0.0
220
0.0
230
-1.0
  0
ARC
  5
86
100
AcDbEntity
  8
ﾚｲﾔｰ1
100
AcDbCircle
 10
-99.0064068409
 20
160.0105960323
 30
0.0
 40
7.0
210
0.0
220
0.0
230
-1.0
100
AcDbArc
 50
0.0000000393
 51
90.000000004
  0
LINE
  5
87
100
AcDbEntity
  8
ﾚｲﾔｰ1
100
AcDbLine
 10
92.0064068419
 20
160.0105960324
 30
0.0
 11
92.0064068413
 21
147.010596032
 31
0.0
  0
LINE
  5
88
100
AcDbEntity
  8
ﾚｲﾔｰ1
100
AcDbLine
 10
92.0064068413
 20
147.010596032
 30
0.0
 11
81.2813307036
 21
124.010596032
 31
0.0
  0
LINE
  5
89
100
AcDbEntity
  8
ﾚｲﾔｰ1
  6
BORDER
 62
         3
100
AcDbLine
 10
95.5426092191
 20
115.0092949436
 30
0.0
 11
95.5426092198
 21
133.009294943
 31
0.0
  0
ARC
  5
8A
100
AcDbEntity
  8
ﾚｲﾔｰ1
100
AcDbCircle
 10
-95.5426092188
 20
124.0092949435
 30
0.0
 40
9.0
210
0.0
220
0.0
230
-1.0
100
AcDbArc
 50
167.7943023852
 51
313.4596237453
  0
LINE
  5
8B
100
AcDbEntity
  8
ﾚｲﾔｰ1
100
AcDbLine
 10
106.7758618208
 20
117.7276851889
 30
0.0
 11
104.4758618214
 21
126.0276851887
 31
0.0
  0
ARC
  5
8C
100
AcDbEntity
  8
ﾚｲﾔｰ1
100
AcDbCircle
 10
-127.0064068413
 20
136.0583984376
 30
0.0
 40
24.3
210
0.0
220
0.0
230
-1.0
100
AcDbArc
 50
347.5982115967
 51
90.0
  0
LINE
  5
8D
100
AcDbEntity
  8
ﾚｲﾔｰ1
100
AcDbLine
 10
103.2557113829
 20
130.9208440326
 30
0.0
 11
104.3391630929
 21
125.912092871
 31
0.0
  0
LINE
  5
8E
100
AcDbEntity
  8
ﾚｲﾔｰ1
100
AcDbLine
 10
105.4691727992
 20
167.010596032
 30
0.0
 11
98.1064068418
 21
167.0105960324
 31
0.0
  0
LINE
  5
8F
100
AcDbEntity
  8
ﾚｲﾔｰ1
  6
BORDER
 62
         3
100
AcDbLine
 10
104.5426092192
 20
124.009294943
 30
0.0
 11
86.5426092189
 21
124.0092949432
 31
0.0
  0
LINE
  5
90
100
AcDbEntity
  8
ﾚｲﾔｰ1
100
AcDbLine
 10
105.0142808588
 20
167.0105960319
 30
0.0
 11
151.0142808588
 21
167.0105960319
 31
0.0
  0
LINE
  5
91
100
AcDbEntity
  8
ﾚｲﾔｰ1
  6
BORDER
 62
         3
100
AcDbLine
 10
153.6142154739
 20
136.0583984383
 30
0.0
 11
100.398598207
 21
136.058398439
 31
0.0
  0
CIRCLE
  5
92
100
AcDbEntity
  8
ﾚｲﾔｰ1
100
AcDbCircle
 10
-127.0064068413
 20
136.0583984376
 30
0.0
 40
24.3
210
0.0
220
0.0
230
-1.0
  0
ARC
  5
93
100
AcDbEntity
  8
ﾚｲﾔｰ1
100
AcDbCircle
 10
-127.0064068413
 20
136.0583984376
 30
0.0
 40
31.3
210
0.0
220
0.0
230
-1.0
100
AcDbArc
 50
243.007876205
 51
323.6915694346
  0
DIMENSION
  5
A4
100
AcDbEntity
  8
寸法線
 62
         3
100
AcDbDimension
  2
*D1
 10
175.1064068412
 20
81.7250000001
 30
0.0
 11
128.1938687724
 21
81.7250000001
 31
0.0
 70
       128
210
0.0
220
0.0
230
1.0
  1
94
  3
VELDIM0
100
AcDbAlignedDimension
 13
175.1064068412
 23
116.9885364973
 33
0.0
 14
81.2813307036
 24
124.010596032
 34
0.0
100
AcDbRotatedDimension
  0
ARC
  5
A5
100
AcDbEntity
  8
ﾚｲﾔｰ1
100
AcDbCircle
 10
-127.0064068413
 20
136.0583984376
 30
0.0
 40
24.3
210
0.0
220
0.0
230
-1.0
100
AcDbArc
 50
203.8293453119
 51
334.972179486
  0
ARC
  5
A6
100
AcDbEntity
  8
ﾚｲﾔｰ1
100
AcDbCircle
 10
-127.0064068413
 20
136.0583984376
 30
0.0
 40
27.3
210
0.0
220
0.0
230
-1.0
100
AcDbArc
 50
201.0766601516
 51
318.8872419279
  0
LINE
  5
A7
100
AcDbEntity
  8
ﾚｲﾔｰ1
100
AcDbLine
 10
172.5064068418
 20
165.0105960312
 30
0.0
 11
172.5064068418
 21
167.0105960312
 31
0.0
  0
LINE
  5
A8
100
AcDbEntity
  8
ﾚｲﾔｰ1
100
AcDbLine
 10
153.5064068414
 20
140.0105960316
 30
0.0
 11
170.5064068414
 21
140.0105960319
 31
0.0
  0
LINE
  5
A9
100
AcDbEntity
  8
ﾚｲﾔｰ1
100
AcDbLine
 10
156.7064068411
 20
140.010596031
 30
0.0
 11
156.7064068413
 21
126.2408616365
 31
0.0
  0
LINE
  5
AA
100
AcDbEntity
  8
ﾚｲﾔｰ1
100
AcDbLine
 10
151.5064068412
 20
167.0105960319
 30
0.0
 11
163.9064068411
 21
167.0105960318
 31
0.0
  0
LINE
  5
AB
100
AcDbEntity
  8
ﾚｲﾔｰ1
100
AcDbLine
 10
172.5064068418
 20
167.0105960312
 30
0.0
 11
160.1064068419
 21
167.0105960312
 31
0.0
  0
LINE
  5
AC
100
AcDbEntity
  8
ﾚｲﾔｰ1
100
AcDbLine
 10
157.7064068409
 20
140.0105960314
 30
0.0
 11
157.7064068411
 21
126.2408616369
 31
0.0
  0
MTEXT
  5
AD
100
AcDbEntity
  8
ﾚｲﾔｰ1
100
AcDbMText
 10
356.5511726958
 20
5.4250492581
 30
0.0
 40
6.3548531771
 41
99.6442303537
 71
         1
 72
         1
  1
\W0.8;\fＭＳ ゴシック;\W1.0;０１２２０１５
  0
MTEXT
  5
AE
100
AcDbEntity
  8
ﾚｲﾔｰ1
100
AcDbMText
 10
346.2425985307
 20
7.3466019169
 30
0.0
 40
4.1098497391
 41
7.2473130716
 71
         1
 72
         1
  1
\W0.8;\fＭＳ ゴシック;\W1.0;図
  0
MTEXT
  5
AF
100
AcDbEntity
  8
ﾚｲﾔｰ1
100
AcDbMText
 10
346.2425985307
 20
0.350781644
 30
0.0
 40
4.1098497391
 41
7.2473130716
 71
         1
 72
         1
  1
\W0.8;\fＭＳ ゴシック;\W1.0;番
  0
MTEXT
  5
B0
100
AcDbEntity
  8
ﾚｲﾔｰ1
100
AcDbMText
 10
334.4025265335
 20
32.9971598039
 30
0.0
 40
4.5498555899
 41
37.4112590223
 71
         1
 72
         1
  1
\W0.8;\fＭＳ ゴシック;\W1.0;2001.1.26
  0
MTEXT
  5
B1
100
AcDbEntity
  8
ﾚｲﾔｰ1
100
AcDbMText
 10
316.3963142353
 20
32.7132558708
 30
0.0
 40
4.1181168795
 41
22.3856817136
 71
         1
 72
         1
  1
\W0.8;\fＭＳ ゴシック;\W1.0;作成日
  0
MTEXT
  5
B2
100
AcDbEntity
  8
ﾚｲﾔｰ1
100
AcDbMText
 10
283.7789650744
 20
33.1148993893
 30
0.0
 40
4.7290847778
 41
43.0077461429
 71
         1
 72
         1
  1
\W0.8;\fＭＳ Ｐゴシック;\W1.0;1/２
  0
LINE
  5
B3
100
AcDbEntity
  8
ﾚｲﾔｰ1
100
AcDbLine
 10
433.3040091143
 20
8.9298990512
 30
0.0
 11
262.8351632662
 21
8.9298990512
 31
0.0
  0
LINE
  5
B4
100
AcDbEntity
  8
ﾚｲﾔｰ1
100
AcDbLine
 10
333.2200731573
 20
23.4852206985
 30
0.0
 11
333.2200731573
 21
36.5264660968
 31
0.0
  0
LINE
  5
B5
100
AcDbEntity
  8
ﾚｲﾔｰ1
100
AcDbLine
 10
316.2471818489
 20
23.4851896934
 30
0.0
 11
316.2471818489
 21
36.5264350917
 31
0.0
  0
LINE
  5
B6
100
AcDbEntity
  8
ﾚｲﾔｰ1
100
AcDbLine
 10
433.3040091143
 20
23.4853189683
 30
0.0
 11
262.8351632662
 21
23.4850297455
 31
0.0
  0
LINE
  5
B7
100
AcDbEntity
  8
ﾚｲﾔｰ1
100
AcDbLine
 10
362.5769787689
 20
23.4852825553
 30
0.0
 11
362.5769787689
 21
36.5265279537
 31
0.0
  0
LINE
  5
B8
100
AcDbEntity
  8
ﾚｲﾔｰ1
100
AcDbLine
 10
262.8351632662
 20
36.5264350917
 30
0.0
 11
433.3040091143
 21
36.5264350917
 31
0.0
  0
LINE
  5
B9
100
AcDbEntity
  8
ﾚｲﾔｰ1
100
AcDbLine
 10
352.6464363657
 20
-6.2923506267
 30
0.0
 11
352.6464363657
 21
8.9298990512
 31
0.0
  0
LINE
  5
BA
100
AcDbEntity
  8
ﾚｲﾔｰ1
100
AcDbLine
 10
345.0353115267
 20
8.9298990512
 30
0.0
 11
345.0353115267
 21
-6.2923506267
 31
0.0
  0
LINE
  5
BB
100
AcDbEntity
  8
ﾚｲﾔｰ1
100
AcDbLine
 10
20.025
 20
-6.2923506267
 30
0.0
 11
433.3040091143
 21
-6.2923506267
 31
0.0
  0
LINE
  5
BC
100
AcDbEntity
  8
ﾚｲﾔｰ1
100
AcDbLine
 10
20.025
 20
301.90625
 30
0.0
 11
20.025
 21
-6.2923506267
 31
0.0
  0
LINE
  5
BD
100
AcDbEntity
  8
ﾚｲﾔｰ1
100
AcDbLine
 10
433.56875
 20
301.90625
 30
0.0
 11
20.025
 21
301.90625
 31
0.0
  0
LINE
  5
BE
100
AcDbEntity
  8
ﾚｲﾔｰ1
100
AcDbLine
 10
433.3040091143
 20
-6.2923506267
 30
0.0
 11
433.56875
 21
301.90625
 31
0.0
  0
LINE
  5
BF
100
AcDbEntity
  8
ﾚｲﾔｰ1
100
AcDbLine
 10
262.8351632662
 20
-6.2923506267
 30
0.0
 11
262.8351632662
 21
36.5264350917
 31
0.0
  0
LINE
  5
C0
100
AcDbEntity
  8
ﾚｲﾔｰ1
100
AcDbLine
 10
168.9064191467
 20
100.0105960317
 30
0.0
 11
155.1064191459
 21
100.0105960317
 31
0.0
  0
LINE
  5
C1
100
AcDbEntity
  8
ﾚｲﾔｰ1
100
AcDbLine
 10
166.6064038872
 20
107.0105960318
 30
0.0
 11
166.6064191468
 21
100.9105960314
 31
0.0
  0
LINE
  5
C2
100
AcDbEntity
  8
ﾚｲﾔｰ1
100
AcDbLine
 10
161.7024815746
 20
125.2293147073
 30
0.0
 11
158.9232792275
 21
126.2408616363
 31
0.0
  0
LINE
  5
C3
100
AcDbEntity
  8
ﾚｲﾔｰ1
100
AcDbLine
 10
149.2349014182
 20
126.2408616361
 30
0.0
 11
158.9232792275
 21
126.2408616363
 31
0.0
  0
ARC
  5
C4
100
AcDbEntity
  8
ﾚｲﾔｰ1
100
AcDbCircle
 10
-162.0064191468
 20
112.210596032
 30
0.0
 40
12.2
210
0.0
220
0.0
230
-1.0
100
AcDbArc
 50
247.9000000247
 51
292.1000000304
  0
LINE
  5
C5
100
AcDbEntity
  8
ﾚｲﾔｰ1
100
AcDbLine
 10
171.206419146
 20
100.9105960312
 30
0.0
 11
171.2064038878
 21
107.0105960312
 31
0.0
  0
LINE
  5
C6
100
AcDbEntity
  8
ﾚｲﾔｰ1
100
AcDbLine
 10
299.1118755697
 20
107.0105960319
 30
0.0
 11
299.1118603109
 21
100.9105960319
 31
0.0
  0
ARC
  5
C7
100
AcDbEntity
  8
ﾚｲﾔｰ1
100
AcDbCircle
 10
-295.7292374471
 20
106.7551378037
 30
0.0
 40
6.7528368824
210
0.0
220
0.0
230
-1.0
100
AcDbArc
 50
239.9391948645
 51
300.0608051355
  0
ELLIPSE
  5
C8
100
AcDbEntity
  8
ﾚｲﾔｰ1
100
AcDbEllipse
 10
312.7568686211
 20
101.0105960319
 30
0.0
 11
1.5000000018262662
 21
2.5980762103015422
 31
0.0
210
0.0
220
0.0
230
-1.0
 40
1.0
 41
-1.5707963267948966
 42
-0.5235987763007843
  0
LINE
  5
C9
100
AcDbEntity
  8
ﾚｲﾔｰ1
100
AcDbLine
 10
283.432401021
 20
163.213362959
 30
0.0
 11
301.2608281457
 21
163.213362959
 31
0.0
  0
LINE
  5
CA
100
AcDbEntity
  8
ﾚｲﾔｰ1
100
AcDbLine
 10
301.2608281457
 20
166.213362959
 30
0.0
 11
301.2608281457
 21
163.213362959
 31
0.0
  0
LINE
  5
CB
100
AcDbEntity
  8
ﾚｲﾔｰ1
100
AcDbLine
 10
273.5966145833
 20
167.0105960319
 30
0.0
 11
311.0966145833
 21
167.0105960319
 31
0.0
  0
LINE
  5
CC
100
AcDbEntity
  8
ﾚｲﾔｰ1
100
AcDbLine
 10
300.0466145833
 20
163.213362959
 30
0.0
 11
284.6466135719
 21
163.213362959
 31
0.0
  0
LINE
  5
CD
100
AcDbEntity
  8
ﾚｲﾔｰ1
100
AcDbLine
 10
299.8466145833
 20
160.013362959
 30
0.0
 11
284.8466144337
 21
160.013362959
 31
0.0
  0
LINE
  5
CE
100
AcDbEntity
  8
ﾚｲﾔｰ1
100
AcDbLine
 10
316.0966145833
 20
162.0105960319
 30
0.0
 11
316.0966145833
 21
113.3305080934
 31
0.0
  0
ARC
  5
CF
100
AcDbEntity
  8
ﾚｲﾔｰ1
100
AcDbCircle
 10
311.0966145833
 20
162.0105960319
 30
0.0
 40
5.0
210
0.0
220
0.0
230
1.0
100
AcDbArc
 50
0.0
 51
90.0
  0
LINE
  5
D0
100
AcDbEntity
  8
ﾚｲﾔｰ1
100
AcDbLine
 10
310.4416341146
 20
144.0105960319
 30
0.0
 11
316.0966145833
 21
155.7882978548
 31
0.0
  0
LINE
  5
D1
100
AcDbEntity
  8
ﾚｲﾔｰ1
100
AcDbLine
 10
310.4416341146
 20
144.0105960319
 30
0.0
 11
301.8466145833
 21
144.0105960319
 31
0.0
  0
ARC
  5
D2
100
AcDbEntity
  8
ﾚｲﾔｰ1
100
AcDbCircle
 10
300.0466145833
 20
158.213362959
 30
0.0
 40
5.0
210
0.0
220
0.0
230
1.0
100
AcDbArc
 50
0.0
 51
90.0
  0
ARC
  5
D3
100
AcDbEntity
  8
ﾚｲﾔｰ1
100
AcDbCircle
 10
299.8466145833
 20
158.013362959
 30
0.0
 40
2.0
210
0.0
220
0.0
230
1.0
100
AcDbArc
 50
0.0
 51
90.0
  0
LINE
  5
D4
100
AcDbEntity
  8
ﾚｲﾔｰ1
100
AcDbLine
 10
301.8466145833
 20
158.013362959
 30
0.0
 11
301.8466145833
 21
144.0105960319
 31
0.0
  0
LINE
  5
D5
100
AcDbEntity
  8
ﾚｲﾔｰ1
100
AcDbLine
 10
300.8466145833
 20
156.013362959
 30
0.0
 11
300.8466145833
 21
140.0105960319
 31
0.0
  0
LINE
  5
D6
100
AcDbEntity
  8
ﾚｲﾔｰ1
100
AcDbLine
 10
300.6108724168
 20
109.0105960319
 30
0.0
 11
300.6108724168
 21
119.4605960319
 31
0.0
  0
LINE
  5
D7
100
AcDbEntity
  8
ﾚｲﾔｰ1
100
AcDbLine
 10
297.6466145833
 20
140.0105960319
 30
0.0
 11
297.6466145833
 21
119.8804920825
 31
0.0
  0
LINE
  5
D8
100
AcDbEntity
  8
ﾚｲﾔｰ1
100
AcDbLine
 10
296.6466145833
 20
140.0105960319
 30
0.0
 11
296.6466145833
 21
119.8804920825
 31
0.0
  0
LINE
  5
D9
100
AcDbEntity
  8
ﾚｲﾔｰ1
100
AcDbLine
 10
316.0966145833
 20
104.0105960319
 30
0.0
 11
312.4225126171
 21
104.0105960319
 31
0.0
  0
MTEXT
  5
DA
100
AcDbEntity
  8
ﾚｲﾔｰ1
100
AcDbMText
 10
324.8846354167
 20
57.8405598958
 30
0.0
 40
4.8293418407
 41
88.6537358398
 71
         1
 72
         1
  1
\W0.8;\fＭＳ Ｐゴシック;\W1.0;φ48.6、φ42.7兼用
  0
MTEXT
  5
DB
100
AcDbEntity
  8
ﾚｲﾔｰ1
100
AcDbMText
 10
267.1632033235
 20
5.7559296628
 30
0.0
 40
6.9172331333
 41
99.8235369688
 71
         1
 72
         1
  1
\W0.8;\fＭＳ ゴシック;\W1.0;日本機電株式会社
  0
MTEXT
  5
DC
100
AcDbEntity
  8
ﾚｲﾔｰ1
100
AcDbMText
 10
369.5156030734
 20
20.5543354729
 30
0.0
 40
6.5757593393
 41
73.6231101115
 71
         1
 72
         1
  1
\W0.8;\fＭＳ Ｐゴシック;\W1.0;Ｍ４　カプラー
  0
MTEXT
  5
DD
100
AcDbEntity
  8
ﾚｲﾔｰ1
100
AcDbMText
 10
279.4241510261
 20
19.5913760372
 30
0.0
 40
5.1110471725
 41
116.2872533066
 71
         1
 72
         1
  1
\W0.8;\fＭＳ ゴシック;\W1.0;ＮＫキャスターゲート
  0
MTEXT
  5
DE
100
AcDbEntity
  8
ﾚｲﾔｰ1
100
AcDbMText
 10
426.0603037158
 20
32.0159665794
 30
0.0
 40
4.0519226074
 41
9.5589945615
 71
         1
 72
         1
  1
\W0.8;\fＭＳ ゴシック;\W1.0;殿
  0
LINE
  5
DF
100
AcDbEntity
  8
ﾚｲﾔｰ1
100
AcDbLine
 10
283.432401021
 20
166.213362959
 30
0.0
 11
301.2608281457
 21
166.213362959
 31
0.0
  0
LINE
  5
E0
100
AcDbEntity
  8
ﾚｲﾔｰ1
100
AcDbLine
 10
301.8466145833
 20
156.013362959
 30
0.0
 11
282.8466145833
 21
156.013362959
 31
0.0
  0
LINE
  5
E1
100
AcDbEntity
  8
ﾚｲﾔｰ1
100
AcDbLine
 10
303.838643203
 20
219.9387060699
 30
0.0
 11
305.8103625528
 21
167.0105960319
 31
0.0
  0
LINE
  5
E2
100
AcDbEntity
  8
ﾚｲﾔｰ1
100
AcDbLine
 10
305.0466145833
 20
158.213362959
 30
0.0
 11
305.0466145833
 21
144.0105960319
 31
0.0
  0
ARC
  5
E3
100
AcDbEntity
  8
ﾚｲﾔｰ1
100
AcDbCircle
 10
292.3466145833
 20
219.5105960319
 30
0.0
 40
11.5
210
0.0
220
0.0
230
1.0
100
AcDbArc
 50
2.133439635
 51
177.8665630797
  0
ARC
  5
E4
100
AcDbEntity
  8
ﾚｲﾔｰ1
100
AcDbCircle
 10
292.3466145833
 20
219.5105960319
 30
0.0
 40
19.5
210
0.0
220
0.0
230
1.0
100
AcDbArc
 50
2.1334412579
 51
177.8665604919
  0
LINE
  5
E5
100
AcDbEntity
  8
ﾚｲﾔｰ1
100
AcDbLine
 10
311.833097895
 20
220.2365217484
 30
0.0
 11
313.8466145833
 21
166.186419304
 31
0.0
  0
LINE
  5
E6
100
AcDbEntity
  8
ﾚｲﾔｰ1
  6
BORDER
 62
         3
100
AcDbLine
 10
320.8612700771
 20
134.8605960319
 30
0.0
 11
263.8319590896
 21
134.8605960319
 31
0.0
  0
ARC
  5
E7
100
AcDbEntity
  8
ﾚｲﾔｰ1
100
AcDbCircle
 10
292.3466145833
 20
135.8755259881
 30
0.0
 40
16.850255477
210
0.0
220
0.0
230
1.0
100
AcDbArc
 50
224.7600649766
 51
315.2399350234
  0
DIMENSION
  5
F8
100
AcDbEntity
  8
寸法線
 62
         3
100
AcDbDimension
  2
*D2
 10
316.0966145833
 20
62.32265625
 30
0.0
 11
292.3466145833
 21
62.32265625
 31
0.0
 70
       128
210
0.0
220
0.0
230
1.0
  1
<>
  3
VELDIM0
100
AcDbAlignedDimension
 13
316.0966145833
 23
104.0105960319
 33
0.0
 14
268.5966145833
 24
104.0105960319
 34
0.0
100
AcDbRotatedDimension
  0
DIMENSION
  5
109
100
AcDbEntity
  8
寸法線
 62
         3
100
AcDbDimension
  2
*D3
 10
270.8466145833
 20
261.8267578125
 30
0.0
 11
292.3466145833
 21
261.8267578125
 31
0.0
 70
       128
210
0.0
220
0.0
230
1.0
  1
43
  3
VELDIM0
100
AcDbAlignedDimension
 13
270.8466145833
 23
166.186419304
 33
0.0
 14
313.7870231822
 24
167.7860689885
 34
0.0
100
AcDbRotatedDimension
  0
DIMENSION
  5
11A
100
AcDbEntity
  8
寸法線
 62
         3
100
AcDbDimension
  2
*D4
 10
341.2013990829
 20
239.0105960319
 30
0.0
 11
341.2013990829
 21
203.0105960319
 31
0.0
 70
       128
210
0.0
220
0.0
230
1.0
  1
<>
  3
VELDIM0
100
AcDbAlignedDimension
 13
292.3466145833
 23
239.0105960319
 33
0.0
 14
305.8103625528
 24
167.0105960319
 34
0.0
 50
90.0
100
AcDbRotatedDimension
  0
ARC
  5
11B
100
AcDbEntity
  8
ﾚｲﾔｰ1
100
AcDbCircle
 10
292.3466145833
 20
134.8755259881
 30
0.0
 40
16.850255477
210
0.0
220
0.0
230
1.0
100
AcDbArc
 50
224.7600649766
 51
315.2399350234
  0
LINE
  5
11C
100
AcDbEntity
  8
ﾚｲﾔｰ1
100
AcDbLine
 10
302.8466175367
 20
107.0105960319
 30
0.0
 11
281.8466175367
 21
107.0105960319
 31
0.0
  0
LINE
  5
11D
100
AcDbEntity
  8
ﾚｲﾔｰ1
100
AcDbLine
 10
302.8466175367
 20
109.0105960319
 30
0.0
 11
302.8466175367
 21
107.0105960319
 31
0.0
  0
LINE
  5
11E
100
AcDbEntity
  8
ﾚｲﾔｰ1
100
AcDbLine
 10
300.8466145833
 20
140.0105960319
 30
0.0
 11
283.8466145833
 21
140.0105960319
 31
0.0
  0
LINE
  5
11F
100
AcDbEntity
  8
ﾚｲﾔｰ1
100
AcDbLine
 10
283.1466175367
 20
107.0105960319
 30
0.0
 11
301.5466175367
 21
107.0105960319
 31
0.0
  0
LINE
  5
120
100
AcDbEntity
  8
ﾚｲﾔｰ1
100
AcDbLine
 10
281.8466175367
 20
109.0105960319
 30
0.0
 11
302.8466175367
 21
109.0105960319
 31
0.0
  0
LINE
  5
121
100
AcDbEntity
  8
ﾚｲﾔｰ1
100
AcDbLine
 10
316.0966145833
 20
104.0105960319
 30
0.0
 11
312.2625126171
 21
104.0105960319
 31
0.0
  0
ARC
  5
122
100
AcDbEntity
  8
ﾚｲﾔｰ1
100
AcDbCircle
 10
311.0966145833
 20
113.3305080934
 30
0.0
 40
5.0
210
0.0
220
0.0
230
1.0
100
AcDbArc
 50
0.0
 51
37.1197123027
  0
LINE
  5
123
100
AcDbEntity
  8
ﾚｲﾔｰ1
100
AcDbLine
 10
312.2850990187
 20
120.0454195967
 30
0.0
 11
315.0834963393
 21
116.3479198758
 31
0.0
  0
LINE
  5
124
100
AcDbEntity
  8
ﾚｲﾔｰ1
100
AcDbLine
 10
316.0966145833
 20
104.0105960319
 30
0.0
 11
316.0966145833
 21
113.3305080934
 31
0.0
  0
LINE
  5
125
100
AcDbEntity
  8
ﾚｲﾔｰ1
100
AcDbLine
 10
310.6966145833
 20
104.0605960319
 30
0.0
 11
310.6966145833
 21
114.5105960319
 31
0.0
  0
ARC
  5
126
100
AcDbEntity
  8
ﾚｲﾔｰ1
100
AcDbCircle
 10
-304.3113355068
 20
114.010596032
 30
0.0
 40
10.0
210
0.0
220
0.0
230
-1.0
100
AcDbArc
 50
90.0
 51
142.8802876973
  0
ARC
  5
127
100
AcDbEntity
  8
ﾚｲﾔｰ1
100
AcDbCircle
 10
-304.0966145833
 20
106.010596032
 30
0.0
 40
7.1314637458
210
0.0
220
0.0
230
-1.0
100
AcDbArc
 50
207.4551395853
 51
314.3452684909
  0
ENDSEC
  0
SECTION
  2
OBJECTS
  0
DICTIONARY
  5
19
100
AcDbDictionary
  3
ACAD_GROUP
350
1A
  3
ACAD_MLINESTYLE
350
1B
  0
DICTIONARY
  5
1A
102
{ACAD_REACTORS
330
19
102
}
100
AcDbDictionary
  0
DICTIONARY
  5
1B
102
{ACAD_REACTORS
330
19
102
}
100
AcDbDictionary
  3
STANDARD
350
1C
  0
MLINESTYLE
  5
1C
102
{ACAD_REACTORS
330
1B
102
}
100
AcDbMlineStyle
  2
STANDARD
 70
         0
  3

 62
         0
 51
90.0
 52
90.0
 71
         2
 49
0.5
 62
       256
  6
BYLAYER
 49
-0.5
 62
       256
  6
BYLAYER
  0
ENDSEC
  0
EOF
