  0
SECTION
  2
HEADER
  9
$ACADVER
  1
AC1012
  9
$DWGCODEPAGE
  3
ansi_932
  9
$INSBASE
 10
0.0
 20
0.0
 30
0.0
  9
$EXTMIN
 10
1.0000000000E+20
 20
1.0000000000E+20
 30
1.0000000000E+20
  9
$EXTMAX
 10
-1.0000000000E+20
 20
-1.0000000000E+20
 30
-1.0000000000E+20
  9
$LIMMIN
 10
0.0
 20
0.0
  9
$LIMMAX
 10
0.0
 20
0.0
  9
$ORTHOMODE
 70
         0
  9
$REGENMODE
 70
         1
  9
$FILLMODE
 70
         1
  9
$QTEXTMODE
 70
         0
  9
$MIRRTEXT
 70
         1
  9
$DRAGMODE
 70
         2
  9
$LTSCALE
 40
1.0
  9
$OSMODE
 70
         0
  9
$ATTMODE
 70
         1
  9
$TEXTSIZE
 40
0.2
  9
$TRACEWID
 40
0.05
  9
$TEXTSTYLE
  7
STANDARD
  9
$CLAYER
  8
0
  9
$CELTYPE
  6
CONTINUOUS
  9
$CECOLOR
 62
       256
  9
$CELTSCALE
 40
1.0
  9
$DELOBJ
 70
         1
  9
$DISPSILH
 70
         0
  9
$DIMSCALE
 40
1.0
  9
$DIMASZ
 40
0.18
  9
$DIMEXO
 40
0.0625
  9
$DIMDLI
 40
0.38
  9
$DIMRND
 40
0.0
  9
$DIMDLE
 40
0.0
  9
$DIMEXE
 40
0.18
  9
$DIMTP
 40
0.0
  9
$DIMTM
 40
0.0
  9
$DIMTXT
 40
0.18
  9
$DIMCEN
 40
0.09
  9
$DIMTSZ
 40
0.0
  9
$DIMTOL
 70
         0
  9
$DIMLIM
 70
         0
  9
$DIMTIH
 70
         1
  9
$DIMTOH
 70
         1
  9
$DIMSE1
 70
         0
  9
$DIMSE2
 70
         0
  9
$DIMTAD
 70
         0
  9
$DIMZIN
 70
         0
  9
$DIMBLK
  1

  9
$DIMASO
 70
         1
  9
$DIMSHO
 70
         1
  9
$DIMPOST
  1

  9
$DIMAPOST
  1

  9
$DIMALT
 70
         0
  9
$DIMALTD
 70
         2
  9
$DIMALTF
 40
25.4
  9
$DIMLFAC
 40
1.0
  9
$DIMTOFL
 70
         0
  9
$DIMTVP
 40
0.0
  9
$DIMTIX
 70
         0
  9
$DIMSOXD
 70
         0
  9
$DIMSAH
 70
         0
  9
$DIMBLK1
  1

  9
$DIMBLK2
  1

  9
$DIMSTYLE
  2
STANDARD
  9
$DIMCLRD
 70
         0
  9
$DIMCLRE
 70
         0
  9
$DIMCLRT
 70
         0
  9
$DIMTFAC
 40
1.0
  9
$DIMGAP
 40
0.09
  9
$DIMJUST
 70
         0
  9
$DIMSD1
 70
         0
  9
$DIMSD2
 70
         0
  9
$DIMTOLJ
 70
         1
  9
$DIMTZIN
 70
         0
  9
$DIMALTZ
 70
         0
  9
$DIMALTTZ
 70
         0
  9
$DIMFIT
 70
         3
  9
$DIMUPT
 70
         0
  9
$DIMUNIT
 70
         2
  9
$DIMDEC
 70
         4
  9
$DIMTDEC
 70
         4
  9
$DIMALTU
 70
         2
  9
$DIMALTTD
 70
         2
  9
$DIMTXSTY
  7
STANDARD
  9
$DIMAUNIT
 70
         0
  9
$LUNITS
 70
         2
  9
$LUPREC
 70
         4
  9
$SKETCHINC
 40
0.1
  9
$FILLETRAD
 40
0.0
  9
$AUNITS
 70
         0
  9
$AUPREC
 70
         0
  9
$MENU
  1
acad
  9
$ELEVATION
 40
0.0
  9
$PELEVATION
 40
0.0
  9
$THICKNESS
 40
0.0
  9
$LIMCHECK
 70
         0
  9
$BLIPMODE
 70
         1
  9
$CHAMFERA
 40
0.0
  9
$CHAMFERB
 40
0.0
  9
$CHAMFERC
 40
0.0
  9
$CHAMFERD
 40
0.0
  9
$SKPOLY
 70
         0
  9
$TDCREATE
 40
0.000000000
  9
$TDUPDATE
 40
0.000000000
  9
$TDINDWG
 40
0.0000000000
  9
$TDUSRTIMER
 40
0.0000000000
  9
$USRTIMER
 70
         1
  9
$ANGBASE
 50
0.0
  9
$ANGDIR
 70
         0
  9
$PDMODE
 70
         3
  9
$PDSIZE
 40
-1.0
  9
$PLINEWID
 40
0.0
  9
$COORDS
 70
         0
  9
$SPLFRAME
 70
         0
  9
$SPLINETYPE
 70
         6
  9
$SPLINESEGS
 70
         8
  9
$ATTDIA
 70
         0
  9
$ATTREQ
 70
         1
  9
$HANDLING
 70
         1
  9
$HANDSEED
  5
2A3
  9
$SURFTAB1
 70
         6
  9
$SURFTAB2
 70
         6
  9
$SURFTYPE
 70
         6
  9
$SURFU
 70
         6
  9
$SURFV
 70
         6
  9
$UCSNAME
  2

  9
$UCSORG
 10
0.0
 20
0.0
 30
0.0
  9
$UCSXDIR
 10
1.0
 20
0.0
 30
0.0
  9
$UCSYDIR
 10
0.0
 20
1.0
 30
0.0
  9
$PUCSNAME
  2

  9
$PUCSORG
 10
0.0
 20
0.0
 30
0.0
  9
$PUCSXDIR
 10
1.0
 20
0.0
 30
0.0
  9
$PUCSYDIR
 10
0.0
 20
1.0
 30
0.0
  9
$USERI1
 70
         0
  9
$USERI2
 70
         0
  9
$USERI3
 70
         0
  9
$USERI4
 70
         0
  9
$USERI5
 70
         0
  9
$USERR1
 40
0.0
  9
$USERR2
 40
0.0
  9
$USERR3
 40
0.0
  9
$USERR4
 40
0.0
  9
$USERR5
 40
0.0
  9
$WORLDVIEW
 70
         1
  9
$SHADEDGE
 70
         3
  9
$SHADEDIF
 70
        70
  9
$TILEMODE
 70
         1
  9
$MAXACTVP
 70
        16
  9
$PINSBASE
 10
0.0
 20
0.0
 30
0.0
  9
$PLIMCHECK
 70
         0
  9
$PEXTMIN
 10
1.0000000000E+20
 20
1.0000000000E+20
 30
1.0000000000E+20
  9
$PEXTMAX
 10
-1.0000000000E+20
 20
-1.0000000000E+20
 30
-1.0000000000E+20
  9
$PLIMMIN
 10
0.0
 20
0.0
  9
$PLIMMAX
 10
12.0
 20
9.0
  9
$UNITMODE
 70
         0
  9
$VISRETAIN
 70
         0
  9
$PLINEGEN
 70
         1
  9
$PSLTSCALE
 70
         0
  9
$TREEDEPTH
 70
      3020
  9
$PICKSTYLE
 70
         1
  9
$CMLSTYLE
  2
STANDARD
  9
$CMLJUST
 70
         0
  9
$CMLSCALE
 40
1.0
  9
$SAVEIMAGES
 70
         0
  0
ENDSEC
  0
SECTION
  2
CLASSES
  0
CLASS
  1
LWPOLYLINE
  2
AcDbPolyline
  3
"AutoCAD"
 90
        0
280
         0
281
         1
  0
CLASS
  1
IMAGE
  2
AcDbRasterImage
  3
ISM
 90
      127
280
         0
281
         1
  0
CLASS
  1
OLE2FRAME
  2
AcDbOle2Frame
  3
""
 90
        0
280
         0
281
         1
  0
CLASS
  1
HATCH
  2
AcDbHatch
  3
"ACAD_SEDONA"
 90
        0
280
         0
281
         1
  0
CLASS
  1
DICTIONARYVAR
  2
AcDbDictionaryVar
  3
"AutoCAD"
 90
        0
280
         0
281
         0
  0
CLASS
  1
RASTERVARIABLES
  2
AcDbRasterVariables
  3
ISM
 90
        0
280
         0
281
         0
  0
CLASS
  1
IMAGEDEF
  2
AcDbRasterImageDef
  3
ISM
 90
        0
280
         0
281
         0
  0
CLASS
  1
IMAGEDEF_REACTOR
  2
AcDbRasterImageDefReactor
  3
ISM
 90
        1
280
         0
281
         0
  0
CLASS
  1
IDBUFFER
  2
AcDbIdBuffer
  3
"Acad"
 90
        0
280
         0
281
         0
  0
CLASS
  1
SPATIAL_FILTER
  2
AcDbSpatialFilter
  3
"Acad"
 90
        0
280
         0
281
         0
  0
CLASS
  1
XRECORD
  2
AcDbXrecord
  3
"<Built In>"
 90
        0
280
         0
281
         0
  0
CLASS
  1
SORTENTSTABLE
  2
AcDbSortentsTable
  3
"AutoCAD"
 90
        0
280
         0
281
         0
  0
CLASS
  1
LAYER_INDEX
  2
AcDbLayerIndex
  3
"Acad"
 90
        0
280
         0
281
         0
  0
CLASS
  1
SPATIAL_INDEX
  2
AcDbSpatialIndex
  3
"Acad"
 90
        0
280
         0
281
         0
  0
CLASS
  1
OBJECT_PTR
  2
CAseDLPNTableRecord
  3
"ASE-LPNTableRecord"
 90
        1
280
         0
281
         0
  0
CLASS
  1
LAYOUT
  2
AcDbLayout
  3
"AutoCAD 2000"
 90
        1
280
         0
281
         0
  0
CLASS
  1
PLOTSETTINGS
  2
AcDbPlotSettings
  3
"AutoCAD 2000"
 90
        1
280
         0
281
         0
  0
CLASS
  1
ACDBDICTIONARYWDFLT
  2
AcDbDictionaryWithDefault
  3
"AutoCAD 2000"
 90
        1
280
         0
281
         0
  0
CLASS
  1
ACDBPLACEHOLDER
  2
AcDbPlaceHolder
  3
"AutoCAD 2000"
 90
        1
280
         0
281
         0
  0
CLASS
  1
VBA_PROJECT
  2
AcDbVbaProject
  3
"acadvba"
 90
        1
280
         0
281
         0
  0
CLASS
  1
WIPEOUT
  2
AcDbWipeout
  3
WipeOut|AutoCAD Express Tool|expresstools@autodesk.com
 90
      127
280
         0
281
         1
  0
CLASS
  1
WIPEOUTVARIABLES
  2
AcDbWipeoutVariables
  3
WipeOut|AutoCAD Express Tool|expresstools@autodesk.com
 90
        0
280
         0
281
         0
  0
CLASS
  1
RTEXT
  2
RText
  3
RText|AutoCAD Express Tool|expresstools@autodesk.com
 90
        0
280
         0
281
         1
  0
CLASS
  1
ARCALIGNEDTEXT
  2
AcDbArcAlignedText
  3
ATEXT|AutoCAD Express Tool|expresstools@autodesk.com
 90
        0
280
         0
281
         1
  0
ENDSEC
  0
SECTION
  2
TABLES
  0
TABLE
  2
VPORT
  5
7
100
AcDbSymbolTable
 70
         1
  0
VPORT
  5
15
100
AcDbSymbolTableRecord
100
AcDbViewportTableRecord
  2
*ACTIVE
 70
         0
 10
0.0
 20
0.0
 11
1.0
 21
1.0
 12
6.591288
 22
4.579184
 13
0.0
 23
0.0
 14
1.0
 24
1.0
 15
0.0
 25
0.0
 16
0.0
 26
0.0
 36
1.0
 17
0.0
 27
0.0
 37
0.0
 40
9.158369
 41
0.688564
 42
50.0
 43
0.0
 44
0.0
 50
0.0
 51
0.0
 71
         0
 72
       100
 73
         1
 74
         1
 75
         0
 76
         0
 77
         0
 78
         0
  0
ENDTAB
  0
TABLE
  2
LTYPE
  5
4
100
AcDbSymbolTable
 70
        13
  0
LTYPE
  5
11
100
AcDbSymbolTableRecord
100
AcDbLinetypeTableRecord
  2
BYBLOCK
 70
        64
  3

 72
        65
 73
         0
 40
0.0
  0
LTYPE
  5
12
100
AcDbSymbolTableRecord
100
AcDbLinetypeTableRecord
  2
BYLAYER
 70
        64
  3

 72
        65
 73
         0
 40
0.0
  0
LTYPE
  5
13
100
AcDbSymbolTableRecord
100
AcDbLinetypeTableRecord
  2
CONTINUOUS
 70
        64
  3
Solid line
 72
        65
 73
         0
 40
0.0
  0
LTYPE
  5
1D
100
AcDbSymbolTableRecord
100
AcDbLinetypeTableRecord
  2
DOT
 70
        64
  3
. . . . . . . . 
 72
        65
 73
         2
 40
1.0
 49
0.0
 74
         0
 49
-1.0
 74
         0
  0
LTYPE
  5
1E
100
AcDbSymbolTableRecord
100
AcDbLinetypeTableRecord
  2
DASHED
 70
        64
  3
___  ___  ___  ___  
 72
        65
 73
         2
 40
4.0
 49
3.0
 74
         0
 49
-1.0
 74
         0
  0
LTYPE
  5
1F
100
AcDbSymbolTableRecord
100
AcDbLinetypeTableRecord
  2
HIDDEN
 70
        64
  3
__ __ __ __ 
 72
        65
 73
         2
 40
3.0
 49
2.0
 74
         0
 49
-1.0
 74
         0
  0
LTYPE
  5
20
100
AcDbSymbolTableRecord
100
AcDbLinetypeTableRecord
  2
STITCH
 70
        64
  3
_ _ _ _ 
 72
        65
 73
         2
 40
2.0
 49
1.0
 74
         0
 49
-1.0
 74
         0
  0
LTYPE
  5
21
100
AcDbSymbolTableRecord
100
AcDbLinetypeTableRecord
  2
CENTER
 70
        64
  3
______  __  ______  __  
 72
        65
 73
         4
 40
43.0
 49
40.0
 74
         0
 49
-1.0
 74
         0
 49
1.0
 74
         0
 49
-1.0
 74
         0
  0
LTYPE
  5
22
100
AcDbSymbolTableRecord
100
AcDbLinetypeTableRecord
  2
DASHDOT
 70
        64
  3
____ . ____ . 
 72
        65
 73
         4
 40
32.0
 49
30.0
 74
         0
 49
-1.0
 74
         0
 49
0.0
 74
         0
 49
-1.0
 74
         0
  0
LTYPE
  5
23
100
AcDbSymbolTableRecord
100
AcDbLinetypeTableRecord
  2
BORDER
 70
        64
  3
__ . __ . 
 72
        65
 73
         4
 40
22.0
 49
20.0
 74
         0
 49
-1.0
 74
         0
 49
0.0
 74
         0
 49
-1.0
 74
         0
  0
LTYPE
  5
24
100
AcDbSymbolTableRecord
100
AcDbLinetypeTableRecord
  2
CUTTING
 70
        64
  3
________   ___   ___   
 72
        65
 73
         6
 40
45.0
 49
40.0
 74
         0
 49
-1.0
 74
         0
 49
1.0
 74
         0
 49
-1.0
 74
         0
 49
1.0
 74
         0
 49
-1.0
 74
         0
  0
LTYPE
  5
25
100
AcDbSymbolTableRecord
100
AcDbLinetypeTableRecord
  2
PHANTOM
 70
        64
  3
______  __  __  
 72
        65
 73
         6
 40
35.0
 49
30.0
 74
         0
 49
-1.0
 74
         0
 49
1.0
 74
         0
 49
-1.0
 74
         0
 49
1.0
 74
         0
 49
-1.0
 74
         0
  0
LTYPE
  5
26
100
AcDbSymbolTableRecord
100
AcDbLinetypeTableRecord
  2
DIVIDE
 70
        64
  3
____ . . ____ . . 
 72
        65
 73
         6
 40
23.0
 49
20.0
 74
         0
 49
-1.0
 74
         0
 49
0.0
 74
         0
 49
-1.0
 74
         0
 49
0.0
 74
         0
 49
-1.0
 74
         0
  0
ENDTAB
  0
TABLE
  2
LAYER
  5
2
100
AcDbSymbolTable
 70
         3
  0
LAYER
  5
14
100
AcDbSymbolTableRecord
100
AcDbLayerTableRecord
  2
0
 70
         0
 62
         7
  6
CONTINUOUS
  0
LAYER
  5
38
100
AcDbSymbolTableRecord
100
AcDbLayerTableRecord
  2
寸法線
 70
         0
 62
         7
  6
CONTINUOUS
  0
LAYER
  5
4B
100
AcDbSymbolTableRecord
100
AcDbLayerTableRecord
  2
ﾚｲﾔｰ1
 70
         0
 62
         7
  6
CONTINUOUS
  0
ENDTAB
  0
TABLE
  2
STYLE
  5
3
100
AcDbSymbolTable
 70
         1
  0
STYLE
  5
17
100
AcDbSymbolTableRecord
100
AcDbTextStyleTableRecord
  2
STANDARD
 70
         0
 40
0.0
 41
1.0
 50
0.0
 71
         0
 42
0.0
  3
txt
  4
extfont
  0
ENDTAB
  0
TABLE
  2
VIEW
  5
5
100
AcDbSymbolTable
 70
         0
  0
ENDTAB
  0
TABLE
  2
UCS
  5
6
100
AcDbSymbolTable
 70
         0
  0
ENDTAB
  0
TABLE
  2
APPID
  5
8
100
AcDbSymbolTable
 70
         1
  0
APPID
  5
16
100
AcDbSymbolTableRecord
100
AcDbRegAppTableRecord
  2
ACAD
 70
         0
  0
ENDTAB
  0
TABLE
  2
DIMSTYLE
  5
9
100
AcDbSymbolTable
 70
         2
  0
DIMSTYLE
105
18
100
AcDbSymbolTableRecord
100
AcDbDimStyleTableRecord
  2
STANDARD
 70
         0
  3

  4

  5

  6

  7

 40
1.0
 41
0.18
 42
0.0625
 43
0.38
 44
0.18
 45
0.0
 46
0.0
 47
0.0
 48
0.0
 71
         0
 72
         0
 73
         1
 74
         1
 75
         0
 76
         0
 77
         0
 78
         0
140
0.18
141
0.09
142
0.0
143
25.4
144
1.0
145
0.0
146
1.0
147
0.09
170
         0
171
         2
172
         0
173
         0
174
         0
175
         0
176
         0
177
         0
178
         0
270
         2
271
         4
272
         4
273
         2
274
         2
275
         0
280
         0
281
         0
282
         0
283
         1
284
         0
285
         0
286
         0
287
         0
288
         0
340
17
  0
DIMSTYLE
105
27
100
AcDbSymbolTableRecord
100
AcDbDimStyleTableRecord
  2
VELDIM0
 70
         0
  3

  4

  5

  6

  7

 40
1.0
 41
2.5
 42
0.0625
 43
0.38
 44
5.0
 45
0.0
 46
12.5
 47
0.0
 48
0.0
 71
         0
 72
         0
 73
         0
 74
         0
 75
         0
 76
         0
 77
         0
 78
         8
140
6.7074199438
141
0.09
142
0.0
143
25.4
144
1.0
145
0.0
146
1.0
147
0.09
170
         0
171
         2
172
         0
173
         0
174
         0
175
         0
176
         0
177
         0
178
         0
270
         2
271
         3
272
         4
273
         2
274
         2
275
         0
280
         0
281
         0
282
         0
283
         1
284
         0
285
         0
286
         0
287
         3
288
         0
340
17
  0
ENDTAB
  0
TABLE
  2
BLOCK_RECORD
  5
1
100
AcDbSymbolTable
 70
        18
  0
BLOCK_RECORD
  5
A
100
AcDbSymbolTableRecord
100
AcDbBlockTableRecord
  2
*MODEL_SPACE
  0
BLOCK_RECORD
  5
B
100
AcDbSymbolTableRecord
100
AcDbBlockTableRecord
  2
*PAPER_SPACE
  0
BLOCK_RECORD
  5
28
100
AcDbSymbolTableRecord
100
AcDbBlockTableRecord
  2
*D0
  0
BLOCK_RECORD
  5
3A
100
AcDbSymbolTableRecord
100
AcDbBlockTableRecord
  2
*D1
  0
BLOCK_RECORD
  5
72
100
AcDbSymbolTableRecord
100
AcDbBlockTableRecord
  2
CLUMP0
  0
BLOCK_RECORD
  5
75
100
AcDbSymbolTableRecord
100
AcDbBlockTableRecord
  2
CLUMP1
  0
BLOCK_RECORD
  5
B3
100
AcDbSymbolTableRecord
100
AcDbBlockTableRecord
  2
*D4
  0
BLOCK_RECORD
  5
C4
100
AcDbSymbolTableRecord
100
AcDbBlockTableRecord
  2
*D5
  0
BLOCK_RECORD
  5
D5
100
AcDbSymbolTableRecord
100
AcDbBlockTableRecord
  2
*D6
  0
BLOCK_RECORD
  5
E6
100
AcDbSymbolTableRecord
100
AcDbBlockTableRecord
  2
*D7
  0
BLOCK_RECORD
  5
FC
100
AcDbSymbolTableRecord
100
AcDbBlockTableRecord
  2
CLUMP2
  0
BLOCK_RECORD
  5
FF
100
AcDbSymbolTableRecord
100
AcDbBlockTableRecord
  2
CLUMP3
  0
BLOCK_RECORD
  5
159
100
AcDbSymbolTableRecord
100
AcDbBlockTableRecord
  2
CLUMP4
  0
BLOCK_RECORD
  5
15C
100
AcDbSymbolTableRecord
100
AcDbBlockTableRecord
  2
CLUMP5
  0
BLOCK_RECORD
  5
1CC
100
AcDbSymbolTableRecord
100
AcDbBlockTableRecord
  2
CLUMP6
  0
BLOCK_RECORD
  5
1CF
100
AcDbSymbolTableRecord
100
AcDbBlockTableRecord
  2
CLUMP7
  0
BLOCK_RECORD
  5
1D8
100
AcDbSymbolTableRecord
100
AcDbBlockTableRecord
  2
CLUMP8
  0
BLOCK_RECORD
  5
1DB
100
AcDbSymbolTableRecord
100
AcDbBlockTableRecord
  2
CLUMP9
  0
BLOCK_RECORD
  5
1FC
100
AcDbSymbolTableRecord
100
AcDbBlockTableRecord
  2
CLUMP10
  0
BLOCK_RECORD
  5
1FF
100
AcDbSymbolTableRecord
100
AcDbBlockTableRecord
  2
CLUMP11
  0
ENDTAB
  0
ENDSEC
  0
SECTION
  2
BLOCKS
  0
BLOCK
  5
D
100
AcDbEntity
  8
0
100
AcDbBlockBegin
  2
*MODEL_SPACE
 70
         0
 10
0.0
 20
0.0
 30
0.0
  3
*MODEL_SPACE
  1

  0
ENDBLK
  5
E
100
AcDbEntity
  8
0
100
AcDbBlockEnd
  0
BLOCK
  5
F
100
AcDbEntity
 67
         1
  8
0
100
AcDbBlockBegin
  2
*PAPER_SPACE
 70
         0
 10
0.0
 20
0.0
 30
0.0
  3
*PAPER_SPACE
  1

  0
ENDBLK
  5
10
100
AcDbEntity
 67
         1
  8
0
100
AcDbBlockEnd
  0
BLOCK
  5
29
100
AcDbEntity
  8
0
100
AcDbBlockBegin
  2
*D0
 70
         1
 10
0.0
 20
0.0
 30
0.0
  3

  1

  0
TEXT
  5
2A
100
AcDbEntity
  8
0
 62
         0
100
AcDbText
 10
1413.3582984562
 20
1419.7941107829
 30
0.0
 40
6.7074199438
  1
52
100
AcDbText
  0
LINE
  5
2B
100
AcDbEntity
  8
0
 62
         0
100
AcDbLine
 10
1391.1477864583
 20
1406.66015625
 30
0.0
 11
1391.1477864583
 21
1427.5559895833
 31
0.0
  0
LINE
  5
2C
100
AcDbEntity
  8
0
 62
         0
100
AcDbLine
 10
1443.187786455
 20
1406.66015625
 30
0.0
 11
1443.187786455
 21
1427.5559895833
 31
0.0
  0
LINE
  5
2D
100
AcDbEntity
  8
0
 62
         0
100
AcDbLine
 10
1391.1477864583
 20
1422.5559895833
 30
0.0
 11
1409.4127573127
 21
1422.5559895833
 31
0.0
  0
LINE
  5
2E
100
AcDbEntity
  8
0
 62
         0
100
AcDbLine
 10
1443.187786455
 20
1422.5559895833
 30
0.0
 11
1424.9228156007
 21
1422.5559895833
 31
0.0
  0
LINE
  5
2F
100
AcDbEntity
  8
0
 62
         0
100
AcDbLine
 10
1391.1477864583
 20
1422.5559895833
 30
0.0
 11
1409.4127573127
 21
1422.5559895833
 31
0.0
  0
LINE
  5
30
100
AcDbEntity
  8
0
 62
         0
100
AcDbLine
 10
1443.187786455
 20
1422.5559895833
 30
0.0
 11
1424.9228156007
 21
1422.5559895833
 31
0.0
  0
LINE
  5
31
100
AcDbEntity
  8
0
 62
         0
100
AcDbLine
 10
1443.187786455
 20
1422.5559895833
 30
0.0
 11
1430.687786455
 21
1422.5559895833
 31
0.0
  0
LINE
  5
32
100
AcDbEntity
  8
0
 62
         0
100
AcDbLine
 10
1440.687786455
 20
1421.9309895833
 30
0.0
 11
1443.187786455
 21
1422.5559895833
 31
0.0
  0
LINE
  5
33
100
AcDbEntity
  8
0
 62
         0
100
AcDbLine
 10
1443.187786455
 20
1422.5559895833
 30
0.0
 11
1440.687786455
 21
1423.1809895833
 31
0.0
  0
LINE
  5
34
100
AcDbEntity
  8
0
 62
         0
100
AcDbLine
 10
1391.1477864583
 20
1422.5559895833
 30
0.0
 11
1403.6477864583
 21
1422.5559895833
 31
0.0
  0
LINE
  5
35
100
AcDbEntity
  8
0
 62
         0
100
AcDbLine
 10
1393.6477864583
 20
1423.1809895833
 30
0.0
 11
1391.1477864583
 21
1422.5559895833
 31
0.0
  0
LINE
  5
36
100
AcDbEntity
  8
0
 62
         0
100
AcDbLine
 10
1391.1477864583
 20
1422.5559895833
 30
0.0
 11
1393.6477864583
 21
1421.9309895833
 31
0.0
  0
ENDBLK
  5
37
100
AcDbEntity
  8
0
100
AcDbBlockEnd
  0
BLOCK
  5
3B
100
AcDbEntity
  8
0
100
AcDbBlockBegin
  2
*D1
 70
         1
 10
0.0
 20
0.0
 30
0.0
  3

  1

  0
TEXT
  5
3C
100
AcDbEntity
  8
0
 62
         0
100
AcDbText
 10
1512.3382984578
 20
1493.0331348608
 30
0.0
 40
6.7074199438
  1
20
100
AcDbText
  0
LINE
  5
3D
100
AcDbEntity
  8
0
 62
         0
100
AcDbLine
 10
1526.1477864583
 20
1538.0125
 30
0.0
 11
1526.1477864583
 21
1490.7950136612
 31
0.0
  0
LINE
  5
3E
100
AcDbEntity
  8
0
 62
         0
100
AcDbLine
 10
1506.1477864583
 20
1520.7950136612
 30
0.0
 11
1506.1477864583
 21
1490.7950136612
 31
0.0
  0
LINE
  5
3F
100
AcDbEntity
  8
0
 62
         0
100
AcDbLine
 10
1526.1477864583
 20
1495.7950136612
 30
0.0
 11
1523.9028156023
 21
1495.7950136612
 31
0.0
  0
LINE
  5
40
100
AcDbEntity
  8
0
 62
         0
100
AcDbLine
 10
1506.1477864583
 20
1495.7950136612
 30
0.0
 11
1508.3927573143
 21
1495.7950136612
 31
0.0
  0
LINE
  5
41
100
AcDbEntity
  8
0
 62
         0
100
AcDbLine
 10
1526.1477864583
 20
1495.7950136612
 30
0.0
 11
1523.9028156023
 21
1495.7950136612
 31
0.0
  0
LINE
  5
42
100
AcDbEntity
  8
0
 62
         0
100
AcDbLine
 10
1506.1477864583
 20
1495.7950136612
 30
0.0
 11
1508.3927573143
 21
1495.7950136612
 31
0.0
  0
LINE
  5
43
100
AcDbEntity
  8
0
 62
         0
100
AcDbLine
 10
1506.1477864583
 20
1495.7950136612
 30
0.0
 11
1493.6477864583
 21
1495.7950136612
 31
0.0
  0
LINE
  5
44
100
AcDbEntity
  8
0
 62
         0
100
AcDbLine
 10
1503.6477864583
 20
1495.1700136612
 30
0.0
 11
1506.1477864583
 21
1495.7950136612
 31
0.0
  0
LINE
  5
45
100
AcDbEntity
  8
0
 62
         0
100
AcDbLine
 10
1506.1477864583
 20
1495.7950136612
 30
0.0
 11
1503.6477864583
 21
1496.4200136612
 31
0.0
  0
LINE
  5
46
100
AcDbEntity
  8
0
 62
         0
100
AcDbLine
 10
1526.1477864583
 20
1495.7950136612
 30
0.0
 11
1538.6477864583
 21
1495.7950136612
 31
0.0
  0
LINE
  5
47
100
AcDbEntity
  8
0
 62
         0
100
AcDbLine
 10
1528.6477864583
 20
1496.4200136612
 30
0.0
 11
1526.1477864583
 21
1495.7950136612
 31
0.0
  0
LINE
  5
48
100
AcDbEntity
  8
0
 62
         0
100
AcDbLine
 10
1526.1477864583
 20
1495.7950136612
 30
0.0
 11
1528.6477864583
 21
1495.1700136612
 31
0.0
  0
ENDBLK
  5
49
100
AcDbEntity
  8
0
100
AcDbBlockEnd
  0
BLOCK
  5
74
100
AcDbEntity
  8
0
100
AcDbBlockBegin
  2
CLUMP0
 70
         0
 10
0.0
 20
0.0
 30
0.0
  3

  1

  0
INSERT
  5
76
100
AcDbEntity
  8
0
100
AcDbBlockReference
  2
CLUMP1
 10
0.0
 20
0.0
 30
0.0
  0
ENDBLK
  5
B2
100
AcDbEntity
  8
0
100
AcDbBlockEnd
  0
BLOCK
  5
77
100
AcDbEntity
  8
0
100
AcDbBlockBegin
  2
CLUMP1
 70
         0
 10
0.0
 20
0.0
 30
0.0
  3

  1

  0
ARC
  5
78
100
AcDbEntity
  8
ﾚｲﾔｰ1
100
AcDbCircle
 10
1419.3933848841
 20
1362.66015625
 30
0.0
 40
2.0
210
0.0
220
0.0
230
1.0
100
AcDbArc
 50
0.0
 51
90.0
  0
LINE
  5
79
100
AcDbEntity
  8
ﾚｲﾔｰ1
100
AcDbLine
 10
1421.3933848841
 20
1405.66015625
 30
0.0
 11
1484.3469555989
 21
1405.66015625
 31
0.0
  0
ARC
  5
7A
100
AcDbEntity
  8
ﾚｲﾔｰ1
100
AcDbCircle
 10
-1454.4481660232
 20
1400.66015625
 30
0.0
 40
2.0
210
0.0
220
0.0
230
-1.0
100
AcDbArc
 50
226.4600332106
 51
270.0
  0
LINE
  5
7B
100
AcDbEntity
  8
ﾚｲﾔｰ1
100
AcDbLine
 10
1455.8258868123
 20
1399.2103681872
 30
0.0
 11
1460.6662854458
 21
1403.81015625
 31
0.0
  0
ARC
  5
7C
100
AcDbEntity
  8
ﾚｲﾔｰ1
100
AcDbCircle
 10
1454.4481660232
 20
1362.66015625
 30
0.0
 40
2.0
210
0.0
220
0.0
230
1.0
100
AcDbArc
 50
46.4600332106
 51
90.0
  0
LINE
  5
7D
100
AcDbEntity
  8
ﾚｲﾔｰ1
  6
BORDER
 62
         3
100
AcDbLine
 10
1475.0856770833
 20
1348.7061308471
 30
0.0
 11
1475.0856770833
 21
1414.6141816529
 31
0.0
  0
LINE
  5
7E
100
AcDbEntity
  8
ﾚｲﾔｰ1
100
AcDbLine
 10
1470.0856770833
 20
1357.66015625
 30
0.0
 11
1470.0856770833
 21
1355.66015625
 31
0.0
  0
LINE
  5
7F
100
AcDbEntity
  8
ﾚｲﾔｰ1
100
AcDbLine
 10
1420.8075984465
 20
1364.0743698124
 30
0.0
 11
1408.6218794617
 21
1370.91015625
 31
0.0
  0
LINE
  5
80
100
AcDbEntity
  8
ﾚｲﾔｰ1
100
AcDbLine
 10
1419.3718794617
 20
1378.66015625
 30
0.0
 11
1419.3718794617
 21
1384.66015625
 31
0.0
  0
ARC
  5
81
100
AcDbEntity
  8
ﾚｲﾔｰ1
100
AcDbCircle
 10
-1421.3718794617
 20
1378.66015625
 30
0.0
 40
2.0
210
0.0
220
0.0
230
-1.0
100
AcDbArc
 50
270.0
 51
0.0
  0
LINE
  5
82
100
AcDbEntity
  8
ﾚｲﾔｰ1
100
AcDbLine
 10
1421.3933848841
 20
1405.66015625
 30
0.0
 11
1421.3933848841
 21
1400.66015625
 31
0.0
  0
ARC
  5
83
100
AcDbEntity
  8
ﾚｲﾔｰ1
100
AcDbCircle
 10
-1419.3933848841
 20
1400.66015625
 30
0.0
 40
2.0
210
0.0
220
0.0
230
-1.0
100
AcDbArc
 50
180.0
 51
270.0
  0
LINE
  5
84
100
AcDbEntity
  8
ﾚｲﾔｰ1
100
AcDbLine
 10
1420.8075984465
 20
1399.2459426876
 30
0.0
 11
1408.6218794617
 21
1392.41015625
 31
0.0
  0
ARC
  5
85
100
AcDbEntity
  8
ﾚｲﾔｰ1
100
AcDbCircle
 10
-1453.2468938082
 20
1378.66015625
 30
0.0
 40
2.0
210
0.0
220
0.0
230
-1.0
100
AcDbArc
 50
180.0
 51
270.0
  0
LINE
  5
86
100
AcDbEntity
  8
ﾚｲﾔｰ1
100
AcDbLine
 10
1403.4968794617
 20
1390.5369166388
 30
0.0
 11
1413.7468794617
 21
1390.5369166388
 31
0.0
  0
LINE
  5
87
100
AcDbEntity
  8
ﾚｲﾔｰ1
100
AcDbLine
 10
1466.0856770833
 20
1357.66015625
 30
0.0
 11
1466.0856770833
 21
1360.86015625
 31
0.0
  0
LINE
  5
88
100
AcDbEntity
  8
ﾚｲﾔｰ1
100
AcDbLine
 10
1466.0856770833
 20
1402.46015625
 30
0.0
 11
1466.0856770833
 21
1405.66015625
 31
0.0
  0
ARC
  5
89
100
AcDbEntity
  8
ﾚｲﾔｰ1
100
AcDbCircle
 10
1484.3469555989
 20
1400.66015625
 30
0.0
 40
5.0
210
0.0
220
0.0
230
1.0
100
AcDbArc
 50
0.0
 51
90.0
  0
LINE
  5
8A
100
AcDbEntity
  8
ﾚｲﾔｰ1
100
AcDbLine
 10
1489.3469555989
 20
1362.66015625
 30
0.0
 11
1489.3469555989
 21
1400.66015625
 31
0.0
  0
ARC
  5
8B
100
AcDbEntity
  8
ﾚｲﾔｰ1
100
AcDbCircle
 10
-1484.3469555989
 20
1362.66015625
 30
0.0
 40
5.0
210
0.0
220
0.0
230
-1.0
100
AcDbArc
 50
180.0
 51
270.0
  0
LINE
  5
8C
100
AcDbEntity
  8
ﾚｲﾔｰ1
  6
BORDER
 62
         3
100
AcDbLine
 10
1392.2337083719
 20
1381.66015625
 30
0.0
 11
1500.2727057677
 21
1381.66015625
 31
0.0
  0
LINE
  5
8D
100
AcDbEntity
  8
ﾚｲﾔｰ1
100
AcDbLine
 10
1466.0856770833
 20
1401.96015625
 30
0.0
 11
1455.2468938082
 21
1405.66015625
 31
0.0
  0
LINE
  5
8E
100
AcDbEntity
  8
ﾚｲﾔｰ1
100
AcDbLine
 10
1464.6209766408
 20
1360.86015625
 30
0.0
 11
1484.1469555989
 21
1360.86015625
 31
0.0
  0
LINE
  5
8F
100
AcDbEntity
  8
ﾚｲﾔｰ1
100
AcDbLine
 10
1466.0856770833
 20
1361.36015625
 30
0.0
 11
1484.1469555989
 21
1361.36015625
 31
0.0
  0
LINE
  5
90
100
AcDbEntity
  8
ﾚｲﾔｰ1
100
AcDbLine
 10
1466.0856770833
 20
1401.96015625
 30
0.0
 11
1484.1469555989
 21
1401.96015625
 31
0.0
  0
CIRCLE
  5
91
100
AcDbEntity
  8
ﾚｲﾔｰ1
100
AcDbCircle
 10
1408.6218794617
 20
1381.66015625
 30
0.0
 40
7.5
210
0.0
220
0.0
230
1.0
  0
LINE
  5
92
100
AcDbEntity
  8
ﾚｲﾔｰ1
100
AcDbLine
 10
1398.3718794617
 20
1381.66015625
 30
0.0
 11
1403.4968794617
 21
1390.5369166388
 31
0.0
  0
LINE
  5
93
100
AcDbEntity
  8
ﾚｲﾔｰ1
100
AcDbLine
 10
1413.7468794617
 20
1372.7833958612
 30
0.0
 11
1403.4968794617
 21
1372.7833958612
 31
0.0
  0
LINE
  5
94
100
AcDbEntity
  8
ﾚｲﾔｰ1
100
AcDbLine
 10
1403.4968794617
 20
1372.7833958612
 30
0.0
 11
1398.3718794617
 21
1381.66015625
 31
0.0
  0
LINE
  5
95
100
AcDbEntity
  8
ﾚｲﾔｰ1
100
AcDbLine
 10
1421.3718794617
 20
1386.66015625
 30
0.0
 11
1453.2468938082
 21
1386.66015625
 31
0.0
  0
ARC
  5
96
100
AcDbEntity
  8
ﾚｲﾔｰ1
100
AcDbCircle
 10
1421.3718794617
 20
1384.66015625
 30
0.0
 40
2.0
210
0.0
220
0.0
230
1.0
100
AcDbArc
 50
90.0
 51
180.0
  0
LINE
  5
97
100
AcDbEntity
  8
ﾚｲﾔｰ1
100
AcDbLine
 10
1421.3718794617
 20
1376.66015625
 30
0.0
 11
1453.2468938082
 21
1376.66015625
 31
0.0
  0
LINE
  5
98
100
AcDbEntity
  8
ﾚｲﾔｰ1
100
AcDbLine
 10
1455.2468938082
 20
1378.66015625
 30
0.0
 11
1455.2468938082
 21
1384.66015625
 31
0.0
  0
ARC
  5
99
100
AcDbEntity
  8
ﾚｲﾔｰ1
100
AcDbCircle
 10
1453.2468938082
 20
1384.66015625
 30
0.0
 40
2.0
210
0.0
220
0.0
230
1.0
100
AcDbArc
 50
0.0
 51
90.0
  0
LINE
  5
9A
100
AcDbEntity
  8
ﾚｲﾔｰ1
100
AcDbLine
 10
1480.0856770833
 20
1357.66015625
 30
0.0
 11
1470.0856770833
 21
1357.66015625
 31
0.0
  0
LINE
  5
9B
100
AcDbEntity
  8
ﾚｲﾔｰ1
100
AcDbLine
 10
1480.0856770833
 20
1355.66015625
 30
0.0
 11
1480.0856770833
 21
1357.66015625
 31
0.0
  0
LINE
  5
9C
100
AcDbEntity
  8
ﾚｲﾔｰ1
100
AcDbLine
 10
1470.0856770833
 20
1355.66015625
 30
0.0
 11
1480.0856770833
 21
1355.66015625
 31
0.0
  0
LINE
  5
9D
100
AcDbEntity
  8
ﾚｲﾔｰ1
100
AcDbLine
 10
1464.6209766408
 20
1402.46015625
 30
0.0
 11
1484.1469555989
 21
1402.46015625
 31
0.0
  0
LINE
  5
9E
100
AcDbEntity
  8
ﾚｲﾔｰ1
100
AcDbLine
 10
1455.2468938082
 20
1357.66015625
 30
0.0
 11
1466.0856770833
 21
1361.36015625
 31
0.0
  0
LINE
  5
9F
100
AcDbEntity
  8
ﾚｲﾔｰ1
100
AcDbLine
 10
1470.0856770833
 20
1407.66015625
 30
0.0
 11
1470.0856770833
 21
1405.66015625
 31
0.0
  0
LINE
  5
A0
100
AcDbEntity
  8
ﾚｲﾔｰ1
100
AcDbLine
 10
1470.0856770833
 20
1405.66015625
 30
0.0
 11
1480.0856770833
 21
1405.66015625
 31
0.0
  0
LINE
  5
A1
100
AcDbEntity
  8
ﾚｲﾔｰ1
100
AcDbLine
 10
1480.0856770833
 20
1405.66015625
 30
0.0
 11
1480.0856770833
 21
1407.66015625
 31
0.0
  0
LINE
  5
A2
100
AcDbEntity
  8
ﾚｲﾔｰ1
100
AcDbLine
 10
1480.0856770833
 20
1407.66015625
 30
0.0
 11
1470.0856770833
 21
1407.66015625
 31
0.0
  0
LINE
  5
A3
100
AcDbEntity
  8
ﾚｲﾔｰ1
100
AcDbLine
 10
1421.3933848841
 20
1357.66015625
 30
0.0
 11
1421.3933848841
 21
1362.66015625
 31
0.0
  0
LINE
  5
A4
100
AcDbEntity
  8
ﾚｲﾔｰ1
100
AcDbLine
 10
1418.8718794617
 20
1381.66015625
 30
0.0
 11
1413.7468794617
 21
1372.7833958612
 31
0.0
  0
LINE
  5
A5
100
AcDbEntity
  8
ﾚｲﾔｰ1
100
AcDbLine
 10
1413.7468794617
 20
1390.5369166388
 30
0.0
 11
1418.8718794617
 21
1381.66015625
 31
0.0
  0
CIRCLE
  5
A6
100
AcDbEntity
  8
ﾚｲﾔｰ1
100
AcDbCircle
 10
1408.6218794617
 20
1381.66015625
 30
0.0
 40
10.75
210
0.0
220
0.0
230
1.0
  0
LINE
  5
A7
100
AcDbEntity
  8
ﾚｲﾔｰ1
  6
BORDER
 62
         3
100
AcDbLine
 10
1408.6218794617
 20
1369.7511122985
 30
0.0
 11
1408.6218794617
 21
1393.5692002015
 31
0.0
  0
LINE
  5
A8
100
AcDbEntity
  8
ﾚｲﾔｰ1
100
AcDbLine
 10
1486.1469555989
 20
1362.86015625
 30
0.0
 11
1486.1469555989
 21
1400.46015625
 31
0.0
  0
ARC
  5
A9
100
AcDbEntity
  8
ﾚｲﾔｰ1
100
AcDbCircle
 10
-1484.1469555989
 20
1362.86015625
 30
0.0
 40
2.0
210
0.0
220
0.0
230
-1.0
100
AcDbArc
 50
180.0
 51
270.0
  0
LINE
  5
AA
100
AcDbEntity
  8
ﾚｲﾔｰ1
100
AcDbLine
 10
1484.1469555989
 20
1361.36015625
 30
0.0
 11
1484.1469555989
 21
1401.96015625
 31
0.0
  0
LINE
  5
AB
100
AcDbEntity
  8
ﾚｲﾔｰ1
100
AcDbLine
 10
1421.3933848841
 20
1357.66015625
 30
0.0
 11
1484.3469555989
 21
1357.66015625
 31
0.0
  0
LINE
  5
AC
100
AcDbEntity
  8
ﾚｲﾔｰ1
100
AcDbLine
 10
1455.8258868123
 20
1364.1099443128
 30
0.0
 11
1460.6662854458
 21
1359.51015625
 31
0.0
  0
CIRCLE
  5
AD
100
AcDbEntity
  8
ﾚｲﾔｰ1
100
AcDbCircle
 10
1408.6218794617
 20
1381.66015625
 30
0.0
 40
8.8767603888
210
0.0
220
0.0
230
1.0
  0
ARC
  5
AE
100
AcDbEntity
  8
ﾚｲﾔｰ1
100
AcDbCircle
 10
1484.1469555989
 20
1400.46015625
 30
0.0
 40
2.0
210
0.0
220
0.0
230
1.0
100
AcDbArc
 50
0.0
 51
90.0
  0
LINE
  5
AF
100
AcDbEntity
  8
ﾚｲﾔｰ1
100
AcDbLine
 10
1419.3933848841
 20
1398.66015625
 30
0.0
 11
1454.4481660232
 21
1398.66015625
 31
0.0
  0
LINE
  5
B0
100
AcDbEntity
  8
ﾚｲﾔｰ1
100
AcDbLine
 10
1419.3933848841
 20
1364.66015625
 30
0.0
 11
1454.4481660232
 21
1364.66015625
 31
0.0
  0
ENDBLK
  5
B1
100
AcDbEntity
  8
0
100
AcDbBlockEnd
  0
BLOCK
  5
B4
100
AcDbEntity
  8
0
100
AcDbBlockBegin
  2
*D4
 70
         1
 10
0.0
 20
0.0
 30
0.0
  3

  1

  0
TEXT
  5
B5
100
AcDbEntity
  8
0
 62
         0
100
AcDbText
 10
1565.4070610921
 20
1377.8506682495
 30
0.0
 40
6.7074199438
  1
50
 50
90.0
100
AcDbText
  0
LINE
  5
B6
100
AcDbEntity
  8
0
 62
         0
100
AcDbLine
 10
1526.1477864583
 20
1406.66015625
 30
0.0
 11
1567.6451822917
 21
1406.66015625
 31
0.0
  0
LINE
  5
B7
100
AcDbEntity
  8
0
 62
         0
100
AcDbLine
 10
1526.1477864583
 20
1356.66015625
 30
0.0
 11
1567.6451822917
 21
1356.66015625
 31
0.0
  0
LINE
  5
B8
100
AcDbEntity
  8
0
 62
         0
100
AcDbLine
 10
1562.6451822917
 20
1406.66015625
 30
0.0
 11
1562.6451822917
 21
1389.415185394
 31
0.0
  0
LINE
  5
B9
100
AcDbEntity
  8
0
 62
         0
100
AcDbLine
 10
1562.6451822917
 20
1356.66015625
 30
0.0
 11
1562.6451822917
 21
1373.905127106
 31
0.0
  0
LINE
  5
BA
100
AcDbEntity
  8
0
 62
         0
100
AcDbLine
 10
1562.6451822917
 20
1406.66015625
 30
0.0
 11
1562.6451822917
 21
1389.415185394
 31
0.0
  0
LINE
  5
BB
100
AcDbEntity
  8
0
 62
         0
100
AcDbLine
 10
1562.6451822917
 20
1356.66015625
 30
0.0
 11
1562.6451822917
 21
1373.905127106
 31
0.0
  0
LINE
  5
BC
100
AcDbEntity
  8
0
 62
         0
100
AcDbLine
 10
1562.6451822917
 20
1356.66015625
 30
0.0
 11
1562.6451822917
 21
1369.16015625
 31
0.0
  0
LINE
  5
BD
100
AcDbEntity
  8
0
 62
         0
100
AcDbLine
 10
1562.0201822917
 20
1359.16015625
 30
0.0
 11
1562.6451822917
 21
1356.66015625
 31
0.0
  0
LINE
  5
BE
100
AcDbEntity
  8
0
 62
         0
100
AcDbLine
 10
1562.6451822917
 20
1356.66015625
 30
0.0
 11
1563.2701822917
 21
1359.16015625
 31
0.0
  0
LINE
  5
BF
100
AcDbEntity
  8
0
 62
         0
100
AcDbLine
 10
1562.6451822917
 20
1406.66015625
 30
0.0
 11
1562.6451822917
 21
1394.16015625
 31
0.0
  0
LINE
  5
C0
100
AcDbEntity
  8
0
 62
         0
100
AcDbLine
 10
1563.2701822917
 20
1404.16015625
 30
0.0
 11
1562.6451822917
 21
1406.66015625
 31
0.0
  0
LINE
  5
C1
100
AcDbEntity
  8
0
 62
         0
100
AcDbLine
 10
1562.6451822917
 20
1406.66015625
 30
0.0
 11
1562.0201822917
 21
1404.16015625
 31
0.0
  0
ENDBLK
  5
C2
100
AcDbEntity
  8
0
100
AcDbBlockEnd
  0
BLOCK
  5
C5
100
AcDbEntity
  8
0
100
AcDbBlockBegin
  2
*D5
 70
         1
 10
0.0
 20
0.0
 30
0.0
  3

  1

  0
TEXT
  5
C6
100
AcDbEntity
  8
0
 62
         0
100
AcDbText
 10
1565.4070610921
 20
1585.3261617134
 30
0.0
 40
6.7074199438
  1
102
 50
90.0
100
AcDbText
  0
LINE
  5
C7
100
AcDbEntity
  8
0
 62
         0
100
AcDbLine
 10
1526.1477864583
 20
1642.3125
 30
0.0
 11
1567.6451822917
 21
1642.3125
 31
0.0
  0
LINE
  5
C8
100
AcDbEntity
  8
0
 62
         0
100
AcDbLine
 10
1526.1477864583
 20
1540.3125
 30
0.0
 11
1567.6451822917
 21
1540.3125
 31
0.0
  0
LINE
  5
C9
100
AcDbEntity
  8
0
 62
         0
100
AcDbLine
 10
1562.6451822917
 20
1642.3125
 30
0.0
 11
1562.6451822917
 21
1601.24437943
 31
0.0
  0
LINE
  5
CA
100
AcDbEntity
  8
0
 62
         0
100
AcDbLine
 10
1562.6451822917
 20
1540.3125
 30
0.0
 11
1562.6451822917
 21
1581.38062057
 31
0.0
  0
LINE
  5
CB
100
AcDbEntity
  8
0
 62
         0
100
AcDbLine
 10
1562.6451822917
 20
1642.3125
 30
0.0
 11
1562.6451822917
 21
1601.24437943
 31
0.0
  0
LINE
  5
CC
100
AcDbEntity
  8
0
 62
         0
100
AcDbLine
 10
1562.6451822917
 20
1540.3125
 30
0.0
 11
1562.6451822917
 21
1581.38062057
 31
0.0
  0
LINE
  5
CD
100
AcDbEntity
  8
0
 62
         0
100
AcDbLine
 10
1562.6451822917
 20
1540.3125
 30
0.0
 11
1562.6451822917
 21
1552.8125
 31
0.0
  0
LINE
  5
CE
100
AcDbEntity
  8
0
 62
         0
100
AcDbLine
 10
1562.0201822917
 20
1542.8125
 30
0.0
 11
1562.6451822917
 21
1540.3125
 31
0.0
  0
LINE
  5
CF
100
AcDbEntity
  8
0
 62
         0
100
AcDbLine
 10
1562.6451822917
 20
1540.3125
 30
0.0
 11
1563.2701822917
 21
1542.8125
 31
0.0
  0
LINE
  5
D0
100
AcDbEntity
  8
0
 62
         0
100
AcDbLine
 10
1562.6451822917
 20
1642.3125
 30
0.0
 11
1562.6451822917
 21
1629.8125
 31
0.0
  0
LINE
  5
D1
100
AcDbEntity
  8
0
 62
         0
100
AcDbLine
 10
1563.2701822917
 20
1639.8125
 30
0.0
 11
1562.6451822917
 21
1642.3125
 31
0.0
  0
LINE
  5
D2
100
AcDbEntity
  8
0
 62
         0
100
AcDbLine
 10
1562.6451822917
 20
1642.3125
 30
0.0
 11
1562.0201822917
 21
1639.8125
 31
0.0
  0
ENDBLK
  5
D3
100
AcDbEntity
  8
0
100
AcDbBlockEnd
  0
BLOCK
  5
D6
100
AcDbEntity
  8
0
100
AcDbBlockBegin
  2
*D6
 70
         1
 10
0.0
 20
0.0
 30
0.0
  3

  1

  0
TEXT
  5
D7
100
AcDbEntity
  8
0
 62
         0
100
AcDbText
 10
1565.3243788004
 20
1516.2183492134
 30
0.0
 40
6.7074199438
  1
2.3
 50
90.0
100
AcDbText
  0
LINE
  5
D8
100
AcDbEntity
  8
0
 62
         0
100
AcDbLine
 10
1526.1477864583
 20
1540.3125
 30
0.0
 11
1567.5625
 21
1540.3125
 31
0.0
  0
LINE
  5
D9
100
AcDbEntity
  8
0
 62
         0
100
AcDbLine
 10
1526.1477864583
 20
1538.0125
 30
0.0
 11
1567.5625
 21
1538.0125
 31
0.0
  0
LINE
  5
DA
100
AcDbEntity
  8
0
 62
         0
100
AcDbLine
 10
1562.5625
 20
1540.3125
 30
0.0
 11
1562.5625
 21
1532.13656693
 31
0.0
  0
LINE
  5
DB
100
AcDbEntity
  8
0
 62
         0
100
AcDbLine
 10
1562.5625
 20
1538.0125
 30
0.0
 11
1562.5625
 21
1532.13656693
 31
0.0
  0
LINE
  5
DC
100
AcDbEntity
  8
0
 62
         0
100
AcDbLine
 10
1562.5625
 20
1540.3125
 30
0.0
 11
1562.5625
 21
1532.13656693
 31
0.0
  0
LINE
  5
DD
100
AcDbEntity
  8
0
 62
         0
100
AcDbLine
 10
1562.5625
 20
1538.0125
 30
0.0
 11
1562.5625
 21
1532.13656693
 31
0.0
  0
LINE
  5
DE
100
AcDbEntity
  8
0
 62
         0
100
AcDbLine
 10
1562.5625
 20
1538.0125
 30
0.0
 11
1562.5625
 21
1532.13656693
 31
0.0
  0
LINE
  5
DF
100
AcDbEntity
  8
0
 62
         0
100
AcDbLine
 10
1563.1875
 20
1535.5125
 30
0.0
 11
1562.5625
 21
1538.0125
 31
0.0
  0
LINE
  5
E0
100
AcDbEntity
  8
0
 62
         0
100
AcDbLine
 10
1562.5625
 20
1538.0125
 30
0.0
 11
1561.9375
 21
1535.5125
 31
0.0
  0
LINE
  5
E1
100
AcDbEntity
  8
0
 62
         0
100
AcDbLine
 10
1562.5625
 20
1540.3125
 30
0.0
 11
1562.5625
 21
1552.8125
 31
0.0
  0
LINE
  5
E2
100
AcDbEntity
  8
0
 62
         0
100
AcDbLine
 10
1561.9375
 20
1542.8125
 30
0.0
 11
1562.5625
 21
1540.3125
 31
0.0
  0
LINE
  5
E3
100
AcDbEntity
  8
0
 62
         0
100
AcDbLine
 10
1562.5625
 20
1540.3125
 30
0.0
 11
1563.1875
 21
1542.8125
 31
0.0
  0
ENDBLK
  5
E4
100
AcDbEntity
  8
0
100
AcDbBlockEnd
  0
BLOCK
  5
E7
100
AcDbEntity
  8
0
100
AcDbBlockBegin
  2
*D7
 70
         1
 10
0.0
 20
0.0
 30
0.0
  3

  1

  0
TEXT
  5
E8
100
AcDbEntity
  8
0
 62
         0
100
AcDbText
 10
1452.6614481717
 20
1315.5813503663
 30
0.0
 40
6.7074199438
  1
135
100
AcDbText
  0
LINE
  5
E9
100
AcDbEntity
  8
0
 62
         0
100
AcDbLine
 10
1526.1477864583
 20
1356.66015625
 30
0.0
 11
1526.1477864583
 21
1313.3432291667
 31
0.0
  0
LINE
  5
EA
100
AcDbEntity
  8
0
 62
         0
100
AcDbLine
 10
1391.1477864583
 20
1356.66015625
 30
0.0
 11
1391.1477864583
 21
1313.3432291667
 31
0.0
  0
LINE
  5
EB
100
AcDbEntity
  8
0
 62
         0
100
AcDbLine
 10
1526.1477864583
 20
1318.3432291667
 30
0.0
 11
1468.5796658883
 21
1318.3432291667
 31
0.0
  0
LINE
  5
EC
100
AcDbEntity
  8
0
 62
         0
100
AcDbLine
 10
1391.1477864583
 20
1318.3432291667
 30
0.0
 11
1448.7159070283
 21
1318.3432291667
 31
0.0
  0
LINE
  5
ED
100
AcDbEntity
  8
0
 62
         0
100
AcDbLine
 10
1526.1477864583
 20
1318.3432291667
 30
0.0
 11
1468.5796658883
 21
1318.3432291667
 31
0.0
  0
LINE
  5
EE
100
AcDbEntity
  8
0
 62
         0
100
AcDbLine
 10
1391.1477864583
 20
1318.3432291667
 30
0.0
 11
1448.7159070283
 21
1318.3432291667
 31
0.0
  0
LINE
  5
EF
100
AcDbEntity
  8
0
 62
         0
100
AcDbLine
 10
1391.1477864583
 20
1318.3432291667
 30
0.0
 11
1403.6477864583
 21
1318.3432291667
 31
0.0
  0
LINE
  5
F0
100
AcDbEntity
  8
0
 62
         0
100
AcDbLine
 10
1393.6477864583
 20
1318.9682291667
 30
0.0
 11
1391.1477864583
 21
1318.3432291667
 31
0.0
  0
LINE
  5
F1
100
AcDbEntity
  8
0
 62
         0
100
AcDbLine
 10
1391.1477864583
 20
1318.3432291667
 30
0.0
 11
1393.6477864583
 21
1317.7182291667
 31
0.0
  0
LINE
  5
F2
100
AcDbEntity
  8
0
 62
         0
100
AcDbLine
 10
1526.1477864583
 20
1318.3432291667
 30
0.0
 11
1513.6477864583
 21
1318.3432291667
 31
0.0
  0
LINE
  5
F3
100
AcDbEntity
  8
0
 62
         0
100
AcDbLine
 10
1523.6477864583
 20
1317.7182291667
 30
0.0
 11
1526.1477864583
 21
1318.3432291667
 31
0.0
  0
LINE
  5
F4
100
AcDbEntity
  8
0
 62
         0
100
AcDbLine
 10
1526.1477864583
 20
1318.3432291667
 30
0.0
 11
1523.6477864583
 21
1318.9682291667
 31
0.0
  0
ENDBLK
  5
F5
100
AcDbEntity
  8
0
100
AcDbBlockEnd
  0
BLOCK
  5
FE
100
AcDbEntity
  8
0
100
AcDbBlockBegin
  2
CLUMP2
 70
         0
 10
0.0
 20
0.0
 30
0.0
  3

  1

  0
INSERT
  5
100
100
AcDbEntity
  8
0
100
AcDbBlockReference
  2
CLUMP3
 10
0.0
 20
0.0
 30
0.0
  0
ENDBLK
  5
147
100
AcDbEntity
  8
0
100
AcDbBlockEnd
  0
BLOCK
  5
101
100
AcDbEntity
  8
0
100
AcDbBlockBegin
  2
CLUMP3
 70
         0
 10
0.0
 20
0.0
 30
0.0
  3

  1

  0
ELLIPSE
  5
102
100
AcDbEntity
  8
ﾚｲﾔｰ1
100
AcDbEllipse
 10
1272.2495118215
 20
1318.0022930242
 30
0.0
 11
0.6700507418025511
 21
0.4954557980832341
 31
0.0
210
0.0
220
0.0
230
1.0
 40
1.0
 41
-3.1415926535897931
 42
-2.2186575238709318
  0
ELLIPSE
  5
103
100
AcDbEntity
  8
ﾚｲﾔｰ1
100
AcDbEllipse
 10
1271.0639137507
 20
1319.6056870502
 30
0.0
 11
-0.2352837830517389
 21
-0.7994285370673678
 31
0.0
210
0.0
220
0.0
230
0.9999999999999999
 40
1.0
 41
-1.5707963267948966
 42
-0.6478611970764207
  0
ELLIPSE
  5
104
100
AcDbEntity
  8
ﾚｲﾔｰ1
100
AcDbEllipse
 10
1272.7749139423
 20
1318.413045054
 30
0.0
 11
0.261120301820008
 21
0.5338494002307874
 31
0.0
210
0.0
220
0.0
230
0.9999999999999999
 40
1.0
 41
-1.5707963267948966
 42
0.2947883604884503
  0
ELLIPSE
  5
105
100
AcDbEntity
  8
ﾚｲﾔｰ1
100
AcDbEllipse
 10
1271.6105928168
 20
1319.9876642973
 30
0.0
 11
0.0915068628572699
 21
-0.5761113363123013
 31
0.0
210
0.0
220
0.0
230
-1.0
 40
1.0
 41
-3.1415926535897931
 42
-1.2574829607823192
  0
LINE
  5
106
100
AcDbEntity
  8
ﾚｲﾔｰ1
100
AcDbLine
 10
1272.1257490614
 20
1319.1508080734
 30
0.0
 11
1272.5344792579
 21
1319.4530371327
 31
0.0
  0
LINE
  5
107
100
AcDbEntity
  8
ﾚｲﾔｰ1
100
AcDbLine
 10
1272.4106114858
 20
1319.7467014578
 30
0.0
 11
1272.7789561635
 21
1319.2485548512
 31
0.0
  0
LINE
  5
108
100
AcDbEntity
  8
ﾚｲﾔｰ1
100
AcDbLine
 10
1272.4609370835
 20
1318.6975022816
 30
0.0
 11
1272.86966728
 21
1318.9997313409
 31
0.0
  0
ELLIPSE
  5
109
100
AcDbEntity
  8
ﾚｲﾔｰ1
100
AcDbEllipse
 10
1272.310459314
 20
1318.936813026
 30
0.0
 11
-0.062918314886683
 21
0.5592079660274071
 31
0.0
210
0.0
220
0.0
230
0.9999999999999999
 40
1.0
 41
-1.5707963267948966
 42
-0.5214762759663305
  0
ELLIPSE
  5
10A
100
AcDbEntity
  8
ﾚｲﾔｰ1
100
AcDbEllipse
 10
1271.9752712919
 20
1319.3901188178
 30
0.0
 11
0.5162241067090932
 21
-0.2240199439104743
 31
0.0
210
0.0
220
0.0
230
-1.0
 40
1.0
 41
-1.5707963267948966
 42
-0.521476275967655
  0
LINE
  5
10B
100
AcDbEntity
  8
ﾚｲﾔｰ1
100
AcDbLine
 10
1272.1992912358
 20
1319.9063429245
 30
0.0
 11
1271.7905610393
 21
1319.6041138653
 31
0.0
  0
LINE
  5
10C
100
AcDbEntity
  8
ﾚｲﾔｰ1
100
AcDbLine
 10
1267.7172026363
 20
1316.8148712232
 30
0.0
 11
1268.6005223952
 21
1315.6202761412
 31
0.0
  0
LINE
  5
10D
100
AcDbEntity
  8
ﾚｲﾔｰ1
100
AcDbLine
 10
1269.3129972806
 20
1316.0863903915
 30
0.0
 11
1268.3716312642
 21
1317.359486801
 31
0.0
  0
LINE
  5
10E
100
AcDbEntity
  8
ﾚｲﾔｰ1
100
AcDbLine
 10
1268.421176844
 20
1317.2924817268
 30
0.0
 11
1269.4934434291
 21
1318.0853480927
 31
0.0
  0
LINE
  5
10F
100
AcDbEntity
  8
ﾚｲﾔｰ1
100
AcDbLine
 10
1268.2376211159
 20
1317.2603956413
 30
0.0
 11
1269.1758775525
 21
1317.9541708477
 31
0.0
  0
ELLIPSE
  5
110
100
AcDbEntity
  8
ﾚｲﾔｰ1
100
AcDbEllipse
 10
1268.3367122755
 20
1317.126385493
 30
0.0
 11
-0.1340101483606998
 21
-0.0990911596165181
 31
0.0
210
0.0
220
0.0
230
1.0
 40
1.0
 41
-1.5707963267948966
 42
0.0000000000013645
  0
LINE
  5
111
100
AcDbEntity
  8
ﾚｲﾔｰ1
100
AcDbLine
 10
1268.0656742456
 20
1317.4649027627
 30
0.0
 11
1269.0173316972
 21
1318.168587085
 31
0.0
  0
ELLIPSE
  5
112
100
AcDbEntity
  8
ﾚｲﾔｰ1
100
AcDbEllipse
 10
1268.3134021447
 20
1317.1298773918
 30
0.0
 11
0.2477278990416172
 21
-0.335025370901276
 31
0.0
210
0.0
220
0.0
230
1.0
 40
1.0
 41
-3.1415926535897931
 42
-1.5707963267948966
  0
LINE
  5
113
100
AcDbEntity
  8
ﾚｲﾔｰ1
100
AcDbLine
 10
1268.7500323264
 20
1318.5300807689
 30
0.0
 11
1269.1758775525
 21
1317.9541708477
 31
0.0
  0
LINE
  5
114
100
AcDbEntity
  8
ﾚｲﾔｰ1
100
AcDbLine
 10
1269.3241319728
 20
1315.7629738786
 30
0.0
 11
1270.2757894243
 21
1316.4666582009
 31
0.0
  0
ELLIPSE
  5
115
100
AcDbEntity
  8
ﾚｲﾔｰ1
100
AcDbEllipse
 10
1269.0798959726
 20
1316.1213093803
 30
0.0
 11
-0.1340101483606998
 21
-0.0990911596165181
 31
0.0
210
0.0
220
0.0
230
-1.0
 40
1.0
 41
-1.5707963267948966
 42
-0.0000000000013642
  0
LINE
  5
116
100
AcDbEntity
  8
ﾚｲﾔｰ1
100
AcDbLine
 10
1269.1789871322
 20
1315.9872992319
 30
0.0
 11
1270.1172435689
 21
1316.6810744382
 31
0.0
  0
LINE
  5
117
100
AcDbEntity
  8
ﾚｲﾔｰ1
100
AcDbLine
 10
1269.2634517008
 20
1316.1533954657
 30
0.0
 11
1270.3357182858
 21
1316.9462618316
 31
0.0
  0
LINE
  5
118
100
AcDbEntity
  8
ﾚｲﾔｰ1
100
AcDbLine
 10
1272.4011956031
 20
1318.4979707271
 30
0.0
 11
1271.7009925779
 21
1317.9802194181
 31
0.0
  0
LINE
  5
119
100
AcDbEntity
  8
ﾚｲﾔｰ1
100
AcDbLine
 10
1271.582280711
 20
1319.6054651454
 30
0.0
 11
1270.8820776858
 21
1319.0877138364
 31
0.0
  0
LINE
  5
11A
100
AcDbEntity
  8
ﾚｲﾔｰ1
100
AcDbLine
 10
1270.1771724304
 20
1317.160678069
 30
0.0
 11
1271.5259915388
 21
1318.1580357408
 31
0.0
  0
LINE
  5
11B
100
AcDbEntity
  8
ﾚｲﾔｰ1
100
AcDbLine
 10
1270.1276268506
 20
1317.2276831432
 30
0.0
 11
1271.476445959
 21
1318.225040815
 31
0.0
  0
LINE
  5
11C
100
AcDbEntity
  8
ﾚｲﾔｰ1
100
AcDbLine
 10
1269.7015308941
 20
1317.8039331293
 30
0.0
 11
1271.05035129
 21
1318.8012890598
 31
0.0
  0
LINE
  5
11D
100
AcDbEntity
  8
ﾚｲﾔｰ1
100
AcDbLine
 10
1269.6519854231
 20
1317.8709382839
 30
0.0
 11
1271.000805819
 21
1318.8682942145
 31
0.0
  0
ELLIPSE
  5
11E
100
AcDbEntity
  8
ﾚｲﾔｰ1
100
AcDbEllipse
 10
1270.2586566066
 20
1317.7702249849
 30
0.0
 11
1.3895518470860562
 21
-0.2022114764556341
 31
0.0
210
0.0
220
0.0
230
-0.9999999999999999
 40
1.0
 41
-1.5707963267948966
 42
0.0083753122987016
  0
LINE
  5
11F
100
AcDbEntity
  8
ﾚｲﾔｰ1
100
AcDbLine
 10
1269.4934434291
 20
1318.0853480927
 30
0.0
 11
1268.421176844
 21
1317.2924817268
 31
0.0
  0
LINE
  5
120
100
AcDbEntity
  8
ﾚｲﾔｰ1
100
AcDbLine
 10
1272.6459770397
 20
1318.4472556191
 30
0.0
 11
1271.6055198637
 21
1319.8543621769
 31
0.0
  0
LINE
  5
121
100
AcDbEntity
  8
ﾚｲﾔｰ1
100
AcDbLine
 10
1272.5119668913
 20
1318.3481644595
 30
0.0
 11
1272.6459770397
 21
1318.4472556191
 31
0.0
  0
LINE
  5
122
100
AcDbEntity
  8
ﾚｲﾔｰ1
  6
BORDER
 62
         3
100
AcDbLine
 10
1273.2366924353
 20
1319.9722748091
 30
0.0
 11
1267.4903372736
 21
1315.7232458847
 31
0.0
  0
LINE
  5
123
100
AcDbEntity
  8
ﾚｲﾔｰ1
100
AcDbLine
 10
1270.3357182858
 20
1316.9462618316
 30
0.0
 11
1269.4934434291
 21
1318.0853480927
 31
0.0
  0
LINE
  5
124
100
AcDbEntity
  8
ﾚｲﾔｰ1
100
AcDbLine
 10
1271.6699291175
 20
1319.7672555804
 30
0.0
 11
1272.581567786
 21
1318.5343622155
 31
0.0
  0
LINE
  5
125
100
AcDbEntity
  8
ﾚｲﾔｰ1
100
AcDbLine
 10
1271.6055198637
 20
1319.8543621769
 30
0.0
 11
1271.4715097154
 21
1319.7552710172
 31
0.0
  0
ELLIPSE
  5
126
100
AcDbEntity
  8
ﾚｲﾔｰ1
100
AcDbEllipse
 10
1270.1916515325
 20
1317.720679405
 30
0.0
 11
1.3895518470878869
 21
-0.2022114764554317
 31
0.0
210
0.0
220
0.0
230
-0.9999999999999999
 40
1.0
 41
-1.5707963267948966
 42
0.0083753122968739
  0
ELLIPSE
  5
127
100
AcDbEntity
  8
ﾚｲﾔｰ1
100
AcDbEllipse
 10
1272.6312617503
 20
1317.5813402475
 30
0.0
 11
-0.2477278990416172
 21
0.335025370901276
 31
0.0
210
0.0
220
0.0
230
-1.0
 40
1.0
 41
-3.1415926535897931
 42
-2.4937314565140967
  0
LINE
  5
128
100
AcDbEntity
  8
ﾚｲﾔｰ1
100
AcDbLine
 10
1272.2402127574
 20
1317.169011576
 30
0.0
 11
1272.6266122182
 21
1317.1646995235
 31
0.0
  0
LINE
  5
129
100
AcDbEntity
  8
ﾚｲﾔｰ1
100
AcDbLine
 10
1273.5034710484
 20
1317.7080753235
 30
0.0
 11
1272.8789896493
 21
1317.2463148766
 31
0.0
  0
ELLIPSE
  5
12A
100
AcDbEntity
  8
ﾚｲﾔｰ1
100
AcDbEllipse
 10
1270.7733025075
 20
1320.0940305293
 30
0.0
 11
-0.3350253709016758
 21
-0.2477278990412999
 31
0.0
210
0.0
220
0.0
230
1.0
 40
1.0
 41
-1.5707963267948966
 42
-0.9229351297195632
  0
LINE
  5
12B
100
AcDbEntity
  8
ﾚｲﾔｰ1
100
AcDbLine
 10
1270.2644852137
 20
1319.8409708333
 30
0.0
 11
1270.373588239
 21
1320.2116724208
 31
0.0
  0
LINE
  5
12C
100
AcDbEntity
  8
ﾚｲﾔｰ1
100
AcDbLine
 10
1271.1500560075
 20
1320.8908163471
 30
0.0
 11
1270.5255746085
 21
1320.4290559002
 31
0.0
  0
LINE
  5
12D
100
AcDbEntity
  8
ﾚｲﾔｰ1
100
AcDbLine
 10
1271.4715097154
 20
1319.7552710172
 30
0.0
 11
1272.5119668913
 21
1318.3481644595
 31
0.0
  0
LINE
  5
12E
100
AcDbEntity
  8
ﾚｲﾔｰ1
100
AcDbLine
 10
1273.5034710484
 20
1317.7080753235
 30
0.0
 11
1273.3135082434
 21
1317.9649796102
 31
0.0
  0
LINE
  5
12F
100
AcDbEntity
  8
ﾚｲﾔｰ1
100
AcDbLine
 10
1273.2325746637
 20
1318.0674254451
 30
0.0
 11
1272.5323716385
 21
1317.5496741361
 31
0.0
  0
LINE
  5
130
100
AcDbEntity
  8
ﾚｲﾔｰ1
100
AcDbLine
 10
1271.4142518847
 20
1320.5265116675
 30
0.0
 11
1270.7140488596
 21
1320.0087603585
 31
0.0
  0
LINE
  5
131
100
AcDbEntity
  8
ﾚｲﾔｰ1
100
AcDbLine
 10
1271.1500560075
 20
1320.8908163471
 30
0.0
 11
1271.3400188124
 21
1320.6339120604
 31
0.0
  0
LINE
  5
132
100
AcDbEntity
  8
ﾚｲﾔｰ1
100
AcDbLine
 10
1271.1500560075
 20
1320.8908163471
 30
0.0
 11
1271.3320915197
 21
1320.6446328723
 31
0.0
  0
LINE
  5
133
100
AcDbEntity
  8
ﾚｲﾔｰ1
100
AcDbLine
 10
1273.5034710484
 20
1317.7080753235
 30
0.0
 11
1273.3214355362
 21
1317.9542587983
 31
0.0
  0
ELLIPSE
  5
134
100
AcDbEntity
  8
ﾚｲﾔｰ1
100
AcDbEllipse
 10
1273.5390166208
 20
1318.0804919889
 30
0.0
 11
-0.0997659193942424
 21
-0.2292308036183532
 31
0.0
210
0.0
220
0.0
230
1.0
 40
1.0
 41
-1.5707963267948966
 42
-0.5235987763007843
  0
LINE
  5
135
100
AcDbEntity
  8
ﾚｲﾔｰ1
  6
BORDER
 62
         3
100
AcDbLine
 10
1273.6101200893
 20
1320.2483985185
 30
0.0
 11
1267.0560194348
 21
1315.4020981297
 31
0.0
  0
ELLIPSE
  5
136
100
AcDbEntity
  8
ﾚｲﾔｰ1
100
AcDbEllipse
 10
1271.5165408801
 20
1320.8156731605
 30
0.0
 11
0.2170981260407087
 21
-0.1239693658518191
 31
0.0
210
0.0
220
0.0
230
1.0
 40
1.0
 41
-1.5707963267948966
 42
-1.058750360911322
  0
ELLIPSE
  5
137
100
AcDbEntity
  8
ﾚｲﾔｰ1
100
AcDbEllipse
 10
1271.5165408801
 20
1320.8156731605
 30
0.0
 11
0.2010152225407655
 21
0.1486367394249702
 31
0.0
210
0.0
220
0.0
230
1.0
 40
1.0
 41
-3.1415926535897931
 42
-2.0943951022746572
  0
LINE
  5
138
100
AcDbEntity
  8
ﾚｲﾔｰ1
100
AcDbLine
 10
1267.9182178588
 20
1316.9635079626
 30
0.0
 11
1268.8015376178
 21
1315.7689128806
 31
0.0
  0
LINE
  5
139
100
AcDbEntity
  8
ﾚｲﾔｰ1
100
AcDbLine
 10
1267.7172026363
 20
1316.8148712232
 30
0.0
 11
1267.9182178588
 21
1316.9635079626
 31
0.0
  0
LINE
  5
13A
100
AcDbEntity
  8
ﾚｲﾔｰ1
100
AcDbLine
 10
1268.6005223952
 20
1315.6202761412
 30
0.0
 11
1268.8015376178
 21
1315.7689128806
 31
0.0
  0
LINE
  5
13B
100
AcDbEntity
  8
ﾚｲﾔｰ1
100
AcDbLine
 10
1267.1764642332
 20
1317.4344194482
 30
0.0
 11
1269.034423476
 21
1314.9217291665
 31
0.0
  0
LINE
  5
13C
100
AcDbEntity
  8
ﾚｲﾔｰ1
100
AcDbLine
 10
1267.263761705
 20
1318.0171727182
 30
0.0
 11
1270.108127104
 21
1320.120382581
 31
0.0
  0
LINE
  5
13D
100
AcDbEntity
  8
ﾚｲﾔｰ1
100
AcDbLine
 10
1268.7413787028
 20
1315.8502713504
 30
0.0
 11
1267.9783767237
 21
1316.8821495606
 31
0.0
  0
LINE
  5
13E
100
AcDbEntity
  8
ﾚｲﾔｰ1
100
AcDbLine
 10
1268.9458858242
 20
1316.0222182207
 30
0.0
 11
1268.2027021197
 21
1317.0272943434
 31
0.0
  0
LINE
  5
13F
100
AcDbEntity
  8
ﾚｲﾔｰ1
100
AcDbLine
 10
1268.7500323264
 20
1318.5300807689
 30
0.0
 11
1267.680687256
 21
1318.3254600891
 31
0.0
  0
ELLIPSE
  5
140
100
AcDbEntity
  8
ﾚｲﾔｰ1
100
AcDbEllipse
 10
1267.5114896041
 20
1317.6821473473
 30
0.0
 11
0.2477278990416172
 21
-0.335025370901276
 31
0.0
210
0.0
220
0.0
230
1.0
 40
1.0
 41
-3.1415926535897931
 42
-1.5707963267948966
  0
ELLIPSE
  5
141
100
AcDbEntity
  8
ﾚｲﾔｰ1
100
AcDbEllipse
 10
1269.3694488469
 20
1315.1694570655
 30
0.0
 11
-0.2477278990416172
 21
0.335025370901276
 31
0.0
210
0.0
220
0.0
230
-1.0
 40
1.0
 41
-3.1415926535897931
 42
-1.5707963267954423
  0
LINE
  5
142
100
AcDbEntity
  8
ﾚｲﾔｰ1
100
AcDbLine
 10
1269.6171767459
 20
1314.8344316946
 30
0.0
 11
1272.4615421449
 21
1316.9376415575
 31
0.0
  0
LINE
  5
143
100
AcDbEntity
  8
ﾚｲﾔｰ1
100
AcDbLine
 10
1270.543088795
 20
1316.105164517
 30
0.0
 11
1270.0341022969
 21
1315.1427190655
 31
0.0
  0
LINE
  5
144
100
AcDbEntity
  8
ﾚｲﾔｰ1
100
AcDbLine
 10
1270.543088795
 20
1316.105164517
 30
0.0
 11
1270.1172435689
 21
1316.6810744382
 31
0.0
  0
ELLIPSE
  5
145
100
AcDbEntity
  8
ﾚｲﾔｰ1
100
AcDbEllipse
 10
1269.0764040737
 20
1316.0979992495
 30
0.0
 11
-0.3350253709013055
 21
-0.247727899042247
 31
0.0
210
0.0
220
0.0
230
-1.0
 40
1.0
 41
-1.5707963267948966
 42
0.0000000000000007
  0
ENDBLK
  5
146
100
AcDbEntity
  8
0
100
AcDbBlockEnd
  0
BLOCK
  5
15B
100
AcDbEntity
  8
0
100
AcDbBlockBegin
  2
CLUMP4
 70
         0
 10
0.0
 20
0.0
 30
0.0
  3

  1

  0
INSERT
  5
15D
100
AcDbEntity
  8
0
100
AcDbBlockReference
  2
CLUMP5
 10
0.0
 20
0.0
 30
0.0
  0
ENDBLK
  5
19A
100
AcDbEntity
  8
0
100
AcDbBlockEnd
  0
BLOCK
  5
15E
100
AcDbEntity
  8
0
100
AcDbBlockBegin
  2
CLUMP5
 70
         0
 10
0.0
 20
0.0
 30
0.0
  3

  1

  0
LINE
  5
15F
100
AcDbEntity
  8
ﾚｲﾔｰ1
100
AcDbLine
 10
1418.687786455
 20
1526.8125
 30
0.0
 11
1406.287786455
 21
1526.8125
 31
0.0
  0
LINE
  5
160
100
AcDbEntity
  8
ﾚｲﾔｰ1
100
AcDbLine
 10
1412.787786455
 20
1524.7125
 30
0.0
 11
1421.487786455
 21
1526.8125
 31
0.0
  0
ARC
  5
161
100
AcDbEntity
  8
ﾚｲﾔｰ1
100
AcDbCircle
 10
-1415.2879690516
 20
1515.8125
 30
0.0
 40
10.0
210
0.0
220
0.0
230
-1.0
100
AcDbArc
 50
215.5699698024
 51
270.0000000235
  0
LINE
  5
162
100
AcDbEntity
  8
ﾚｲﾔｰ1
100
AcDbLine
 10
1415.987786455
 20
1505.8125
 30
0.0
 11
1404.687786455
 21
1505.8125
 31
0.0
  0
LINE
  5
163
100
AcDbEntity
  8
ﾚｲﾔｰ1
100
AcDbLine
 10
1397.6877894083
 20
1468.8125
 30
0.0
 11
1418.6877894083
 21
1468.8125
 31
0.0
  0
LINE
  5
164
100
AcDbEntity
  8
ﾚｲﾔｰ1
100
AcDbLine
 10
1399.687786455
 20
1499.8125
 30
0.0
 11
1416.687786455
 21
1499.8125
 31
0.0
  0
LINE
  5
165
100
AcDbEntity
  8
ﾚｲﾔｰ1
100
AcDbLine
 10
1413.487786455
 20
1499.8125
 30
0.0
 11
1413.487786455
 21
1486.0427656048
 31
0.0
  0
LINE
  5
166
100
AcDbEntity
  8
ﾚｲﾔｰ1
100
AcDbLine
 10
1418.6877894083
 20
1466.8125
 30
0.0
 11
1397.6877894083
 21
1466.8125
 31
0.0
  0
LINE
  5
167
100
AcDbEntity
  8
ﾚｲﾔｰ1
  6
BORDER
 62
         3
100
AcDbLine
 10
1418.887786455
 20
1495.8603024054
 30
0.0
 11
1495.1579023895
 21
1495.8603024054
 31
0.0
  0
CIRCLE
  5
168
100
AcDbEntity
  8
ﾚｲﾔｰ1
100
AcDbCircle
 10
-1474.6515840769
 20
1483.8111989111
 30
0.0
 40
5.25
210
0.0
220
0.0
230
-1.0
  0
LINE
  5
169
100
AcDbEntity
  8
ﾚｲﾔｰ1
100
AcDbLine
 10
1465.6515840769
 20
1483.8111989111
 30
0.0
 11
1483.6515840769
 21
1483.8111989111
 31
0.0
  0
ARC
  5
16A
100
AcDbEntity
  8
ﾚｲﾔｰ1
100
AcDbCircle
 10
-1471.187786455
 20
1519.8125
 30
0.0
 40
7.0
210
0.0
220
0.0
230
-1.0
100
AcDbArc
 50
90.0
 51
180.0000000118
  0
ARC
  5
16B
100
AcDbEntity
  8
ﾚｲﾔｰ1
100
AcDbCircle
 10
-1474.6515840769
 20
1483.8111989111
 30
0.0
 40
9.0
210
0.0
220
0.0
230
-1.0
100
AcDbArc
 50
226.5403763058
 51
12.2056976658
  0
LINE
  5
16C
100
AcDbEntity
  8
ﾚｲﾔｰ1
100
AcDbLine
 10
1478.187786455
 20
1519.8125
 30
0.0
 11
1478.187786455
 21
1506.8125
 31
0.0
  0
LINE
  5
16D
100
AcDbEntity
  8
ﾚｲﾔｰ1
100
AcDbLine
 10
1488.9128625926
 20
1483.8125
 30
0.0
 11
1480.8313057014
 21
1477.2681842662
 31
0.0
  0
LINE
  5
16E
100
AcDbEntity
  8
ﾚｲﾔｰ1
100
AcDbLine
 10
1474.6515840769
 20
1474.8111989111
 30
0.0
 11
1474.6515840769
 21
1492.8111989111
 31
0.0
  0
ARC
  5
16F
100
AcDbEntity
  8
ﾚｲﾔｰ1
100
AcDbCircle
 10
-1443.187786455
 20
1495.8603024054
 30
0.0
 40
31.3
210
0.0
220
0.0
230
-1.0
100
AcDbArc
 50
216.3084306165
 51
300.2145491777
  0
LINE
  5
170
100
AcDbEntity
  8
ﾚｲﾔｰ1
100
AcDbLine
 10
1466.938481913
 20
1490.7227480006
 30
0.0
 11
1465.8550302036
 21
1485.7139968388
 31
0.0
  0
LINE
  5
171
100
AcDbEntity
  8
ﾚｲﾔｰ1
100
AcDbLine
 10
1417.3877894083
 20
1466.8125
 30
0.0
 11
1417.3877741495
 21
1460.7125
 31
0.0
  0
LINE
  5
172
100
AcDbEntity
  8
ﾚｲﾔｰ1
100
AcDbLine
 10
1418.687786455
 20
1526.136637931
 30
0.0
 11
1418.687786455
 21
1526.8125
 31
0.0
  0
LINE
  5
173
100
AcDbEntity
  8
ﾚｲﾔｰ1
100
AcDbLine
 10
1416.687786455
 20
1505.8125
 30
0.0
 11
1416.687786455
 21
1499.8125
 31
0.0
  0
LINE
  5
174
100
AcDbEntity
  8
ﾚｲﾔｰ1
100
AcDbLine
 10
1463.4183314748
 20
1477.5295891568
 30
0.0
 11
1465.7183314748
 21
1485.8295891568
 31
0.0
  0
ARC
  5
175
100
AcDbEntity
  8
ﾚｲﾔｰ1
100
AcDbCircle
 10
-1443.187786455
 20
1495.8603024054
 30
0.0
 40
27.3
210
0.0
220
0.0
230
-1.0
100
AcDbArc
 50
221.1127581231
 51
338.9233398995
  0
ARC
  5
176
100
AcDbEntity
  8
ﾚｲﾔｰ1
100
AcDbCircle
 10
-1443.187786455
 20
1495.8603024054
 30
0.0
 40
24.3
210
0.0
220
0.0
230
-1.0
100
AcDbArc
 50
34.3178313327
 51
90.0
  0
LINE
  5
177
100
AcDbEntity
  8
ﾚｲﾔｰ1
100
AcDbLine
 10
1397.687786455
 20
1526.8125
 30
0.0
 11
1410.087786455
 21
1526.8125
 31
0.0
  0
LINE
  5
178
100
AcDbEntity
  8
ﾚｲﾔｰ1
100
AcDbLine
 10
1398.9877741495
 20
1460.7125
 30
0.0
 11
1398.9877894083
 21
1466.8125
 31
0.0
  0
LINE
  5
179
100
AcDbEntity
  8
ﾚｲﾔｰ1
100
AcDbLine
 10
1412.7877894083
 20
1466.8125
 30
0.0
 11
1412.7877741495
 21
1460.7125
 31
0.0
  0
LINE
  5
17A
100
AcDbEntity
  8
ﾚｲﾔｰ1
100
AcDbLine
 10
1403.5877894083
 20
1466.8125
 30
0.0
 11
1403.5877741495
 21
1460.7125
 31
0.0
  0
LINE
  5
17B
100
AcDbEntity
  8
ﾚｲﾔｰ1
100
AcDbLine
 10
1412.787786455
 20
1524.8125
 30
0.0
 11
1397.687786455
 21
1524.8125
 31
0.0
  0
LINE
  5
17C
100
AcDbEntity
  8
ﾚｲﾔｰ1
100
AcDbLine
 10
1394.687786455
 20
1524.8125
 30
0.0
 11
1397.687786455
 21
1524.8125
 31
0.0
  0
LINE
  5
17D
100
AcDbEntity
  8
ﾚｲﾔｰ1
100
AcDbLine
 10
1399.687786455
 20
1499.8125
 30
0.0
 11
1399.687786455
 21
1507.1522459622
 31
0.0
  0
LINE
  5
17E
100
AcDbEntity
  8
ﾚｲﾔｰ1
100
AcDbLine
 10
1408.4917117216
 20
1485.0312186757
 30
0.0
 11
1411.2709140682
 21
1486.0427656048
 31
0.0
  0
LINE
  5
17F
100
AcDbEntity
  8
ﾚｲﾔｰ1
100
AcDbLine
 10
1416.687786455
 20
1499.8125
 30
0.0
 11
1399.687786455
 21
1499.8125
 31
0.0
  0
LINE
  5
180
100
AcDbEntity
  8
ﾚｲﾔｰ1
100
AcDbLine
 10
1478.187786455
 20
1506.8125
 30
0.0
 11
1488.9128625926
 21
1483.8125
 31
0.0
  0
ARC
  5
181
100
AcDbEntity
  8
ﾚｲﾔｰ1
100
AcDbCircle
 10
-1443.187786455
 20
1495.8603024054
 30
0.0
 40
24.3
210
0.0
220
0.0
230
-1.0
100
AcDbArc
 50
205.027820565
 51
336.1706547391
  0
ARC
  5
182
100
AcDbEntity
  8
ﾚｲﾔｰ1
100
AcDbCircle
 10
-1408.1877741495
 20
1472.0125
 30
0.0
 40
12.2
210
0.0
220
0.0
230
-1.0
100
AcDbArc
 50
247.9000000206
 51
292.1000000264
  0
ARC
  5
183
100
AcDbEntity
  8
ﾚｲﾔｰ1
100
AcDbCircle
 10
-1401.2877741495
 20
1463.2125
 30
0.0
 40
3.4
210
0.0
220
0.0
230
-1.0
100
AcDbArc
 50
227.3000000179
 51
312.7000000291
  0
LINE
  5
184
100
AcDbEntity
  8
ﾚｲﾔｰ1
  6
BORDER
 62
         3
100
AcDbLine
 10
1408.187786455
 20
1450.2325
 30
0.0
 11
1408.187786455
 21
1535.9925
 31
0.0
  0
LINE
  5
185
100
AcDbEntity
  8
ﾚｲﾔｰ1
100
AcDbLine
 10
1394.687786455
 20
1515.8125
 30
0.0
 11
1394.687786455
 21
1524.8125
 31
0.0
  0
ARC
  5
186
100
AcDbEntity
  8
ﾚｲﾔｰ1
100
AcDbCircle
 10
-1404.687786455
 20
1515.8125
 30
0.0
 40
10.0
210
0.0
220
0.0
230
-1.0
100
AcDbArc
 50
270.0000000235
 51
0.0000000353
  0
LINE
  5
187
100
AcDbEntity
  8
ﾚｲﾔｰ1
100
AcDbLine
 10
1412.487786455
 20
1499.8125
 30
0.0
 11
1412.487786455
 21
1486.0427656048
 31
0.0
  0
LINE
  5
188
100
AcDbEntity
  8
ﾚｲﾔｰ1
100
AcDbLine
 10
1398.9877894083
 20
1466.8125
 30
0.0
 11
1417.3877894083
 21
1466.8125
 31
0.0
  0
LINE
  5
189
100
AcDbEntity
  8
ﾚｲﾔｰ1
100
AcDbLine
 10
1401.187786455
 20
1468.8125
 30
0.0
 11
1427.4363933407
 21
1468.8125
 31
0.0
  0
LINE
  5
18A
100
AcDbEntity
  8
ﾚｲﾔｰ1
100
AcDbLine
 10
1420.9592918723
 20
1486.0427656172
 30
0.0
 11
1411.2709140628
 21
1486.0427656172
 31
0.0
  0
ARC
  5
18B
100
AcDbEntity
  8
ﾚｲﾔｰ1
100
AcDbCircle
 10
-1415.0877741495
 20
1463.2125
 30
0.0
 40
3.4
210
0.0
220
0.0
230
-1.0
100
AcDbArc
 50
227.3000000179
 51
312.7000000291
  0
LINE
  5
18C
100
AcDbEntity
  8
ﾚｲﾔｰ1
100
AcDbLine
 10
1401.2877741495
 20
1459.8125
 30
0.0
 11
1415.0877741495
 21
1459.8125
 31
0.0
  0
LINE
  5
18D
100
AcDbEntity
  8
ﾚｲﾔｰ1
  6
BORDER
 62
         3
100
AcDbLine
 10
1443.187786455
 20
1453.3963361236
 30
0.0
 11
1443.187786455
 21
1540.7424819068
 31
0.0
  0
LINE
  5
18E
100
AcDbEntity
  8
ﾚｲﾔｰ1
100
AcDbLine
 10
1418.6877894083
 20
1468.8125
 30
0.0
 11
1418.6877894083
 21
1466.8125
 31
0.0
  0
LINE
  5
18F
100
AcDbEntity
  8
ﾚｲﾔｰ1
100
AcDbLine
 10
1421.487786455
 20
1526.8125
 30
0.0
 11
1471.187786455
 21
1526.8125
 31
0.0
  0
LINE
  5
190
100
AcDbEntity
  8
ﾚｲﾔｰ1
100
AcDbLine
 10
1408.187786455
 20
1484.8125
 30
0.0
 11
1395.187786455
 21
1480.0808869546
 31
0.0
  0
ARC
  5
191
100
AcDbEntity
  8
ﾚｲﾔｰ1
100
AcDbCircle
 10
-1403.087786455
 20
1476.7904404686
 30
0.0
 40
8.0
210
0.0
220
0.0
230
-1.0
100
AcDbArc
 50
270.0000000235
 51
0.0000000353
  0
LINE
  5
192
100
AcDbEntity
  8
ﾚｲﾔｰ1
100
AcDbLine
 10
1403.187786455
 20
1499.8125
 30
0.0
 11
1403.187786455
 21
1482.9926488287
 31
0.0
  0
LINE
  5
193
100
AcDbEntity
  8
ﾚｲﾔｰ1
100
AcDbLine
 10
1397.687786455
 20
1524.8125
 30
0.0
 11
1397.687786455
 21
1526.8125
 31
0.0
  0
LINE
  5
194
100
AcDbEntity
  8
ﾚｲﾔｰ1
100
AcDbLine
 10
1412.787786455
 20
1524.8125
 30
0.0
 11
1413.2020721693
 21
1524.8125
 31
0.0
  0
LINE
  5
195
100
AcDbEntity
  8
ﾚｲﾔｰ1
100
AcDbLine
 10
1403.887786455
 20
1499.8125
 30
0.0
 11
1403.887786455
 21
1483.2427656048
 31
0.0
  0
LINE
  5
196
100
AcDbEntity
  8
ﾚｲﾔｰ1
100
AcDbLine
 10
1397.6877894083
 20
1466.8125
 30
0.0
 11
1397.6877894083
 21
1468.8125
 31
0.0
  0
LINE
  5
197
100
AcDbEntity
  8
ﾚｲﾔｰ1
100
AcDbLine
 10
1395.187786455
 20
1480.0808869546
 30
0.0
 11
1395.187786455
 21
1476.7308869546
 31
0.0
  0
ARC
  5
198
100
AcDbEntity
  8
ﾚｲﾔｰ1
100
AcDbCircle
 10
-1443.187786455
 20
1495.8603024054
 30
0.0
 40
24.3
210
0.0
220
0.0
230
-1.0
100
AcDbArc
 50
90.0
 51
192.4017884544
  0
ENDBLK
  5
199
100
AcDbEntity
  8
0
100
AcDbBlockEnd
  0
BLOCK
  5
1CE
100
AcDbEntity
  8
0
100
AcDbBlockBegin
  2
CLUMP6
 70
         0
 10
0.0
 20
0.0
 30
0.0
  3

  1

  0
INSERT
  5
1D0
100
AcDbEntity
  8
0
100
AcDbBlockReference
  2
CLUMP7
 10
0.0
 20
0.0
 30
0.0
  0
ENDBLK
  5
1D7
100
AcDbEntity
  8
0
100
AcDbBlockEnd
  0
BLOCK
  5
1D1
100
AcDbEntity
  8
0
100
AcDbBlockBegin
  2
CLUMP7
 70
         0
 10
0.0
 20
0.0
 30
0.0
  3

  1

  0
LINE
  5
1D2
100
AcDbEntity
  8
ﾚｲﾔｰ1
100
AcDbLine
 10
1148.228334375
 20
1290.5852541667
 30
0.0
 11
1189.8950010417
 21
1290.5852541667
 31
0.0
  0
LINE
  5
1D3
100
AcDbEntity
  8
ﾚｲﾔｰ1
100
AcDbLine
 10
1189.8950010417
 20
1291.5852541667
 30
0.0
 11
1148.228334375
 21
1291.5852541667
 31
0.0
  0
LINE
  5
1D4
100
AcDbEntity
  8
ﾚｲﾔｰ1
100
AcDbLine
 10
1148.228334375
 20
1291.5852541667
 30
0.0
 11
1148.228334375
 21
1290.5852541667
 31
0.0
  0
LINE
  5
1D5
100
AcDbEntity
  8
ﾚｲﾔｰ1
100
AcDbLine
 10
1189.8950010417
 20
1291.5852541667
 30
0.0
 11
1189.8950010417
 21
1290.5852541667
 31
0.0
  0
ENDBLK
  5
1D6
100
AcDbEntity
  8
0
100
AcDbBlockEnd
  0
BLOCK
  5
1DA
100
AcDbEntity
  8
0
100
AcDbBlockBegin
  2
CLUMP8
 70
         0
 10
0.0
 20
0.0
 30
0.0
  3

  1

  0
INSERT
  5
1DC
100
AcDbEntity
  8
0
100
AcDbBlockReference
  2
CLUMP9
 10
0.0
 20
0.0
 30
0.0
  0
ENDBLK
  5
1E3
100
AcDbEntity
  8
0
100
AcDbBlockEnd
  0
BLOCK
  5
1DD
100
AcDbEntity
  8
0
100
AcDbBlockBegin
  2
CLUMP9
 70
         0
 10
0.0
 20
0.0
 30
0.0
  3

  1

  0
LINE
  5
1DE
100
AcDbEntity
  8
ﾚｲﾔｰ1
100
AcDbLine
 10
1148.228334375
 20
1290.5852541667
 30
0.0
 11
1189.8950010417
 21
1290.5852541667
 31
0.0
  0
LINE
  5
1DF
100
AcDbEntity
  8
ﾚｲﾔｰ1
100
AcDbLine
 10
1189.8950010417
 20
1291.5852541667
 30
0.0
 11
1148.228334375
 21
1291.5852541667
 31
0.0
  0
LINE
  5
1E0
100
AcDbEntity
  8
ﾚｲﾔｰ1
100
AcDbLine
 10
1148.228334375
 20
1291.5852541667
 30
0.0
 11
1148.228334375
 21
1290.5852541667
 31
0.0
  0
LINE
  5
1E1
100
AcDbEntity
  8
ﾚｲﾔｰ1
100
AcDbLine
 10
1189.8950010417
 20
1291.5852541667
 30
0.0
 11
1189.8950010417
 21
1290.5852541667
 31
0.0
  0
ENDBLK
  5
1E2
100
AcDbEntity
  8
0
100
AcDbBlockEnd
  0
BLOCK
  5
1FE
100
AcDbEntity
  8
0
100
AcDbBlockBegin
  2
CLUMP10
 70
         0
 10
0.0
 20
0.0
 30
0.0
  3

  1

  0
INSERT
  5
200
100
AcDbEntity
  8
0
100
AcDbBlockReference
  2
CLUMP11
 10
0.0
 20
0.0
 30
0.0
  0
ENDBLK
  5
23C
100
AcDbEntity
  8
0
100
AcDbBlockEnd
  0
BLOCK
  5
201
100
AcDbEntity
  8
0
100
AcDbBlockBegin
  2
CLUMP11
 70
         0
 10
0.0
 20
0.0
 30
0.0
  3

  1

  0
ELLIPSE
  5
202
100
AcDbEntity
  8
ﾚｲﾔｰ1
100
AcDbEllipse
 10
1169.7451227604
 20
1458.6461601362
 30
0.0
 11
0.1345344718343049
 21
0.0983781157882299
 31
0.0
210
0.0
220
0.0
230
1.0
 40
1.0
 41
-3.1415926535897931
 42
-1.5707963267948966
  0
LINE
  5
203
100
AcDbEntity
  8
ﾚｲﾔｰ1
100
AcDbLine
 10
1171.725717778
 20
1455.655290876
 30
0.0
 11
1167.491005085
 21
1452.5586640415
 31
0.0
  0
ELLIPSE
  5
204
100
AcDbEntity
  8
ﾚｲﾔｰ1
100
AcDbEllipse
 10
1169.2562687275
 20
1454.3656935124
 30
0.0
 11
0.0297544479934852
 21
0.1639891783088337
 31
0.0
210
0.0
220
0.0
230
-0.9999999999999999
 40
1.0
 41
-1.5707963267948966
 42
-0.8108805501103753
  0
LINE
  5
205
100
AcDbEntity
  8
ﾚｲﾔｰ1
100
AcDbLine
 10
1169.0922795492
 20
1454.3954479604
 30
0.0
 11
1168.9929385537
 21
1453.847938283
 31
0.0
  0
ELLIPSE
  5
206
100
AcDbEntity
  8
ﾚｲﾔｰ1
100
AcDbEllipse
 10
1167.3870845275
 20
1456.9218484773
 30
0.0
 11
0.0213617603946679
 21
0.1652920233120851
 31
0.0
210
0.0
220
0.0
230
0.9999999999999999
 40
1.0
 41
-3.1415926535897931
 42
-2.3816768769046619
  0
LINE
  5
207
100
AcDbEntity
  8
ﾚｲﾔｰ1
  6
BORDER
 62
         3
100
AcDbLine
 10
1165.3124708389
 20
1456.8453574697
 30
0.0
 11
1168.5544257657
 21
1452.4119050673
 31
0.0
  0
LINE
  5
208
100
AcDbEntity
  8
ﾚｲﾔｰ1
100
AcDbLine
 10
1166.0892470924
 20
1456.48899022
 30
0.0
 11
1165.9908689766
 21
1456.6235246919
 31
0.0
  0
LINE
  5
209
100
AcDbEntity
  8
ﾚｲﾔｰ1
100
AcDbLine
 10
1169.7195563559
 20
1458.4814660661
 30
0.0
 11
1170.8755018845
 21
1458.6210456437
 31
0.0
  0
LINE
  5
20A
100
AcDbEntity
  8
ﾚｲﾔｰ1
100
AcDbLine
 10
1170.5335942971
 20
1457.570942193
 30
0.0
 11
1170.8287286444
 21
1457.1673387775
 31
0.0
  0
ELLIPSE
  5
20B
100
AcDbEntity
  8
ﾚｲﾔｰ1
100
AcDbEllipse
 10
1170.3990598252
 20
1457.4725640772
 30
0.0
 11
0.0983781157882299
 21
-0.1345344718343049
 31
0.0
210
0.0
220
0.0
230
-1.0
 40
1.0
 41
-3.1415926535897931
 42
-1.5707963267948966
  0
LINE
  5
20C
100
AcDbEntity
  8
ﾚｲﾔｰ1
100
AcDbLine
 10
1171.725717778
 20
1455.655290876
 30
0.0
 11
1171.4797724886
 21
1455.9916270556
 31
0.0
  0
ARC
  5
20D
100
AcDbEntity
  8
ﾚｲﾔｰ1
100
AcDbCircle
 10
-1171.6143069604
 20
1456.0900051714
 30
0.0
 40
0.1666666667
210
0.0
220
0.0
230
-1.0
100
AcDbArc
 50
323.823922088
 51
53.823922088
  0
LINE
  5
20E
100
AcDbEntity
  8
ﾚｲﾔｰ1
100
AcDbLine
 10
1171.4496128903
 20
1456.1155715759
 30
0.0
 11
1171.9330666292
 21
1457.1748000715
 31
0.0
  0
ARC
  5
20F
100
AcDbEntity
  8
ﾚｲﾔｰ1
100
AcDbCircle
 10
-1168.2549157153
 20
1455.9046621512
 30
0.0
 40
0.1666666667
210
0.0
220
0.0
230
-1.0
100
AcDbArc
 50
323.8239220879
 51
53.8239220879
  0
LINE
  5
210
100
AcDbEntity
  8
ﾚｲﾔｰ1
100
AcDbLine
 10
1172.1856683216
 20
1457.5529016441
 30
0.0
 11
1171.4961791535
 21
1457.0487138007
 31
0.0
  0
LINE
  5
211
100
AcDbEntity
  8
ﾚｲﾔｰ1
100
AcDbLine
 10
1166.3583160361
 20
1456.6857464516
 30
0.0
 11
1166.5157210214
 21
1456.4704912967
 31
0.0
  0
LINE
  5
212
100
AcDbEntity
  8
ﾚｲﾔｰ1
100
AcDbLine
 10
1168.5619858297
 20
1453.6721742825
 30
0.0
 11
1168.719390815
 21
1453.4569191276
 31
0.0
  0
ARC
  5
213
100
AcDbEntity
  8
ﾚｲﾔｰ1
100
AcDbCircle
 10
1167.2450597955
 20
1452.895000221
 30
0.0
 40
0.4166666667
210
0.0
220
0.0
230
1.0
100
AcDbArc
 50
216.1760779121
 51
306.1760779122
  0
LINE
  5
214
100
AcDbEntity
  8
ﾚｲﾔｰ1
100
AcDbLine
 10
1165.0395394159
 20
1455.2052098964
 30
0.0
 11
1166.9087236159
 21
1452.6490549316
 31
0.0
  0
ARC
  5
215
100
AcDbEntity
  8
ﾚｲﾔｰ1
100
AcDbCircle
 10
-1165.3758755955
 20
1455.4511551859
 30
0.0
 40
0.4166666667
210
0.0
220
0.0
230
-1.0
100
AcDbArc
 50
323.8239220879
 51
53.8239220879
  0
LINE
  5
216
100
AcDbEntity
  8
ﾚｲﾔｰ1
  6
BORDER
 62
         3
100
AcDbLine
 10
1172.5066712278
 20
1458.7040415541
 30
0.0
 11
1165.2391865017
 21
1453.3897050564
 31
0.0
  0
LINE
  5
217
100
AcDbEntity
  8
ﾚｲﾔｰ1
100
AcDbLine
 10
1168.5373913008
 20
1453.7058079005
 30
0.0
 11
1169.4484858066
 21
1453.9900686656
 31
0.0
  0
LINE
  5
218
100
AcDbEntity
  8
ﾚｲﾔｰ1
100
AcDbLine
 10
1166.6142473716
 20
1456.5425385315
 30
0.0
 11
1165.3007887385
 21
1455.5820740221
 31
0.0
  0
LINE
  5
219
100
AcDbEntity
  8
ﾚｲﾔｰ1
100
AcDbLine
 10
1166.5403155503
 20
1456.4368576787
 30
0.0
 11
1165.3253832674
 21
1455.5484404042
 31
0.0
  0
LINE
  5
21A
100
AcDbEntity
  8
ﾚｲﾔｰ1
100
AcDbLine
 10
1168.5373913008
 20
1453.7058079005
 30
0.0
 11
1167.3224590179
 21
1452.8173906259
 31
0.0
  0
CIRCLE
  5
21B
100
AcDbEntity
  8
ﾚｲﾔｰ1
100
AcDbCircle
 10
1171.4042842569
 20
1457.8979228576
 30
0.0
 40
0.625
210
0.0
220
0.0
230
1.0
  0
LINE
  5
21C
100
AcDbEntity
  8
ﾚｲﾔｰ1
100
AcDbLine
 10
1172.093773425
 20
1458.402110701
 30
0.0
 11
1172.1856683216
 21
1457.5529016441
 31
0.0
  0
LINE
  5
21D
100
AcDbEntity
  8
ﾚｲﾔｰ1
100
AcDbLine
 10
1170.6229001921
 20
1458.2429440712
 30
0.0
 11
1171.3123893603
 21
1458.7471319146
 31
0.0
  0
LINE
  5
21E
100
AcDbEntity
  8
ﾚｲﾔｰ1
100
AcDbLine
 10
1171.3123893603
 20
1458.7471319146
 30
0.0
 11
1172.093773425
 21
1458.402110701
 31
0.0
  0
LINE
  5
21F
100
AcDbEntity
  8
ﾚｲﾔｰ1
100
AcDbLine
 10
1170.7925722884
 20
1456.9344261899
 30
0.0
 11
1168.6484281785
 21
1455.3665242638
 31
0.0
  0
ELLIPSE
  5
220
100
AcDbEntity
  8
ﾚｲﾔｰ1
100
AcDbEllipse
 10
1170.6941941726
 20
1457.0689606617
 30
0.0
 11
0.1345344718347412
 21
0.0983781157881356
 31
0.0
210
0.0
220
0.0
230
1.0
 40
1.0
 41
-1.5707963267948966
 42
0.0
  0
LINE
  5
221
100
AcDbEntity
  8
ﾚｲﾔｰ1
100
AcDbLine
 10
1170.3006817094
 20
1457.6070985491
 30
0.0
 11
1168.1565375995
 21
1456.039196623
 31
0.0
  0
LINE
  5
222
100
AcDbEntity
  8
ﾚｲﾔｰ1
100
AcDbLine
 10
1168.1203812435
 20
1455.8062840354
 30
0.0
 11
1168.4155155909
 21
1455.4026806199
 31
0.0
  0
ELLIPSE
  5
223
100
AcDbEntity
  8
ﾚｲﾔｰ1
100
AcDbEllipse
 10
1168.5500500627
 20
1455.5010587356
 30
0.0
 11
0.1345344718343049
 21
0.0983781157882299
 31
0.0
210
0.0
220
0.0
230
1.0
 40
1.0
 41
-3.1415926535897931
 42
-1.5707963267948966
  0
LINE
  5
224
100
AcDbEntity
  8
ﾚｲﾔｰ1
100
AcDbLine
 10
1165.4165747333
 20
1455.9970996411
 30
0.0
 11
1166.0892470924
 21
1456.48899022
 31
0.0
  0
LINE
  5
225
100
AcDbEntity
  8
ﾚｲﾔｰ1
100
AcDbLine
 10
1165.3181966175
 20
1456.1316341129
 30
0.0
 11
1165.4165747333
 21
1455.9970996411
 31
0.0
  0
LINE
  5
226
100
AcDbEntity
  8
ﾚｲﾔｰ1
100
AcDbLine
 10
1165.9908689766
 20
1456.6235246919
 30
0.0
 11
1165.3181966175
 21
1456.1316341129
 31
0.0
  0
LINE
  5
227
100
AcDbEntity
  8
ﾚｲﾔｰ1
100
AcDbLine
 10
1168.66051218
 20
1453.7442215174
 30
0.0
 11
1167.3470535469
 21
1452.783757008
 31
0.0
  0
LINE
  5
228
100
AcDbEntity
  8
ﾚｲﾔｰ1
100
AcDbLine
 10
1167.0874110277
 20
1457.2188959896
 30
0.0
 11
1166.5403155503
 21
1456.4368576787
 31
0.0
  0
LINE
  5
229
100
AcDbEntity
  8
ﾚｲﾔｰ1
100
AcDbLine
 10
1168.5486999871
 20
1453.1256284242
 30
0.0
 11
1168.4503218713
 21
1453.260162896
 31
0.0
  0
LINE
  5
22A
100
AcDbEntity
  8
ﾚｲﾔｰ1
100
AcDbLine
 10
1168.4503218713
 20
1453.260162896
 30
0.0
 11
1167.7776495122
 21
1452.7682723171
 31
0.0
  0
LINE
  5
22B
100
AcDbEntity
  8
ﾚｲﾔｰ1
100
AcDbLine
 10
1167.7776495122
 20
1452.7682723171
 30
0.0
 11
1167.876027628
 21
1452.6337378452
 31
0.0
  0
LINE
  5
22C
100
AcDbEntity
  8
ﾚｲﾔｰ1
100
AcDbLine
 10
1167.876027628
 20
1452.6337378452
 30
0.0
 11
1168.5486999871
 21
1453.1256284242
 31
0.0
  0
LINE
  5
22D
100
AcDbEntity
  8
ﾚｲﾔｰ1
100
AcDbLine
 10
1169.3646429991
 20
1458.8841182
 30
0.0
 11
1169.6105882886
 21
1458.5477820204
 31
0.0
  0
LINE
  5
22E
100
AcDbEntity
  8
ﾚｲﾔｰ1
100
AcDbLine
 10
1170.7147950887
 20
1457.3937350142
 30
0.0
 11
1170.6229001921
 21
1458.2429440712
 31
0.0
  0
LINE
  5
22F
100
AcDbEntity
  8
ﾚｲﾔｰ1
100
AcDbLine
 10
1171.4961791535
 20
1457.0487138007
 30
0.0
 11
1170.7147950887
 21
1457.3937350142
 31
0.0
  0
CIRCLE
  5
230
100
AcDbEntity
  8
ﾚｲﾔｰ1
100
AcDbCircle
 10
1171.4042842569
 20
1457.8979228576
 30
0.0
 40
0.8958333333
210
0.0
220
0.0
230
1.0
  0
LINE
  5
231
100
AcDbEntity
  8
ﾚｲﾔｰ1
  6
BORDER
 62
         3
100
AcDbLine
 10
1170.8184896045
 20
1458.6990113266
 30
0.0
 11
1171.9900789092
 21
1457.0968343886
 31
0.0
  0
LINE
  5
232
100
AcDbEntity
  8
ﾚｲﾔｰ1
100
AcDbLine
 10
1165.2646323824
 20
1455.3491614345
 30
0.0
 11
1167.1141409593
 21
1452.819913364
 31
0.0
  0
ELLIPSE
  5
233
100
AcDbEntity
  8
ﾚｲﾔｰ1
100
AcDbEllipse
 10
1165.3991668543
 20
1455.4475395503
 30
0.0
 11
0.1345344718343049
 21
0.0983781157882299
 31
0.0
210
0.0
220
0.0
230
-1.0
 40
1.0
 41
-3.1415926535897931
 42
-1.5707963267948966
  0
LINE
  5
234
100
AcDbEntity
  8
ﾚｲﾔｰ1
100
AcDbLine
 10
1165.3253832674
 20
1455.5484404042
 30
0.0
 11
1167.3224590179
 21
1452.8173906259
 31
0.0
  0
LINE
  5
235
100
AcDbEntity
  8
ﾚｲﾔｰ1
100
AcDbLine
 10
1169.3646429991
 20
1458.8841182
 30
0.0
 11
1165.129930306
 21
1455.7874913655
 31
0.0
  0
LINE
  5
236
100
AcDbEntity
  8
ﾚｲﾔｰ1
100
AcDbLine
 10
1167.3657227671
 20
1456.756556454
 30
0.0
 11
1166.813863289
 21
1456.8278768342
 31
0.0
  0
CIRCLE
  5
237
100
AcDbEntity
  8
ﾚｲﾔｰ1
100
AcDbCircle
 10
1171.4042842569
 20
1457.8979228576
 30
0.0
 40
0.7397300324
210
0.0
220
0.0
230
1.0
  0
ELLIPSE
  5
238
100
AcDbEntity
  8
ﾚｲﾔｰ1
100
AcDbEllipse
 10
1167.2486754311
 20
1452.9182914798
 30
0.0
 11
0.1345344718343049
 21
0.0983781157882299
 31
0.0
210
0.0
220
0.0
230
1.0
 40
1.0
 41
-3.1415926535897931
 42
-1.5707963267948966
  0
LINE
  5
239
100
AcDbEntity
  8
ﾚｲﾔｰ1
100
AcDbLine
 10
1171.5159288446
 20
1456.2245396432
 30
0.0
 11
1169.1578906117
 21
1454.5002279843
 31
0.0
  0
LINE
  5
23A
100
AcDbEntity
  8
ﾚｲﾔｰ1
100
AcDbLine
 10
1169.8435008762
 20
1458.5116256644
 30
0.0
 11
1167.4854626433
 21
1456.7873140055
 31
0.0
  0
ENDBLK
  5
23B
100
AcDbEntity
  8
0
100
AcDbBlockEnd
  0
ENDSEC
  0
SECTION
  2
ENTITIES
  0
DIMENSION
  5
39
100
AcDbEntity
  8
寸法線
 62
         3
100
AcDbDimension
  2
*D0
 10
1391.1477864583
 20
1422.5559895833
 30
0.0
 11
1417.1677864567
 21
1422.5559895833
 31
0.0
 70
       128
210
0.0
220
0.0
230
1.0
  1
52
  3
VELDIM0
100
AcDbAlignedDimension
 13
1391.1477864583
 23
1406.66015625
 33
0.0
 14
1443.187786455
 24
1406.66015625
 34
0.0
100
AcDbRotatedDimension
  0
DIMENSION
  5
4A
100
AcDbEntity
  8
寸法線
 62
         3
100
AcDbDimension
  2
*D1
 10
1526.1477864583
 20
1495.7950136612
 30
0.0
 11
1516.1477864583
 21
1495.7950136612
 31
0.0
 70
       128
210
0.0
220
0.0
230
1.0
  1
<>
  3
VELDIM0
100
AcDbAlignedDimension
 13
1526.1477864583
 23
1538.0125
 33
0.0
 14
1506.1477864583
 24
1520.7950136612
 34
0.0
100
AcDbRotatedDimension
  0
MTEXT
  5
4C
100
AcDbEntity
  8
ﾚｲﾔｰ1
100
AcDbMText
 10
1539.4682143659
 20
1296.8939321257
 30
0.0
 40
6.0366779089
 41
27.5571282
 71
         1
 72
         1
  1
\W0.8;\fＭＳ ゴシック;\W1.0;1/2.5
  0
MTEXT
  5
4D
100
AcDbEntity
  8
ﾚｲﾔｰ1
100
AcDbMText
 10
1532.2021095867
 20
1259.7362173255
 30
0.0
 40
8.5724429607
 41
123.7283045979
 71
         1
 72
         1
  1
\W0.8;\fＭＳ ゴシック;\W1.0;日本機電株式会社
  0
MTEXT
  5
4E
100
AcDbEntity
  8
ﾚｲﾔｰ1
100
AcDbMText
 10
1532.9252548163
 20
1279.4306421723
 30
0.0
 40
8.0489036083
 41
127.7438450992
 71
         1
 72
         1
  1
\W0.8;\fＭＳ ゴシック;\W1.0;ＰＧ柱控え金具
  0
MTEXT
  5
4F
100
AcDbEntity
  8
ﾚｲﾔｰ1
100
AcDbMText
 10
1537.2947916667
 20
1675.7071179072
 30
0.0
 40
6.7074199438
 41
73.2154425455
 71
         1
 72
         1
  1
\W0.8;\fＭＳ ゴシック;\W1.0;組立ボルト
  0
MTEXT
  5
50
100
AcDbEntity
  8
ﾚｲﾔｰ1
100
AcDbMText
 10
1537.2947916667
 20
1660.6986869176
 30
0.0
 40
6.7074199438
 41
72.7743509114
 71
         1
 72
         1
  1
\W0.8;\fＭＳ ゴシック;\W1.0;W1/2"×125
  0
MTEXT
  5
51
100
AcDbEntity
  8
ﾚｲﾔｰ1
100
AcDbMText
 10
1517.6025473983
 20
1282.0764757577
 30
0.0
 40
6.0366779089
 41
11.1596509225
 71
         1
 72
         1
  1
\W0.8;\fＭＳ ゴシック;\W1.0;名\P称
  0
MTEXT
  5
52
100
AcDbEntity
  8
ﾚｲﾔｰ1
100
AcDbMText
 10
1220.6268400154
 20
1411.7490220307
 30
0.0
 40
6.7074199438
 41
81.995
 71
         1
 72
         1
  1
\W0.8;\fＭＳ ゴシック;\W1.0;控えパイプ\Pφ48.6 単管
  0
MTEXT
  5
53
100
AcDbEntity
  8
ﾚｲﾔｰ1
100
AcDbMText
 10
1131.0963541667
 20
1278.1736111641
 30
0.0
 40
6.7074199438
 41
124.7393020833
 71
         1
 72
         1
  1
\W0.8;\fＭＳ ゴシック;\W1.0;パネルゲート取付例
  0
MTEXT
  5
54
100
AcDbEntity
  8
ﾚｲﾔｰ1
100
AcDbMText
 10
1657.1166666667
 20
1257.8266098485
 30
0.0
 40
6.7074199438
 41
91.1496377238
 71
         1
 72
         1
  1
\W0.8;\fＭＳ ゴシック;\W1.0;０１２２０４０
  0
MTEXT
  5
55
100
AcDbEntity
  8
ﾚｲﾔｰ1
100
AcDbMText
 10
1187.1166666667
 20
1608.372482872
 30
0.0
 40
6.7074199438
 41
111.70165625
 71
         1
 72
         1
  1
\W0.8;\fＭＳ ゴシック;\W1.0;柱　□100×100　
  0
MTEXT
  5
56
100
AcDbEntity
  8
ﾚｲﾔｰ1
100
AcDbMText
 10
1189.6653645833
 20
1469.2043239235
 30
0.0
 40
6.7074199438
 41
95.83165625
 71
         1
 72
         1
  1
\W0.8;\fＭＳ ゴシック;\W1.0;ＰＧ柱控え金具
  0
MTEXT
  5
57
100
AcDbEntity
  8
ﾚｲﾔｰ1
100
AcDbMText
 10
1518.4272261425
 20
1296.8939321257
 30
0.0
 40
6.0366779089
 41
21.0683548055
 71
         1
 72
         1
  1
\W0.8;\fＭＳ ゴシック;\W1.0;尺度
  0
MTEXT
  5
58
100
AcDbEntity
  8
ﾚｲﾔｰ1
100
AcDbMText
 10
1452.31171875
 20
1453.8833333333
 30
0.0
 40
6.7074199438
 41
137.54
 71
         1
 72
         1
  1
\W0.8;\fＭＳ ゴシック;\W1.0;自在クランプ(兼用)
  0
MTEXT
  5
59
100
AcDbEntity
  8
ﾚｲﾔｰ1
100
AcDbMText
 10
1274.1950520833
 20
1347.9361114502
 30
0.0
 40
6.7074199438
 41
104.5894303386
 71
         1
 72
         1
  1
\W0.8;\fＭＳ ゴシック;\W1.0;打ち込みパイプ
  0
MTEXT
  5
5A
100
AcDbEntity
  8
ﾚｲﾔｰ1
100
AcDbMText
 10
1277.8659985366
 20
1328.9168375197
 30
0.0
 40
6.7074199438
 41
81.5357638104
 71
         1
 72
         1
  1
\W0.8;\fＭＳ ゴシック;\W1.0;自在クランプ
  0
MTEXT
  5
5B
100
AcDbEntity
  8
ﾚｲﾔｰ1
100
AcDbMText
 10
1564.1383526537
 20
1296.8939321257
 30
0.0
 40
6.0366779089
 41
31.7731606369
 71
         1
 72
         1
  1
\W0.8;\fＭＳ ゴシック;\W1.0;作成日
  0
MTEXT
  5
5C
100
AcDbEntity
  8
ﾚｲﾔｰ1
100
AcDbMText
 10
1590.280093526
 20
1296.893932111
 30
0.0
 40
6.0366775036
 41
58.1530268818
 71
         1
 72
         1
  1
\W0.8;\fＭＳ ゴシック;\W1.0;2001.10.20
  0
MTEXT
  5
5D
100
AcDbEntity
  8
ﾚｲﾔｰ1
100
AcDbMText
 10
1642.5867990773
 20
1262.0378555482
 30
0.0
 40
6.0366779089
 41
11.6287671396
 71
         1
 72
         1
  1
\W0.8;\fＭＳ ゴシック;\W1.0;図番
  0
LINE
  5
5E
100
AcDbEntity
  8
ﾚｲﾔｰ1
  6
BORDER
 62
         3
100
AcDbLine
 10
1177.7282552083
 20
1286.8769625
 30
0.0
 11
1177.7282552083
 21
1296.7102125
 31
0.0
  0
LINE
  5
5F
100
AcDbEntity
  8
ﾚｲﾔｰ1
  6
HIDDEN
 62
         4
100
AcDbLine
 10
1173.6449385417
 20
1292.0435875
 30
0.0
 11
1173.6449385417
 21
1300.3769208333
 31
0.0
  0
LINE
  5
60
100
AcDbEntity
  8
ﾚｲﾔｰ1
100
AcDbLine
 10
1164.8950052083
 20
1337.8765625
 30
0.0
 11
1164.478346875
 21
1337.8765625
 31
0.0
  0
LINE
  5
61
100
AcDbEntity
  8
ﾚｲﾔｰ1
  6
HIDDEN
 62
         4
100
AcDbLine
 10
1164.478346875
 20
1292.0435875
 30
0.0
 11
1164.478346875
 21
1300.3769208333
 31
0.0
  0
LINE
  5
62
100
AcDbEntity
  8
ﾚｲﾔｰ1
  6
BORDER
 62
         3
100
AcDbLine
 10
1163.1786717436
 20
1464.2300024572
 30
0.0
 11
1277.6487542885
 21
1307.6893737553
 31
0.0
  0
LINE
  5
63
100
AcDbEntity
  8
ﾚｲﾔｰ1
  6
BORDER
 62
         3
100
AcDbLine
 10
1169.0616552083
 20
1285.4627987132
 30
0.0
 11
1169.0616552083
 21
1670.2074125
 31
0.0
  0
LINE
  5
64
100
AcDbEntity
  8
ﾚｲﾔｰ1
100
AcDbLine
 10
1173.2282802083
 20
1300.3769208333
 30
0.0
 11
1173.2282802083
 21
1666.8741125
 31
0.0
  0
LINE
  5
65
100
AcDbEntity
  8
ﾚｲﾔｰ1
100
AcDbLine
 10
1164.8950052083
 20
1300.3769208333
 30
0.0
 11
1164.8950052083
 21
1666.8741125
 31
0.0
  0
LINE
  5
66
100
AcDbEntity
  8
ﾚｲﾔｰ1
100
AcDbLine
 10
1166.2789023084
 20
1463.4210026003
 30
0.0
 11
1270.7414443891
 21
1320.5659294705
 31
0.0
  0
LINE
  5
67
100
AcDbEntity
  8
ﾚｲﾔｰ1
100
AcDbLine
 10
1129.8950052083
 20
1296.2102541667
 30
0.0
 11
1129.8950052083
 21
1546.2102541667
 31
0.0
  0
LINE
  5
68
100
AcDbEntity
  8
ﾚｲﾔｰ1
100
AcDbLine
 10
1037.5994791667
 20
1694.95
 30
0.0
 11
1037.5994791667
 21
1244.0810452868
 31
0.0
  0
LINE
  5
69
100
AcDbEntity
  8
ﾚｲﾔｰ1
100
AcDbLine
 10
1037.5994791667
 20
1244.0810452868
 30
0.0
 11
1723.9222213412
 21
1244.0810452868
 31
0.0
  0
LINE
  5
6A
100
AcDbEntity
  8
ﾚｲﾔｰ1
100
AcDbLine
 10
1723.9222213412
 20
1694.95
 30
0.0
 11
1037.5994791667
 21
1694.95
 31
0.0
  0
LINE
  5
6B
100
AcDbEntity
  8
ﾚｲﾔｰ1
100
AcDbLine
 10
1516.0215366679
 20
1264.1196654963
 30
0.0
 11
1723.9222213412
 21
1264.1196654963
 31
0.0
  0
LINE
  5
6C
100
AcDbEntity
  8
ﾚｲﾔｰ1
100
AcDbLine
 10
1516.0215366679
 20
1284.1582857058
 30
0.0
 11
1723.9222213412
 21
1284.1582857058
 31
0.0
  0
LINE
  5
6D
100
AcDbEntity
  8
ﾚｲﾔｰ1
100
AcDbLine
 10
1723.9222213412
 20
1301.6920783891
 30
0.0
 11
1516.0215366679
 21
1301.6920783891
 31
0.0
  0
LINE
  5
6E
100
AcDbEntity
  8
ﾚｲﾔｰ1
100
AcDbLine
 10
1132.3950052083
 20
1540.7935791667
 30
0.0
 11
1162.3950052083
 21
1540.7935791667
 31
0.0
  0
LINE
  5
6F
100
AcDbEntity
  8
ﾚｲﾔｰ1
100
AcDbLine
 10
1132.3950052083
 20
1543.7102541667
 30
0.0
 11
1162.3950052083
 21
1543.7102541667
 31
0.0
  0
LINE
  5
70
100
AcDbEntity
  8
ﾚｲﾔｰ1
100
AcDbLine
 10
1129.8950052083
 20
1546.2102541667
 30
0.0
 11
1164.8950052083
 21
1546.2102541667
 31
0.0
  0
LINE
  5
71
100
AcDbEntity
  8
ﾚｲﾔｰ1
100
AcDbLine
 10
1132.3950052083
 20
1465.7935791667
 30
0.0
 11
1162.3950052083
 21
1465.7935791667
 31
0.0
  0
INSERT
  5
73
100
AcDbEntity
  8
0
100
AcDbBlockReference
  2
CLUMP0
 10
0.0
 20
0.0
 30
0.0
  0
DIMENSION
  5
C3
100
AcDbEntity
  8
寸法線
 62
         3
100
AcDbDimension
  2
*D4
 10
1562.6451822917
 20
1406.66015625
 30
0.0
 11
1562.6451822917
 21
1381.66015625
 31
0.0
 70
       128
210
0.0
220
0.0
230
1.0
  1
<>
  3
VELDIM0
100
AcDbAlignedDimension
 13
1526.1477864583
 23
1406.66015625
 33
0.0
 14
1526.1477864583
 24
1356.66015625
 34
0.0
 50
90.0
100
AcDbRotatedDimension
  0
DIMENSION
  5
D4
100
AcDbEntity
  8
寸法線
 62
         3
100
AcDbDimension
  2
*D5
 10
1562.6451822917
 20
1642.3125
 30
0.0
 11
1562.6451822917
 21
1591.3125
 31
0.0
 70
       128
210
0.0
220
0.0
230
1.0
  1
<>
  3
VELDIM0
100
AcDbAlignedDimension
 13
1526.1477864583
 23
1642.3125
 33
0.0
 14
1526.1477864583
 24
1540.3125
 34
0.0
 50
90.0
100
AcDbRotatedDimension
  0
DIMENSION
  5
E5
100
AcDbEntity
  8
寸法線
 62
         3
100
AcDbDimension
  2
*D6
 10
1562.5625
 20
1540.3125
 30
0.0
 11
1562.5625
 21
1522.2046875
 31
0.0
 70
       128
210
0.0
220
0.0
230
1.0
  1
<>
  3
VELDIM0
100
AcDbAlignedDimension
 13
1526.1477864583
 23
1540.3125
 33
0.0
 14
1526.1477864583
 24
1538.0125
 34
0.0
 50
90.0
100
AcDbRotatedDimension
  0
DIMENSION
  5
F6
100
AcDbEntity
  8
寸法線
 62
         3
100
AcDbDimension
  2
*D7
 10
1526.1477864583
 20
1318.3432291667
 30
0.0
 11
1458.6477864583
 21
1318.3432291667
 31
0.0
 70
       128
210
0.0
220
0.0
230
1.0
  1
<>
  3
VELDIM0
100
AcDbAlignedDimension
 13
1526.1477864583
 23
1356.66015625
 33
0.0
 14
1391.1477864583
 24
1356.66015625
 34
0.0
100
AcDbRotatedDimension
  0
LINE
  5
F7
100
AcDbEntity
  8
ﾚｲﾔｰ1
100
AcDbLine
 10
1132.3950052083
 20
1510.7935791667
 30
0.0
 11
1162.3950052083
 21
1510.7935791667
 31
0.0
  0
LINE
  5
F8
100
AcDbEntity
  8
ﾚｲﾔｰ1
100
AcDbLine
 10
1162.3950052083
 20
1518.2935791667
 30
0.0
 11
1132.3950052083
 21
1518.2935791667
 31
0.0
  0
LINE
  5
F9
100
AcDbEntity
  8
ﾚｲﾔｰ1
100
AcDbLine
 10
1132.3950052083
 20
1525.7935791667
 30
0.0
 11
1162.3950052083
 21
1525.7935791667
 31
0.0
  0
LINE
  5
FA
100
AcDbEntity
  8
ﾚｲﾔｰ1
100
AcDbLine
 10
1162.3950052083
 20
1533.2935791667
 30
0.0
 11
1132.3950052083
 21
1533.2935791667
 31
0.0
  0
LINE
  5
FB
100
AcDbEntity
  8
ﾚｲﾔｰ1
  6
BORDER
 62
         3
100
AcDbLine
 10
1271.6724321289
 20
1315.8603380916
 30
0.0
 11
1268.84688185
 21
1319.6815913048
 31
0.0
  0
INSERT
  5
FD
100
AcDbEntity
  8
0
100
AcDbBlockReference
  2
CLUMP2
 10
0.0
 20
0.0
 30
0.0
  0
LINE
  5
148
100
AcDbEntity
  8
ﾚｲﾔｰ1
100
AcDbLine
 10
1268.0450520833
 20
1337.0
 30
0.0
 11
1272.0783854167
 21
1337.0
 31
0.0
  0
LINE
  5
149
100
AcDbEntity
  8
ﾚｲﾔｰ1
  6
BORDER
 62
         3
100
AcDbLine
 10
1270.06171875
 20
1339.5756341654
 30
0.0
 11
1270.06171875
 21
1285.2616979281
 31
0.0
  0
LINE
  5
14A
100
AcDbEntity
  8
ﾚｲﾔｰ1
100
AcDbLine
 10
1272.0783854167
 20
1311.8763479699
 30
0.0
 11
1272.0783854167
 21
1290.5852541667
 31
0.0
  0
LINE
  5
14B
100
AcDbEntity
  8
ﾚｲﾔｰ1
100
AcDbLine
 10
1391.1477864583
 20
1356.66015625
 30
0.0
 11
1470.0856770833
 21
1356.66015625
 31
0.0
  0
LINE
  5
14C
100
AcDbEntity
  8
ﾚｲﾔｰ1
100
AcDbLine
 10
1470.0856770833
 20
1406.66015625
 30
0.0
 11
1391.1477864583
 21
1406.66015625
 31
0.0
  0
LINE
  5
14D
100
AcDbEntity
  8
ﾚｲﾔｰ1
100
AcDbLine
 10
1129.8950052083
 20
1296.2102541667
 30
0.0
 11
1157.3949885417
 21
1296.2102541667
 31
0.0
  0
LINE
  5
14E
100
AcDbEntity
  8
ﾚｲﾔｰ1
100
AcDbLine
 10
1132.3950052083
 20
1460.3769041667
 30
0.0
 11
1162.3950052083
 21
1460.3769041667
 31
0.0
  0
LINE
  5
14F
100
AcDbEntity
  8
ﾚｲﾔｰ1
100
AcDbLine
 10
1132.3950052083
 20
1298.7102541667
 30
0.0
 11
1159.8949885417
 21
1298.7102541667
 31
0.0
  0
LINE
  5
150
100
AcDbEntity
  8
ﾚｲﾔｰ1
100
AcDbLine
 10
1723.9222213412
 20
1244.0810452868
 30
0.0
 11
1723.9222213412
 21
1317.9734573093
 31
0.0
  0
LINE
  5
151
100
AcDbEntity
  8
ﾚｲﾔｰ1
  6
BORDER
 62
         3
100
AcDbLine
 10
1506.1477864583
 20
1520.7950136612
 30
0.0
 11
1506.1477864583
 21
1671.1766847037
 31
0.0
  0
LINE
  5
152
100
AcDbEntity
  8
ﾚｲﾔｰ1
100
AcDbLine
 10
1164.3950302083
 20
1633.5410125
 30
0.0
 11
1164.3950302083
 21
1666.8741125
 31
0.0
  0
LINE
  5
153
100
AcDbEntity
  8
ﾚｲﾔｰ1
100
AcDbLine
 10
1173.7282802083
 20
1633.5410125
 30
0.0
 11
1173.7282802083
 21
1666.8741125
 31
0.0
  0
LINE
  5
154
100
AcDbEntity
  8
ﾚｲﾔｰ1
100
AcDbLine
 10
1526.0408467726
 20
1284.1582857058
 30
0.0
 11
1526.0408467726
 21
1264.1196654963
 31
0.0
  0
LINE
  5
155
100
AcDbEntity
  8
ﾚｲﾔｰ1
100
AcDbLine
 10
1516.0215366679
 20
1301.6920783891
 30
0.0
 11
1516.0215366679
 21
1244.0810452868
 31
0.0
  0
LINE
  5
156
100
AcDbEntity
  8
ﾚｲﾔｰ1
100
AcDbLine
 10
1273.0709040438
 20
1317.3803365997
 30
0.0
 11
1278.427759696
 21
1310.0547058932
 31
0.0
  0
LINE
  5
157
100
AcDbEntity
  8
ﾚｲﾔｰ1
100
AcDbLine
 10
1090.0993489583
 20
1290.5852541667
 30
0.0
 11
1297.6153645833
 21
1290.5852541667
 31
0.0
  0
LINE
  5
158
100
AcDbEntity
  8
ﾚｲﾔｰ1
100
AcDbLine
 10
1723.9222213412
 20
1317.9734573093
 30
0.0
 11
1723.9222213412
 21
1694.95
 31
0.0
  0
INSERT
  5
15A
100
AcDbEntity
  8
0
100
AcDbBlockReference
  2
CLUMP4
 10
0.0
 20
0.0
 30
0.0
  0
LINE
  5
19B
100
AcDbEntity
  8
ﾚｲﾔｰ1
  6
BORDER
 62
         3
100
AcDbLine
 10
1160.3950302083
 20
1286.8769625
 30
0.0
 11
1160.3950302083
 21
1296.7102125
 31
0.0
  0
LINE
  5
19C
100
AcDbEntity
  8
ﾚｲﾔｰ1
100
AcDbLine
 10
1176.5616552083
 20
1300.3769208333
 30
0.0
 11
1181.5616552083
 21
1295.3769208333
 31
0.0
  0
LINE
  5
19D
100
AcDbEntity
  8
ﾚｲﾔｰ1
100
AcDbLine
 10
1181.5616552083
 20
1292.0435875
 30
0.0
 11
1181.5616552083
 21
1295.3769208333
 31
0.0
  0
LINE
  5
19E
100
AcDbEntity
  8
ﾚｲﾔｰ1
100
AcDbLine
 10
1176.5616552083
 20
1300.3769208333
 30
0.0
 11
1161.5616552083
 21
1300.3769208333
 31
0.0
  0
LINE
  5
19F
100
AcDbEntity
  8
ﾚｲﾔｰ1
100
AcDbLine
 10
1161.5616552083
 20
1300.3769208333
 30
0.0
 11
1156.5616552083
 21
1295.3769208333
 31
0.0
  0
LINE
  5
1A0
100
AcDbEntity
  8
ﾚｲﾔｰ1
100
AcDbLine
 10
1156.5616552083
 20
1295.3769208333
 30
0.0
 11
1156.5616552083
 21
1292.0435875
 31
0.0
  0
LINE
  5
1A1
100
AcDbEntity
  8
ﾚｲﾔｰ1
100
AcDbLine
 10
1519.894453125
 20
1381.66015625
 30
0.0
 11
1513.0211197917
 21
1369.7551936993
 31
0.0
  0
LINE
  5
1A2
100
AcDbEntity
  8
ﾚｲﾔｰ1
100
AcDbLine
 10
1499.274453125
 20
1393.5651188007
 30
0.0
 11
1513.0211197917
 21
1393.5651188007
 31
0.0
  0
LINE
  5
1A3
100
AcDbEntity
  8
ﾚｲﾔｰ1
100
AcDbLine
 10
1513.0211197917
 20
1369.7551936993
 30
0.0
 11
1499.274453125
 21
1369.7551936993
 31
0.0
  0
LINE
  5
1A4
100
AcDbEntity
  8
ﾚｲﾔｰ1
  6
BORDER
 62
         3
100
AcDbLine
 10
1506.1477864583
 20
1399.2766276042
 30
0.0
 11
1506.1477864583
 21
1364.0436848958
 31
0.0
  0
CIRCLE
  5
1A5
100
AcDbEntity
  8
ﾚｲﾔｰ1
100
AcDbCircle
 10
1506.1477864583
 20
1381.66015625
 30
0.0
 40
11.9049625507
210
0.0
220
0.0
230
1.0
  0
LINE
  5
1A6
100
AcDbEntity
  8
ﾚｲﾔｰ1
  6
HIDDEN
 62
         4
100
AcDbLine
 10
1164.8950052083
 20
1292.0435875
 30
0.0
 11
1164.8950052083
 21
1300.3769208333
 31
0.0
  0
LINE
  5
1A7
100
AcDbEntity
  8
ﾚｲﾔｰ1
100
AcDbLine
 10
1173.6449385417
 20
1337.8765625
 30
0.0
 11
1173.2282802083
 21
1337.8765625
 31
0.0
  0
LINE
  5
1A8
100
AcDbEntity
  8
ﾚｲﾔｰ1
  6
HIDDEN
 62
         4
100
AcDbLine
 10
1173.2282802083
 20
1292.0435875
 30
0.0
 11
1173.2282802083
 21
1300.3769208333
 31
0.0
  0
LINE
  5
1A9
100
AcDbEntity
  8
ﾚｲﾔｰ1
100
AcDbLine
 10
1173.4988940972
 20
1455.1927989274
 30
0.0
 11
1172.9261163194
 21
1456.18487914
 31
0.0
  0
LINE
  5
1AA
100
AcDbEntity
  8
ﾚｲﾔｰ1
100
AcDbLine
 10
1132.3950052083
 20
1298.7102541667
 30
0.0
 11
1132.3950052083
 21
1460.3769041667
 31
0.0
  0
LINE
  5
1AB
100
AcDbEntity
  8
ﾚｲﾔｰ1
100
AcDbLine
 10
1395.7477864583
 20
1538.0125
 30
0.0
 11
1526.1477864583
 21
1538.0125
 31
0.0
  0
LINE
  5
1AC
100
AcDbEntity
  8
ﾚｲﾔｰ1
100
AcDbLine
 10
1395.7477864583
 20
1644.6125
 30
0.0
 11
1526.1477864583
 21
1644.6125
 31
0.0
  0
LINE
  5
1AD
100
AcDbEntity
  8
ﾚｲﾔｰ1
100
AcDbLine
 10
1395.7477864583
 20
1540.3125
 30
0.0
 11
1526.1477864583
 21
1540.3125
 31
0.0
  0
LINE
  5
1AE
100
AcDbEntity
  8
ﾚｲﾔｰ1
100
AcDbLine
 10
1395.7477864583
 20
1642.3125
 30
0.0
 11
1526.1477864583
 21
1642.3125
 31
0.0
  0
LINE
  5
1AF
100
AcDbEntity
  8
ﾚｲﾔｰ1
100
AcDbLine
 10
1132.3950052083
 20
1462.8769041667
 30
0.0
 11
1162.3950052083
 21
1462.8769041667
 31
0.0
  0
LINE
  5
1B0
100
AcDbEntity
  8
ﾚｲﾔｰ1
100
AcDbLine
 10
1162.3950052083
 20
1488.2935791667
 30
0.0
 11
1132.3950052083
 21
1488.2935791667
 31
0.0
  0
LINE
  5
1B1
100
AcDbEntity
  8
ﾚｲﾔｰ1
100
AcDbLine
 10
1132.3950052083
 20
1495.7935791667
 30
0.0
 11
1162.3950052083
 21
1495.7935791667
 31
0.0
  0
LINE
  5
1B2
100
AcDbEntity
  8
ﾚｲﾔｰ1
100
AcDbLine
 10
1162.3950052083
 20
1503.2935791667
 30
0.0
 11
1132.3950052083
 21
1503.2935791667
 31
0.0
  0
LINE
  5
1B3
100
AcDbEntity
  8
ﾚｲﾔｰ1
100
AcDbLine
 10
1162.3950052083
 20
1473.2935791667
 30
0.0
 11
1132.3950052083
 21
1473.2935791667
 31
0.0
  0
LINE
  5
1B4
100
AcDbEntity
  8
ﾚｲﾔｰ1
100
AcDbLine
 10
1132.3950052083
 20
1480.7935791667
 30
0.0
 11
1162.3950052083
 21
1480.7935791667
 31
0.0
  0
LINE
  5
1B5
100
AcDbEntity
  8
ﾚｲﾔｰ1
100
AcDbLine
 10
1164.7033385417
 20
1454.1015458066
 30
0.0
 11
1176.1450052083
 21
1454.1015458066
 31
0.0
  0
LINE
  5
1B6
100
AcDbEntity
  8
ﾚｲﾔｰ1
100
AcDbLine
 10
1176.1450052083
 20
1458.2682124733
 30
0.0
 11
1164.7033385417
 21
1458.2682124733
 31
0.0
  0
LINE
  5
1B7
100
AcDbEntity
  8
ﾚｲﾔｰ1
100
AcDbLine
 10
1164.7033385417
 20
1458.2682124733
 30
0.0
 11
1164.7033385417
 21
1454.1015458066
 31
0.0
  0
LINE
  5
1B8
100
AcDbEntity
  8
ﾚｲﾔｰ1
  6
DIVIDE
 62
         4
100
AcDbLine
 10
1164.8950052083
 20
1458.2682124733
 30
0.0
 11
1164.8950052083
 21
1454.1015458066
 31
0.0
  0
LINE
  5
1B9
100
AcDbEntity
  8
ﾚｲﾔｰ1
100
AcDbLine
 10
1175.2172274306
 20
1456.18487914
 30
0.0
 11
1174.6444496528
 21
1455.1927989274
 31
0.0
  0
LINE
  5
1BA
100
AcDbEntity
  8
ﾚｲﾔｰ1
100
AcDbLine
 10
1272.0783854167
 20
1337.0
 30
0.0
 11
1272.0783854167
 21
1320.3361580007
 31
0.0
  0
LINE
  5
1BB
100
AcDbEntity
  8
ﾚｲﾔｰ1
100
AcDbLine
 10
1268.0450520833
 20
1337.0
 30
0.0
 11
1268.0450520833
 21
1324.2533116877
 31
0.0
  0
LINE
  5
1BC
100
AcDbEntity
  8
ﾚｲﾔｰ1
100
AcDbLine
 10
1147.3950052083
 20
1488.2935791667
 30
0.0
 11
1147.3950052083
 21
1495.7935791667
 31
0.0
  0
LINE
  5
1BD
100
AcDbEntity
  8
ﾚｲﾔｰ1
100
AcDbLine
 10
1139.8950052083
 20
1473.2935791667
 30
0.0
 11
1139.8950052083
 21
1465.7935791667
 31
0.0
  0
LINE
  5
1BE
100
AcDbEntity
  8
ﾚｲﾔｰ1
100
AcDbLine
 10
1132.3950052083
 20
1462.8769041667
 30
0.0
 11
1132.3950052083
 21
1543.7102541667
 31
0.0
  0
LINE
  5
1BF
100
AcDbEntity
  8
ﾚｲﾔｰ1
100
AcDbLine
 10
1268.0450520833
 20
1316.2597476903
 30
0.0
 11
1268.0450520833
 21
1290.5852541667
 31
0.0
  0
LINE
  5
1C0
100
AcDbEntity
  8
ﾚｲﾔｰ1
100
AcDbLine
 10
1269.8144115213
 20
1314.9723874684
 30
0.0
 11
1275.1585720304
 21
1307.6641176795
 31
0.0
  0
LINE
  5
1C1
100
AcDbEntity
  8
ﾚｲﾔｰ1
100
AcDbLine
 10
1174.6444496528
 20
1457.1769593525
 30
0.0
 11
1175.2172274306
 21
1456.18487914
 31
0.0
  0
CIRCLE
  5
1C2
100
AcDbEntity
  8
ﾚｲﾔｰ1
100
AcDbCircle
 10
1174.071671875
 20
1456.18487914
 30
0.0
 40
0.9920802126
210
0.0
220
0.0
230
1.0
  0
LINE
  5
1C3
100
AcDbEntity
  8
ﾚｲﾔｰ1
  6
BORDER
 62
         3
100
AcDbLine
 10
1174.071671875
 20
1457.6529184195
 30
0.0
 11
1174.071671875
 21
1454.7168398604
 31
0.0
  0
LINE
  5
1C4
100
AcDbEntity
  8
ﾚｲﾔｰ1
100
AcDbLine
 10
1176.1450052083
 20
1454.1015458066
 30
0.0
 11
1176.1450052083
 21
1458.2682124733
 31
0.0
  0
LINE
  5
1C5
100
AcDbEntity
  8
ﾚｲﾔｰ1
100
AcDbLine
 10
1174.6444496528
 20
1455.1927989274
 30
0.0
 11
1173.4988940972
 21
1455.1927989274
 31
0.0
  0
LINE
  5
1C6
100
AcDbEntity
  8
ﾚｲﾔｰ1
  6
BORDER
 62
         3
100
AcDbLine
 10
1175.5397111545
 20
1456.18487914
 30
0.0
 11
1172.6036325955
 21
1456.18487914
 31
0.0
  0
LINE
  5
1C7
100
AcDbEntity
  8
ﾚｲﾔｰ1
  6
BORDER
 62
         3
100
AcDbLine
 10
1175.5397111545
 20
1456.18487914
 30
0.0
 11
1172.6036325955
 21
1456.18487914
 31
0.0
  0
LINE
  5
1C8
100
AcDbEntity
  8
ﾚｲﾔｰ1
100
AcDbLine
 10
1173.4988940972
 20
1457.1769593525
 30
0.0
 11
1174.6444496528
 21
1457.1769593525
 31
0.0
  0
LINE
  5
1C9
100
AcDbEntity
  8
ﾚｲﾔｰ1
100
AcDbLine
 10
1172.9261163194
 20
1456.18487914
 30
0.0
 11
1173.4988940972
 21
1457.1769593525
 31
0.0
  0
LINE
  5
1CA
100
AcDbEntity
  8
ﾚｲﾔｰ1
100
AcDbLine
 10
1162.3950052083
 20
1300.3769208333
 30
0.0
 11
1162.3950052083
 21
1460.3769041667
 31
0.0
  0
LINE
  5
1CB
100
AcDbEntity
  8
ﾚｲﾔｰ1
100
AcDbLine
 10
1163.0097146428
 20
1461.0304143867
 30
0.0
 11
1267.4849518667
 21
1318.1579803391
 31
0.0
  0
INSERT
  5
1CD
100
AcDbEntity
  8
0
100
AcDbBlockReference
  2
CLUMP6
 10
0.0
 20
0.0
 30
0.0
  0
INSERT
  5
1D9
100
AcDbEntity
  8
0
100
AcDbBlockReference
  2
CLUMP8
 10
0.0
 20
0.0
 30
0.0
  0
LINE
  5
1E4
100
AcDbEntity
  8
ﾚｲﾔｰ1
100
AcDbLine
 10
1132.3950052083
 20
1503.2935791667
 30
0.0
 11
1132.3950052083
 21
1510.7935791667
 31
0.0
  0
LINE
  5
1E5
100
AcDbEntity
  8
ﾚｲﾔｰ1
100
AcDbLine
 10
1132.3950052083
 20
1462.8769041667
 30
0.0
 11
1132.3950052083
 21
1465.7935791667
 31
0.0
  0
LINE
  5
1E6
100
AcDbEntity
  8
ﾚｲﾔｰ1
100
AcDbLine
 10
1536.0601568774
 20
1284.1582857058
 30
0.0
 11
1536.0601568774
 21
1301.6920783891
 31
0.0
  0
LINE
  5
1E7
100
AcDbEntity
  8
ﾚｲﾔｰ1
100
AcDbLine
 10
1526.1477864583
 20
1356.66015625
 30
0.0
 11
1526.1477864583
 21
1406.66015625
 31
0.0
  0
LINE
  5
1E8
100
AcDbEntity
  8
ﾚｲﾔｰ1
100
AcDbLine
 10
1480.0856770833
 20
1356.66015625
 30
0.0
 11
1526.1477864583
 21
1356.66015625
 31
0.0
  0
LINE
  5
1E9
100
AcDbEntity
  8
ﾚｲﾔｰ1
100
AcDbLine
 10
1526.1477864583
 20
1406.66015625
 30
0.0
 11
1480.0856770833
 21
1406.66015625
 31
0.0
  0
LINE
  5
1EA
100
AcDbEntity
  8
ﾚｲﾔｰ1
100
AcDbLine
 10
1499.274453125
 20
1369.7551936993
 30
0.0
 11
1492.4011197917
 21
1381.66015625
 31
0.0
  0
LINE
  5
1EB
100
AcDbEntity
  8
ﾚｲﾔｰ1
100
AcDbLine
 10
1492.4011197917
 20
1381.66015625
 30
0.0
 11
1499.274453125
 21
1393.5651188007
 31
0.0
  0
LINE
  5
1EC
100
AcDbEntity
  8
ﾚｲﾔｰ1
100
AcDbLine
 10
1513.0211197917
 20
1393.5651188007
 30
0.0
 11
1519.894453125
 21
1381.66015625
 31
0.0
  0
LINE
  5
1ED
100
AcDbEntity
  8
ﾚｲﾔｰ1
  6
BORDER
 62
         3
100
AcDbLine
 10
1523.7642578125
 20
1381.66015625
 30
0.0
 11
1485.9513151042
 21
1381.66015625
 31
0.0
  0
LINE
  5
1EE
100
AcDbEntity
  8
ﾚｲﾔｰ1
  6
BORDER
 62
         3
100
AcDbLine
 10
1523.7642578125
 20
1381.66015625
 30
0.0
 11
1485.9513151042
 21
1381.66015625
 31
0.0
  0
ARC
  5
1EF
100
AcDbEntity
  8
ﾚｲﾔｰ1
100
AcDbCircle
 10
1395.7477864583
 20
1542.6125
 30
0.0
 40
4.6
210
0.0
220
0.0
230
1.0
100
AcDbArc
 50
180.0
 51
270.0
  0
LINE
  5
1F0
100
AcDbEntity
  8
ﾚｲﾔｰ1
100
AcDbLine
 10
1173.7282802083
 20
1666.8741125
 30
0.0
 11
1173.2282802083
 21
1666.8741125
 31
0.0
  0
LINE
  5
1F1
100
AcDbEntity
  8
ﾚｲﾔｰ1
100
AcDbLine
 10
1164.3950302083
 20
1666.8741125
 30
0.0
 11
1164.8950302083
 21
1666.8741125
 31
0.0
  0
LINE
  5
1F2
100
AcDbEntity
  8
ﾚｲﾔｰ1
100
AcDbLine
 10
1173.2282802083
 20
1666.8741125
 30
0.0
 11
1164.8950052083
 21
1666.8741125
 31
0.0
  0
LINE
  5
1F3
100
AcDbEntity
  8
ﾚｲﾔｰ1
100
AcDbLine
 10
1154.8950052083
 20
1518.2935791667
 30
0.0
 11
1154.8950052083
 21
1510.7935791667
 31
0.0
  0
LINE
  5
1F4
100
AcDbEntity
  8
ﾚｲﾔｰ1
  6
BORDER
 62
         3
100
AcDbLine
 10
1443.187786455
 20
1347.3236198042
 30
0.0
 11
1443.187786455
 21
1415.9966926958
 31
0.0
  0
LINE
  5
1F5
100
AcDbEntity
  8
ﾚｲﾔｰ1
100
AcDbLine
 10
1275.1585720304
 20
1307.6641176795
 30
0.0
 11
1278.427759696
 21
1310.0547058932
 31
0.0
  0
LINE
  5
1F6
100
AcDbEntity
  8
ﾚｲﾔｰ1
100
AcDbLine
 10
1391.1477864583
 20
1406.66015625
 30
0.0
 11
1391.1477864583
 21
1356.66015625
 31
0.0
  0
LINE
  5
1F7
100
AcDbEntity
  8
ﾚｲﾔｰ1
  6
DIVIDE
 62
         4
100
AcDbLine
 10
1393.4477864583
 20
1406.66015625
 30
0.0
 11
1393.4477864583
 21
1356.66015625
 31
0.0
  0
LINE
  5
1F8
100
AcDbEntity
  8
ﾚｲﾔｰ1
100
AcDbLine
 10
1164.478346875
 20
1300.3769208333
 30
0.0
 11
1164.478346875
 21
1337.8765625
 31
0.0
  0
LINE
  5
1F9
100
AcDbEntity
  8
ﾚｲﾔｰ1
100
AcDbLine
 10
1173.6449385417
 20
1300.3769208333
 30
0.0
 11
1173.6449385417
 21
1337.8765625
 31
0.0
  0
LINE
  5
1FA
100
AcDbEntity
  8
ﾚｲﾔｰ1
100
AcDbLine
 10
1156.5616552083
 20
1292.0435875
 30
0.0
 11
1181.5616552083
 21
1292.0435875
 31
0.0
  0
LINE
  5
1FB
100
AcDbEntity
  8
ﾚｲﾔｰ1
100
AcDbLine
 10
1156.5616552083
 20
1292.8769208333
 30
0.0
 11
1181.5616552083
 21
1292.8769208333
 31
0.0
  0
INSERT
  5
1FD
100
AcDbEntity
  8
0
100
AcDbBlockReference
  2
CLUMP10
 10
0.0
 20
0.0
 30
0.0
  0
LINE
  5
23D
100
AcDbEntity
  8
ﾚｲﾔｰ1
100
AcDbLine
 10
1162.3950052083
 20
1518.2935791667
 30
0.0
 11
1162.3950052083
 21
1525.7935791667
 31
0.0
  0
LINE
  5
23E
100
AcDbEntity
  8
ﾚｲﾔｰ1
100
AcDbLine
 10
1162.3950052083
 20
1462.8769041667
 30
0.0
 11
1162.3950052083
 21
1465.7935791667
 31
0.0
  0
LINE
  5
23F
100
AcDbEntity
  8
ﾚｲﾔｰ1
100
AcDbLine
 10
1147.3950052083
 20
1462.8769041667
 30
0.0
 11
1147.3950052083
 21
1465.7935791667
 31
0.0
  0
LINE
  5
240
100
AcDbEntity
  8
ﾚｲﾔｰ1
100
AcDbLine
 10
1154.8950052083
 20
1503.2935791667
 30
0.0
 11
1154.8950052083
 21
1495.7935791667
 31
0.0
  0
LINE
  5
241
100
AcDbEntity
  8
ﾚｲﾔｰ1
100
AcDbLine
 10
1164.3950302083
 20
1633.5410125
 30
0.0
 11
1164.8950302083
 21
1633.5410125
 31
0.0
  0
LINE
  5
242
100
AcDbEntity
  8
ﾚｲﾔｰ1
100
AcDbLine
 10
1173.7282802083
 20
1633.5410125
 30
0.0
 11
1173.2282802083
 21
1633.5410125
 31
0.0
  0
LINE
  5
243
100
AcDbEntity
  8
ﾚｲﾔｰ1
100
AcDbLine
 10
1166.2789023084
 20
1463.4210026003
 30
0.0
 11
1163.0097146428
 21
1461.0304143867
 31
0.0
  0
LINE
  5
244
100
AcDbEntity
  8
ﾚｲﾔｰ1
100
AcDbLine
 10
1147.3950052083
 20
1503.2935791667
 30
0.0
 11
1147.3950052083
 21
1510.7935791667
 31
0.0
  0
LINE
  5
245
100
AcDbEntity
  8
ﾚｲﾔｰ1
100
AcDbLine
 10
1162.3950052083
 20
1473.2935791667
 30
0.0
 11
1162.3950052083
 21
1480.7935791667
 31
0.0
  0
LINE
  5
246
100
AcDbEntity
  8
ﾚｲﾔｰ1
100
AcDbLine
 10
1162.3950052083
 20
1462.8769041667
 30
0.0
 11
1162.3950052083
 21
1543.7102541667
 31
0.0
  0
LINE
  5
247
100
AcDbEntity
  8
ﾚｲﾔｰ1
100
AcDbLine
 10
1147.3950052083
 20
1518.2935791667
 30
0.0
 11
1147.3950052083
 21
1525.7935791667
 31
0.0
  0
LINE
  5
248
100
AcDbEntity
  8
ﾚｲﾔｰ1
100
AcDbLine
 10
1526.1477864583
 20
1538.0125
 30
0.0
 11
1526.1477864583
 21
1540.3125
 31
0.0
  0
LINE
  5
249
100
AcDbEntity
  8
ﾚｲﾔｰ1
100
AcDbLine
 10
1526.1477864583
 20
1642.3125
 30
0.0
 11
1526.1477864583
 21
1644.6125
 31
0.0
  0
LINE
  5
24A
100
AcDbEntity
  8
ﾚｲﾔｰ1
100
AcDbLine
 10
1520.4075209158
 20
1644.6125
 30
0.0
 11
1520.4075209158
 21
1646.9125
 31
0.0
  0
LINE
  5
24B
100
AcDbEntity
  8
ﾚｲﾔｰ1
100
AcDbLine
 10
1491.8741875824
 20
1644.6125
 30
0.0
 11
1491.8741875824
 21
1646.9125
 31
0.0
  0
LINE
  5
24C
100
AcDbEntity
  8
ﾚｲﾔｰ1
100
AcDbLine
 10
1499.214453125
 20
1538.0125
 30
0.0
 11
1499.214453125
 21
1529.3458333333
 31
0.0
  0
LINE
  5
24D
100
AcDbEntity
  8
ﾚｲﾔｰ1
100
AcDbLine
 10
1132.3950052083
 20
1473.2935791667
 30
0.0
 11
1132.3950052083
 21
1480.7935791667
 31
0.0
  0
LINE
  5
24E
100
AcDbEntity
  8
ﾚｲﾔｰ1
100
AcDbLine
 10
1132.3950052083
 20
1488.2935791667
 30
0.0
 11
1132.3950052083
 21
1495.7935791667
 31
0.0
  0
LINE
  5
24F
100
AcDbEntity
  8
ﾚｲﾔｰ1
100
AcDbLine
 10
1139.8950052083
 20
1488.2935791667
 30
0.0
 11
1139.8950052083
 21
1480.7935791667
 31
0.0
  0
LINE
  5
250
100
AcDbEntity
  8
ﾚｲﾔｰ1
100
AcDbLine
 10
1139.8950052083
 20
1503.2935791667
 30
0.0
 11
1139.8950052083
 21
1495.7935791667
 31
0.0
  0
LINE
  5
251
100
AcDbEntity
  8
ﾚｲﾔｰ1
100
AcDbLine
 10
1139.8950052083
 20
1518.2935791667
 30
0.0
 11
1139.8950052083
 21
1510.7935791667
 31
0.0
  0
LINE
  5
252
100
AcDbEntity
  8
ﾚｲﾔｰ1
100
AcDbLine
 10
1139.8950052083
 20
1533.2935791667
 30
0.0
 11
1139.8950052083
 21
1525.7935791667
 31
0.0
  0
LINE
  5
253
100
AcDbEntity
  8
ﾚｲﾔｰ1
100
AcDbLine
 10
1139.8950052083
 20
1543.7102541667
 30
0.0
 11
1139.8950052083
 21
1540.7935791667
 31
0.0
  0
LINE
  5
254
100
AcDbEntity
  8
ﾚｲﾔｰ1
100
AcDbLine
 10
1132.3950052083
 20
1533.2935791667
 30
0.0
 11
1132.3950052083
 21
1540.7935791667
 31
0.0
  0
LINE
  5
255
100
AcDbEntity
  8
ﾚｲﾔｰ1
100
AcDbLine
 10
1132.3950052083
 20
1518.2935791667
 30
0.0
 11
1132.3950052083
 21
1525.7935791667
 31
0.0
  0
LINE
  5
256
100
AcDbEntity
  8
ﾚｲﾔｰ1
100
AcDbLine
 10
1500.1478008445
 20
1540.3125
 30
0.0
 11
1500.1408686352
 21
1642.3125
 31
0.0
  0
LINE
  5
257
100
AcDbEntity
  8
ﾚｲﾔｰ1
100
AcDbLine
 10
1491.8741875824
 20
1646.9125
 30
0.0
 11
1520.4075209158
 21
1646.9125
 31
0.0
  0
LINE
  5
258
100
AcDbEntity
  8
ﾚｲﾔｰ1
100
AcDbLine
 10
1512.1478008445
 20
1642.3125
 30
0.0
 11
1512.1478008445
 21
1540.3125
 31
0.0
  0
LINE
  5
259
100
AcDbEntity
  8
ﾚｲﾔｰ1
100
AcDbLine
 10
1510.6742019686
 20
1634.1998694846
 30
0.0
 11
1510.6742019686
 21
1642.3125
 31
0.0
  0
LINE
  5
25A
100
AcDbEntity
  8
ﾚｲﾔｰ1
100
AcDbLine
 10
1501.6075353019
 20
1634.1998694846
 30
0.0
 11
1501.6075353019
 21
1642.3125
 31
0.0
  0
LINE
  5
25B
100
AcDbEntity
  8
ﾚｲﾔｰ1
100
AcDbLine
 10
1512.1408686352
 20
1634.1998694846
 30
0.0
 11
1500.1408686352
 21
1634.1998694846
 31
0.0
  0
ARC
  5
25C
100
AcDbEntity
  8
ﾚｲﾔｰ1
100
AcDbCircle
 10
1395.7477864583
 20
1640.0125
 30
0.0
 40
2.3
210
0.0
220
0.0
230
1.0
100
AcDbArc
 50
90.0
 51
180.0
  0
LINE
  5
25D
100
AcDbEntity
  8
ﾚｲﾔｰ1
100
AcDbLine
 10
1393.4477864583
 20
1640.0125
 30
0.0
 11
1393.4477864583
 21
1542.6125
 31
0.0
  0
ARC
  5
25E
100
AcDbEntity
  8
ﾚｲﾔｰ1
100
AcDbCircle
 10
1395.7477864583
 20
1542.6125
 30
0.0
 40
2.3
210
0.0
220
0.0
230
1.0
100
AcDbArc
 50
180.0
 51
270.0
  0
ARC
  5
25F
100
AcDbEntity
  8
ﾚｲﾔｰ1
100
AcDbCircle
 10
1395.7477864583
 20
1640.0125
 30
0.0
 40
4.6
210
0.0
220
0.0
230
1.0
100
AcDbArc
 50
90.0
 51
180.0
  0
LINE
  5
260
100
AcDbEntity
  8
ﾚｲﾔｰ1
100
AcDbLine
 10
1391.1477864583
 20
1640.0125
 30
0.0
 11
1391.1477864583
 21
1542.6125
 31
0.0
  0
LINE
  5
261
100
AcDbEntity
  8
ﾚｲﾔｰ1
100
AcDbLine
 10
1510.7821296486
 20
1662.4791666667
 30
0.0
 11
1510.7821296486
 21
1658.1125
 31
0.0
  0
LINE
  5
262
100
AcDbEntity
  8
ﾚｲﾔｰ1
100
AcDbLine
 10
1512.2487963152
 20
1661.0125
 30
0.0
 11
1512.2487963152
 21
1658.1125
 31
0.0
  0
LINE
  5
263
100
AcDbEntity
  8
ﾚｲﾔｰ1
100
AcDbLine
 10
1496.9408542491
 20
1658.1125
 30
0.0
 11
1515.2608542491
 21
1658.1125
 31
0.0
  0
LINE
  5
264
100
AcDbEntity
  8
ﾚｲﾔｰ1
100
AcDbLine
 10
1512.2487963152
 20
1661.0125
 30
0.0
 11
1500.2487963152
 21
1661.0125
 31
0.0
  0
LINE
  5
265
100
AcDbEntity
  8
ﾚｲﾔｰ1
100
AcDbLine
 10
1455.454453125
 20
1534.4267135624
 30
0.0
 11
1459.0402395626
 21
1538.0125
 31
0.0
  0
LINE
  5
266
100
AcDbEntity
  8
ﾚｲﾔｰ1
100
AcDbLine
 10
1154.8950052083
 20
1533.2935791667
 30
0.0
 11
1154.8950052083
 21
1525.7935791667
 31
0.0
  0
LINE
  5
267
100
AcDbEntity
  8
ﾚｲﾔｰ1
100
AcDbLine
 10
1154.8950052083
 20
1473.2935791667
 30
0.0
 11
1154.8950052083
 21
1465.7935791667
 31
0.0
  0
LINE
  5
268
100
AcDbEntity
  8
ﾚｲﾔｰ1
100
AcDbLine
 10
1154.8950052083
 20
1488.2935791667
 30
0.0
 11
1154.8950052083
 21
1480.7935791667
 31
0.0
  0
LINE
  5
269
100
AcDbEntity
  8
ﾚｲﾔｰ1
100
AcDbLine
 10
1154.8950052083
 20
1543.7102541667
 30
0.0
 11
1154.8950052083
 21
1540.7935791667
 31
0.0
  0
LINE
  5
26A
100
AcDbEntity
  8
ﾚｲﾔｰ1
100
AcDbLine
 10
1147.3950052083
 20
1533.2935791667
 30
0.0
 11
1147.3950052083
 21
1540.7935791667
 31
0.0
  0
LINE
  5
26B
100
AcDbEntity
  8
ﾚｲﾔｰ1
100
AcDbLine
 10
1162.3950052083
 20
1488.2935791667
 30
0.0
 11
1162.3950052083
 21
1495.7935791667
 31
0.0
  0
LINE
  5
26C
100
AcDbEntity
  8
ﾚｲﾔｰ1
100
AcDbLine
 10
1162.3950052083
 20
1503.2935791667
 30
0.0
 11
1162.3950052083
 21
1510.7935791667
 31
0.0
  0
LINE
  5
26D
100
AcDbEntity
  8
ﾚｲﾔｰ1
100
AcDbLine
 10
1147.3950052083
 20
1473.2935791667
 30
0.0
 11
1147.3950052083
 21
1480.7935791667
 31
0.0
  0
LINE
  5
26E
100
AcDbEntity
  8
ﾚｲﾔｰ1
100
AcDbLine
 10
1162.3950052083
 20
1533.2935791667
 30
0.0
 11
1162.3950052083
 21
1540.7935791667
 31
0.0
  0
LINE
  5
26F
100
AcDbEntity
  8
ﾚｲﾔｰ1
100
AcDbLine
 10
1430.921119785
 20
1537.2551406871
 30
0.0
 11
1430.1637604721
 21
1538.0125
 31
0.0
  0
LINE
  5
270
100
AcDbEntity
  8
ﾚｲﾔｰ1
100
AcDbLine
 10
1430.921119785
 20
1536.5480339059
 30
0.0
 11
1429.4566536909
 21
1538.0125
 31
0.0
  0
LINE
  5
271
100
AcDbEntity
  8
ﾚｲﾔｰ1
100
AcDbLine
 10
1430.921119785
 20
1535.8409271247
 30
0.0
 11
1428.7495469097
 21
1538.0125
 31
0.0
  0
LINE
  5
272
100
AcDbEntity
  8
ﾚｲﾔｰ1
100
AcDbLine
 10
1430.921119785
 20
1535.1338203436
 30
0.0
 11
1428.0424401286
 21
1538.0125
 31
0.0
  0
LINE
  5
273
100
AcDbEntity
  8
ﾚｲﾔｰ1
100
AcDbLine
 10
1430.921119785
 20
1534.4267135624
 30
0.0
 11
1427.3353333474
 21
1538.0125
 31
0.0
  0
LINE
  5
274
100
AcDbEntity
  8
ﾚｲﾔｰ1
100
AcDbLine
 10
1430.921119785
 20
1533.7196067812
 30
0.0
 11
1426.6282265662
 21
1538.0125
 31
0.0
  0
ARC
  5
275
100
AcDbEntity
  8
ﾚｲﾔｰ1
100
AcDbCircle
 10
-1452.3877864583
 20
1531.3458333333
 30
0.0
 40
4.5333333333
210
0.0
220
0.0
230
-1.0
100
AcDbArc
 50
227.3000000062
 51
312.7000000173
  0
ARC
  5
276
100
AcDbEntity
  8
ﾚｲﾔｰ1
100
AcDbCircle
 10
-1443.1877864583
 20
1543.0791666667
 30
0.0
 40
16.2666666667
210
0.0
220
0.0
230
-1.0
100
AcDbArc
 50
247.9000000089
 51
292.1000000146
  0
ARC
  5
277
100
AcDbEntity
  8
ﾚｲﾔｰ1
100
AcDbCircle
 10
-1433.9877864583
 20
1531.3458333333
 30
0.0
 40
4.5333333333
210
0.0
220
0.0
230
-1.0
100
AcDbArc
 50
227.3000000062
 51
312.7000000173
  0
LINE
  5
278
100
AcDbEntity
  8
ﾚｲﾔｰ1
100
AcDbLine
 10
1437.054453125
 20
1528.0125
 30
0.0
 11
1437.054453125
 21
1538.0125
 31
0.0
  0
LINE
  5
279
100
AcDbEntity
  8
ﾚｲﾔｰ1
100
AcDbLine
 10
1449.3211197917
 20
1528.0125
 30
0.0
 11
1449.3211197917
 21
1538.0125
 31
0.0
  0
LINE
  5
27A
100
AcDbEntity
  8
ﾚｲﾔｰ1
100
AcDbLine
 10
1455.454453125
 20
1528.0125
 30
0.0
 11
1455.454453125
 21
1538.0125
 31
0.0
  0
LINE
  5
27B
100
AcDbEntity
  8
ﾚｲﾔｰ1
100
AcDbLine
 10
1430.9211197917
 20
1528.0125
 30
0.0
 11
1430.9211197917
 21
1538.0125
 31
0.0
  0
LINE
  5
27C
100
AcDbEntity
  8
ﾚｲﾔｰ1
100
AcDbLine
 10
1455.454453125
 20
1533.7196067812
 30
0.0
 11
1459.7473463438
 21
1538.0125
 31
0.0
  0
LINE
  5
27D
100
AcDbEntity
  8
ﾚｲﾔｰ1
100
AcDbLine
 10
1563.6132596654
 20
1284.1582857058
 30
0.0
 11
1563.6132596654
 21
1301.6920783891
 31
0.0
  0
LINE
  5
27E
100
AcDbEntity
  8
ﾚｲﾔｰ1
100
AcDbLine
 10
1588.1634268593
 20
1284.1582857058
 30
0.0
 11
1588.1634268593
 21
1301.6920783891
 31
0.0
  0
LINE
  5
27F
100
AcDbEntity
  8
ﾚｲﾔｰ1
100
AcDbLine
 10
1631.1340361783
 20
1284.1582857058
 30
0.0
 11
1631.1340361783
 21
1301.6920783891
 31
0.0
  0
LINE
  5
280
100
AcDbEntity
  8
ﾚｲﾔｰ1
100
AcDbLine
 10
1492.2811197917
 20
1538.0125
 30
0.0
 11
1520.014453125
 21
1538.0125
 31
0.0
  0
ARC
  5
281
100
AcDbEntity
  8
ﾚｲﾔｰ1
100
AcDbCircle
 10
-1516.5477864583
 20
1533.2125
 30
0.0
 40
5.2
210
0.0
220
0.0
230
-1.0
100
AcDbArc
 50
227.900000018
 51
312.100000029
  0
LINE
  5
282
100
AcDbEntity
  8
ﾚｲﾔｰ1
100
AcDbLine
 10
1520.014453125
 20
1538.0125
 30
0.0
 11
1520.014453125
 21
1529.3458333333
 31
0.0
  0
ARC
  5
283
100
AcDbEntity
  8
ﾚｲﾔｰ1
100
AcDbCircle
 10
-1495.7477864583
 20
1533.2125
 30
0.0
 40
5.2
210
0.0
220
0.0
230
-1.0
100
AcDbArc
 50
227.900000018
 51
312.100000029
  0
ARC
  5
284
100
AcDbEntity
  8
ﾚｲﾔｰ1
100
AcDbCircle
 10
-1506.1477864583
 20
1546.6791666667
 30
0.0
 40
18.6666666667
210
0.0
220
0.0
230
-1.0
100
AcDbArc
 50
248.2000000207
 51
291.8000000263
  0
LINE
  5
285
100
AcDbEntity
  8
ﾚｲﾔｰ1
100
AcDbLine
 10
1513.0811197917
 20
1538.0125
 30
0.0
 11
1513.0811197917
 21
1529.3458333333
 31
0.0
  0
LINE
  5
286
100
AcDbEntity
  8
ﾚｲﾔｰ1
100
AcDbLine
 10
1495.7477864583
 20
1528.0125
 30
0.0
 11
1516.5477864583
 21
1528.0125
 31
0.0
  0
LINE
  5
287
100
AcDbEntity
  8
ﾚｲﾔｰ1
100
AcDbLine
 10
1492.2811197917
 20
1538.0125
 30
0.0
 11
1492.2811197917
 21
1529.3458333333
 31
0.0
  0
LINE
  5
288
100
AcDbEntity
  8
ﾚｲﾔｰ1
100
AcDbLine
 10
1641.3605076036
 20
1244.0810452868
 30
0.0
 11
1641.3605076036
 21
1264.1196654963
 31
0.0
  0
LINE
  5
289
100
AcDbEntity
  8
ﾚｲﾔｰ1
100
AcDbLine
 10
1651.3798177083
 20
1264.1196654963
 30
0.0
 11
1651.3798177083
 21
1244.0810452868
 31
0.0
  0
LINE
  5
28A
100
AcDbEntity
  8
ﾚｲﾔｰ1
100
AcDbLine
 10
1518.4075209158
 20
1648.1125
 30
0.0
 11
1518.4075209158
 21
1656.9125
 31
0.0
  0
LINE
  5
28B
100
AcDbEntity
  8
ﾚｲﾔｰ1
100
AcDbLine
 10
1493.8741875824
 20
1648.1125
 30
0.0
 11
1493.8741875824
 21
1656.9125
 31
0.0
  0
LINE
  5
28C
100
AcDbEntity
  8
ﾚｲﾔｰ1
100
AcDbLine
 10
1502.2487963152
 20
1663.0125
 30
0.0
 11
1500.2487963152
 21
1661.0125
 31
0.0
  0
LINE
  5
28D
100
AcDbEntity
  8
ﾚｲﾔｰ1
100
AcDbLine
 10
1502.2487963152
 20
1663.0125
 30
0.0
 11
1510.2487963152
 21
1663.0125
 31
0.0
  0
LINE
  5
28E
100
AcDbEntity
  8
ﾚｲﾔｰ1
100
AcDbLine
 10
1510.2487963152
 20
1663.0125
 30
0.0
 11
1512.2487963152
 21
1661.0125
 31
0.0
  0
ARC
  5
28F
100
AcDbEntity
  8
ﾚｲﾔｰ1
100
AcDbCircle
 10
-1506.1408542491
 20
1641.8458333333
 30
0.0
 40
16.2666666667
210
0.0
220
0.0
230
-1.0
100
AcDbArc
 50
67.9000000324
 51
112.1000000381
  0
LINE
  5
290
100
AcDbEntity
  8
ﾚｲﾔｰ1
100
AcDbLine
 10
1500.0075209158
 20
1648.1125
 30
0.0
 11
1500.0075209158
 21
1656.9125
 31
0.0
  0
ARC
  5
291
100
AcDbEntity
  8
ﾚｲﾔｰ1
100
AcDbCircle
 10
-1496.9408542491
 20
1653.5791666667
 30
0.0
 40
4.5333333333
210
0.0
220
0.0
230
-1.0
100
AcDbArc
 50
47.3000000297
 51
132.7000000408
  0
ARC
  5
292
100
AcDbEntity
  8
ﾚｲﾔｰ1
100
AcDbCircle
 10
-1506.1408542491
 20
1663.1791666667
 30
0.0
 40
16.2666666667
210
0.0
220
0.0
230
-1.0
100
AcDbArc
 50
247.9000000089
 51
292.1000000146
  0
ARC
  5
293
100
AcDbEntity
  8
ﾚｲﾔｰ1
100
AcDbCircle
 10
-1496.9408542491
 20
1651.4458333333
 30
0.0
 40
4.5333333333
210
0.0
220
0.0
230
-1.0
100
AcDbArc
 50
227.3000000062
 51
312.7000000173
  0
LINE
  5
294
100
AcDbEntity
  8
ﾚｲﾔｰ1
100
AcDbLine
 10
1506.2608542491
 20
1658.1125
 30
0.0
 11
1506.0608542491
 21
1658.1125
 31
0.0
  0
ARC
  5
295
100
AcDbEntity
  8
ﾚｲﾔｰ1
100
AcDbCircle
 10
-1515.3408542491
 20
1651.4458333333
 30
0.0
 40
4.5333333333
210
0.0
220
0.0
230
-1.0
100
AcDbArc
 50
227.3000000062
 51
312.7000000173
  0
ARC
  5
296
100
AcDbEntity
  8
ﾚｲﾔｰ1
100
AcDbCircle
 10
-1515.3408542491
 20
1653.5791666667
 30
0.0
 40
4.5333333333
210
0.0
220
0.0
230
-1.0
100
AcDbArc
 50
47.3000000297
 51
132.7000000408
  0
LINE
  5
297
100
AcDbEntity
  8
ﾚｲﾔｰ1
100
AcDbLine
 10
1515.3408542491
 20
1658.1125
 30
0.0
 11
1515.2608542491
 21
1658.1125
 31
0.0
  0
LINE
  5
298
100
AcDbEntity
  8
ﾚｲﾔｰ1
100
AcDbLine
 10
1512.2741875824
 20
1648.1125
 30
0.0
 11
1512.2741875824
 21
1656.9125
 31
0.0
  0
LINE
  5
299
100
AcDbEntity
  8
ﾚｲﾔｰ1
100
AcDbLine
 10
1500.2487963152
 20
1661.0125
 30
0.0
 11
1500.2487963152
 21
1658.1125
 31
0.0
  0
LINE
  5
29A
100
AcDbEntity
  8
ﾚｲﾔｰ1
100
AcDbLine
 10
1501.7154629819
 20
1662.4791666667
 30
0.0
 11
1501.7154629819
 21
1658.1125
 31
0.0
  0
LINE
  5
29B
100
AcDbEntity
  8
ﾚｲﾔｰ1
100
AcDbLine
 10
1455.454453125
 20
1535.1338203436
 30
0.0
 11
1458.3331327814
 21
1538.0125
 31
0.0
  0
LINE
  5
29C
100
AcDbEntity
  8
ﾚｲﾔｰ1
100
AcDbLine
 10
1455.454453125
 20
1535.8409271247
 30
0.0
 11
1457.6260260003
 21
1538.0125
 31
0.0
  0
LINE
  5
29D
100
AcDbEntity
  8
ﾚｲﾔｰ1
100
AcDbLine
 10
1455.454453125
 20
1536.5480339059
 30
0.0
 11
1456.9189192191
 21
1538.0125
 31
0.0
  0
LINE
  5
29E
100
AcDbEntity
  8
ﾚｲﾔｰ1
100
AcDbLine
 10
1455.454453125
 20
1537.2551406871
 30
0.0
 11
1456.2118124379
 21
1538.0125
 31
0.0
  0
LINE
  5
29F
100
AcDbEntity
  8
ﾚｲﾔｰ1
100
AcDbLine
 10
1455.454453125
 20
1533.0125
 30
0.0
 11
1460.454453125
 21
1538.0125
 31
0.0
  0
LINE
  5
2A0
100
AcDbEntity
  8
ﾚｲﾔｰ1
100
AcDbLine
 10
1430.921119785
 20
1533.0125
 30
0.0
 11
1425.921119785
 21
1538.0125
 31
0.0
  0
ENDSEC
  0
SECTION
  2
OBJECTS
  0
DICTIONARY
  5
19
100
AcDbDictionary
  3
ACAD_GROUP
350
1A
  3
ACAD_MLINESTYLE
350
1B
  0
DICTIONARY
  5
1A
102
{ACAD_REACTORS
330
19
102
}
100
AcDbDictionary
  0
DICTIONARY
  5
1B
102
{ACAD_REACTORS
330
19
102
}
100
AcDbDictionary
  3
STANDARD
350
1C
  0
MLINESTYLE
  5
1C
102
{ACAD_REACTORS
330
1B
102
}
100
AcDbMlineStyle
  2
STANDARD
 70
         0
  3

 62
         0
 51
90.0
 52
90.0
 71
         2
 49
0.5
 62
       256
  6
BYLAYER
 49
-0.5
 62
       256
  6
BYLAYER
  0
ENDSEC
  0
EOF
