  0
SECTION
  2
HEADER
  9
$ACADVER
  1
AC1014
  9
$ACADMAINTVER
 70
         0
  9
$DWGCODEPAGE
  3
ANSI_932
  9
$INSBASE
 10
0.0
 20
0.0
 30
0.0
  9
$EXTMIN
 10
1.0000000000E+20
 20
1.0000000000E+20
 30
1.0000000000E+20
  9
$EXTMAX
 10
-1.0000000000E+20
 20
-1.0000000000E+20
 30
-1.0000000000E+20
  9
$LIMMIN
 10
0.0
 20
0.0
  9
$LIMMAX
 10
0.0
 20
0.0
  9
$ORTHOMODE
 70
         0
  9
$REGENMODE
 70
         1
  9
$FILLMODE
 70
         1
  9
$QTEXTMODE
 70
         0
  9
$MIRRTEXT
 70
         1
  9
$DRAGMODE
 70
         2
  9
$LTSCALE
 40
1.0
  9
$OSMODE
 70
         0
  9
$ATTMODE
 70
         1
  9
$TEXTSIZE
 40
0.2
  9
$TRACEWID
 40
0.05
  9
$TEXTSTYLE
  7
STANDARD
  9
$CLAYER
  8
0
  9
$CELTYPE
  6
CONTINUOUS
  9
$CECOLOR
 62
       256
  9
$CELTSCALE
 40
1.0
  9
$DELOBJ
 70
         1
  9
$DISPSILH
 70
         0
  9
$DIMSCALE
 40
1.0
  9
$DIMASZ
 40
0.18
  9
$DIMEXO
 40
0.0625
  9
$DIMDLI
 40
0.38
  9
$DIMRND
 40
0.0
  9
$DIMDLE
 40
0.0
  9
$DIMEXE
 40
0.18
  9
$DIMTP
 40
0.0
  9
$DIMTM
 40
0.0
  9
$DIMTXT
 40
0.18
  9
$DIMCEN
 40
0.09
  9
$DIMTSZ
 40
0.0
  9
$DIMTOL
 70
         0
  9
$DIMLIM
 70
         0
  9
$DIMTIH
 70
         1
  9
$DIMTOH
 70
         1
  9
$DIMSE1
 70
         0
  9
$DIMSE2
 70
         0
  9
$DIMTAD
 70
         0
  9
$DIMZIN
 70
         0
  9
$DIMBLK
  1

  9
$DIMASO
 70
         1
  9
$DIMSHO
 70
         1
  9
$DIMPOST
  1

  9
$DIMAPOST
  1

  9
$DIMALT
 70
         0
  9
$DIMALTD
 70
         2
  9
$DIMALTF
 40
25.4
  9
$DIMLFAC
 40
1.0
  9
$DIMTOFL
 70
         0
  9
$DIMTVP
 40
0.0
  9
$DIMTIX
 70
         0
  9
$DIMSOXD
 70
         0
  9
$DIMSAH
 70
         0
  9
$DIMBLK1
  1

  9
$DIMBLK2
  1

  9
$DIMSTYLE
  2
STANDARD
  9
$DIMCLRD
 70
         0
  9
$DIMCLRE
 70
         0
  9
$DIMCLRT
 70
         0
  9
$DIMTFAC
 40
1.0
  9
$DIMGAP
 40
0.09
  9
$DIMJUST
 70
         0
  9
$DIMSD1
 70
         0
  9
$DIMSD2
 70
         0
  9
$DIMTOLJ
 70
         1
  9
$DIMTZIN
 70
         0
  9
$DIMALTZ
 70
         0
  9
$DIMALTTZ
 70
         0
  9
$DIMFIT
 70
         3
  9
$DIMUPT
 70
         0
  9
$DIMUNIT
 70
         2
  9
$DIMDEC
 70
         4
  9
$DIMTDEC
 70
         4
  9
$DIMALTU
 70
         2
  9
$DIMALTTD
 70
         2
  9
$DIMTXSTY
  7
STANDARD
  9
$DIMAUNIT
 70
         0
  9
$LUNITS
 70
         2
  9
$LUPREC
 70
         4
  9
$SKETCHINC
 40
0.1
  9
$FILLETRAD
 40
0.0
  9
$AUNITS
 70
         0
  9
$AUPREC
 70
         0
  9
$MENU
  1
acad
  9
$ELEVATION
 40
0.0
  9
$PELEVATION
 40
0.0
  9
$THICKNESS
 40
0.0
  9
$LIMCHECK
 70
         0
  9
$BLIPMODE
 70
         1
  9
$CHAMFERA
 40
0.0
  9
$CHAMFERB
 40
0.0
  9
$CHAMFERC
 40
0.0
  9
$CHAMFERD
 40
0.0
  9
$SKPOLY
 70
         0
  9
$TDCREATE
 40
0.000000000
  9
$TDUPDATE
 40
0.000000000
  9
$TDINDWG
 40
0.0000000000
  9
$TDUSRTIMER
 40
0.0000000000
  9
$USRTIMER
 70
         1
  9
$ANGBASE
 50
0.0
  9
$ANGDIR
 70
         0
  9
$PDMODE
 70
         3
  9
$PDSIZE
 40
-1.0
  9
$PLINEWID
 40
0.0
  9
$COORDS
 70
         0
  9
$SPLFRAME
 70
         0
  9
$SPLINETYPE
 70
         6
  9
$SPLINESEGS
 70
         8
  9
$ATTDIA
 70
         0
  9
$ATTREQ
 70
         1
  9
$HANDLING
 70
         1
  9
$HANDSEED
  5
216
  9
$SURFTAB1
 70
         6
  9
$SURFTAB2
 70
         6
  9
$SURFTYPE
 70
         6
  9
$SURFU
 70
         6
  9
$SURFV
 70
         6
  9
$UCSNAME
  2

  9
$UCSORG
 10
0.0
 20
0.0
 30
0.0
  9
$UCSXDIR
 10
1.0
 20
0.0
 30
0.0
  9
$UCSYDIR
 10
0.0
 20
1.0
 30
0.0
  9
$PUCSNAME
  2

  9
$PUCSORG
 10
0.0
 20
0.0
 30
0.0
  9
$PUCSXDIR
 10
1.0
 20
0.0
 30
0.0
  9
$PUCSYDIR
 10
0.0
 20
1.0
 30
0.0
  9
$USERI1
 70
         0
  9
$USERI2
 70
         0
  9
$USERI3
 70
         0
  9
$USERI4
 70
         0
  9
$USERI5
 70
         0
  9
$USERR1
 40
0.0
  9
$USERR2
 40
0.0
  9
$USERR3
 40
0.0
  9
$USERR4
 40
0.0
  9
$USERR5
 40
0.0
  9
$WORLDVIEW
 70
         1
  9
$SHADEDGE
 70
         3
  9
$SHADEDIF
 70
        70
  9
$TILEMODE
 70
         1
  9
$MAXACTVP
 70
        16
  9
$PINSBASE
 10
0.0
 20
0.0
 30
0.0
  9
$PLIMCHECK
 70
         0
  9
$PEXTMIN
 10
1.0000000000E+20
 20
1.0000000000E+20
 30
1.0000000000E+20
  9
$PEXTMAX
 10
-1.0000000000E+20
 20
-1.0000000000E+20
 30
-1.0000000000E+20
  9
$PLIMMIN
 10
0.0
 20
0.0
  9
$PLIMMAX
 10
12.0
 20
9.0
  9
$UNITMODE
 70
         0
  9
$VISRETAIN
 70
         0
  9
$PLINEGEN
 70
         1
  9
$PSLTSCALE
 70
         0
  9
$TREEDEPTH
 70
      3020
  9
$PICKSTYLE
 70
         1
  9
$CMLSTYLE
  2
STANDARD
  9
$CMLJUST
 70
         0
  9
$CMLSCALE
 40
1.0
  9
$PROXYGRAPHICS
 70
         0
  9
$MEASUREMENT
 70
         0
  0
ENDSEC
  0
SECTION
  2
CLASSES
  0
CLASS
  1
LWPOLYLINE
  2
AcDbPolyline
  3
"AutoCAD"
 90
        0
280
         0
281
         1
  0
CLASS
  1
IMAGE
  2
AcDbRasterImage
  3
ISM
 90
      127
280
         0
281
         1
  0
CLASS
  1
OLE2FRAME
  2
AcDbOle2Frame
  3
""
 90
        0
280
         0
281
         1
  0
CLASS
  1
HATCH
  2
AcDbHatch
  3
"ACAD_SEDONA"
 90
        0
280
         0
281
         1
  0
CLASS
  1
DICTIONARYVAR
  2
AcDbDictionaryVar
  3
"AutoCAD"
 90
        0
280
         0
281
         0
  0
CLASS
  1
RASTERVARIABLES
  2
AcDbRasterVariables
  3
ISM
 90
        0
280
         0
281
         0
  0
CLASS
  1
IMAGEDEF
  2
AcDbRasterImageDef
  3
ISM
 90
        0
280
         0
281
         0
  0
CLASS
  1
IMAGEDEF_REACTOR
  2
AcDbRasterImageDefReactor
  3
ISM
 90
        1
280
         0
281
         0
  0
CLASS
  1
IDBUFFER
  2
AcDbIdBuffer
  3
"Acad"
 90
        0
280
         0
281
         0
  0
CLASS
  1
SPATIAL_FILTER
  2
AcDbSpatialFilter
  3
"Acad"
 90
        0
280
         0
281
         0
  0
CLASS
  1
XRECORD
  2
AcDbXrecord
  3
"<Built In>"
 90
        0
280
         0
281
         0
  0
CLASS
  1
SORTENTSTABLE
  2
AcDbSortentsTable
  3
"AutoCAD"
 90
        0
280
         0
281
         0
  0
CLASS
  1
LAYER_INDEX
  2
AcDbLayerIndex
  3
"Acad"
 90
        0
280
         0
281
         0
  0
CLASS
  1
SPATIAL_INDEX
  2
AcDbSpatialIndex
  3
"Acad"
 90
        0
280
         0
281
         0
  0
CLASS
  1
OBJECT_PTR
  2
CAseDLPNTableRecord
  3
"ASE-LPNTableRecord"
 90
        1
280
         0
281
         0
  0
CLASS
  1
LAYOUT
  2
AcDbLayout
  3
"AutoCAD 2000"
 90
        1
280
         0
281
         0
  0
CLASS
  1
PLOTSETTINGS
  2
AcDbPlotSettings
  3
"AutoCAD 2000"
 90
        1
280
         0
281
         0
  0
CLASS
  1
ACDBDICTIONARYWDFLT
  2
AcDbDictionaryWithDefault
  3
"AutoCAD 2000"
 90
        1
280
         0
281
         0
  0
CLASS
  1
ACDBPLACEHOLDER
  2
AcDbPlaceHolder
  3
"AutoCAD 2000"
 90
        1
280
         0
281
         0
  0
CLASS
  1
VBA_PROJECT
  2
AcDbVbaProject
  3
"acadvba"
 90
        1
280
         0
281
         0
  0
CLASS
  1
WIPEOUT
  2
AcDbWipeout
  3
WipeOut|AutoCAD Express Tool|expresstools@autodesk.com
 90
      127
280
         0
281
         1
  0
CLASS
  1
WIPEOUTVARIABLES
  2
AcDbWipeoutVariables
  3
WipeOut|AutoCAD Express Tool|expresstools@autodesk.com
 90
        0
280
         0
281
         0
  0
CLASS
  1
RTEXT
  2
RText
  3
RText|AutoCAD Express Tool|expresstools@autodesk.com
 90
        0
280
         0
281
         1
  0
CLASS
  1
ARCALIGNEDTEXT
  2
AcDbArcAlignedText
  3
ATEXT|AutoCAD Express Tool|expresstools@autodesk.com
 90
        0
280
         0
281
         1
  0
ENDSEC
  0
SECTION
  2
TABLES
  0
TABLE
  2
VPORT
  5
7
100
AcDbSymbolTable
 70
         1
  0
VPORT
  5
15
100
AcDbSymbolTableRecord
100
AcDbViewportTableRecord
  2
*ACTIVE
 70
         0
 10
0.0
 20
0.0
 11
1.0
 21
1.0
 12
6.591288
 22
4.579184
 13
0.0
 23
0.0
 14
1.0
 24
1.0
 15
0.0
 25
0.0
 16
0.0
 26
0.0
 36
1.0
 17
0.0
 27
0.0
 37
0.0
 40
9.158369
 41
0.688564
 42
50.0
 43
0.0
 44
0.0
 50
0.0
 51
0.0
 71
         0
 72
       100
 73
         1
 74
         1
 75
         0
 76
         0
 77
         0
 78
         0
  0
ENDTAB
  0
TABLE
  2
LTYPE
  5
4
100
AcDbSymbolTable
 70
        13
  0
LTYPE
  5
11
100
AcDbSymbolTableRecord
100
AcDbLinetypeTableRecord
  2
BYBLOCK
 70
        64
  3

 72
        65
 73
         0
 40
0.0
  0
LTYPE
  5
12
100
AcDbSymbolTableRecord
100
AcDbLinetypeTableRecord
  2
BYLAYER
 70
        64
  3

 72
        65
 73
         0
 40
0.0
  0
LTYPE
  5
13
100
AcDbSymbolTableRecord
100
AcDbLinetypeTableRecord
  2
CONTINUOUS
 70
        64
  3
Solid line
 72
        65
 73
         0
 40
0.0
  0
LTYPE
  5
1D
100
AcDbSymbolTableRecord
100
AcDbLinetypeTableRecord
  2
DOT
 70
        64
  3
. . . . . . . . 
 72
        65
 73
         2
 40
1.0
 49
0.0
 74
         0
 49
-1.0
 74
         0
  0
LTYPE
  5
1E
100
AcDbSymbolTableRecord
100
AcDbLinetypeTableRecord
  2
DASHED
 70
        64
  3
___  ___  ___  ___  
 72
        65
 73
         2
 40
4.0
 49
3.0
 74
         0
 49
-1.0
 74
         0
  0
LTYPE
  5
1F
100
AcDbSymbolTableRecord
100
AcDbLinetypeTableRecord
  2
HIDDEN
 70
        64
  3
__ __ __ __ 
 72
        65
 73
         2
 40
3.0
 49
2.0
 74
         0
 49
-1.0
 74
         0
  0
LTYPE
  5
20
100
AcDbSymbolTableRecord
100
AcDbLinetypeTableRecord
  2
STITCH
 70
        64
  3
_ _ _ _ 
 72
        65
 73
         2
 40
2.0
 49
1.0
 74
         0
 49
-1.0
 74
         0
  0
LTYPE
  5
21
100
AcDbSymbolTableRecord
100
AcDbLinetypeTableRecord
  2
CENTER
 70
        64
  3
______  __  ______  __  
 72
        65
 73
         4
 40
43.0
 49
40.0
 74
         0
 49
-1.0
 74
         0
 49
1.0
 74
         0
 49
-1.0
 74
         0
  0
LTYPE
  5
22
100
AcDbSymbolTableRecord
100
AcDbLinetypeTableRecord
  2
DASHDOT
 70
        64
  3
____ . ____ . 
 72
        65
 73
         4
 40
32.0
 49
30.0
 74
         0
 49
-1.0
 74
         0
 49
0.0
 74
         0
 49
-1.0
 74
         0
  0
LTYPE
  5
23
100
AcDbSymbolTableRecord
100
AcDbLinetypeTableRecord
  2
BORDER
 70
        64
  3
__ . __ . 
 72
        65
 73
         4
 40
22.0
 49
20.0
 74
         0
 49
-1.0
 74
         0
 49
0.0
 74
         0
 49
-1.0
 74
         0
  0
LTYPE
  5
24
100
AcDbSymbolTableRecord
100
AcDbLinetypeTableRecord
  2
CUTTING
 70
        64
  3
________   ___   ___   
 72
        65
 73
         6
 40
45.0
 49
40.0
 74
         0
 49
-1.0
 74
         0
 49
1.0
 74
         0
 49
-1.0
 74
         0
 49
1.0
 74
         0
 49
-1.0
 74
         0
  0
LTYPE
  5
25
100
AcDbSymbolTableRecord
100
AcDbLinetypeTableRecord
  2
PHANTOM
 70
        64
  3
______  __  __  
 72
        65
 73
         6
 40
35.0
 49
30.0
 74
         0
 49
-1.0
 74
         0
 49
1.0
 74
         0
 49
-1.0
 74
         0
 49
1.0
 74
         0
 49
-1.0
 74
         0
  0
LTYPE
  5
26
100
AcDbSymbolTableRecord
100
AcDbLinetypeTableRecord
  2
DIVIDE
 70
        64
  3
____ . . ____ . . 
 72
        65
 73
         6
 40
23.0
 49
20.0
 74
         0
 49
-1.0
 74
         0
 49
0.0
 74
         0
 49
-1.0
 74
         0
 49
0.0
 74
         0
 49
-1.0
 74
         0
  0
ENDTAB
  0
TABLE
  2
LAYER
  5
2
100
AcDbSymbolTable
 70
         9
  0
LAYER
  5
14
100
AcDbSymbolTableRecord
100
AcDbLayerTableRecord
  2
0
 70
         0
 62
         7
  6
CONTINUOUS
  0
LAYER
  5
27
100
AcDbSymbolTableRecord
100
AcDbLayerTableRecord
  2
LAYER0
 70
         0
 62
         7
  6
CONTINUOUS
  0
LAYER
  5
2A
100
AcDbSymbolTableRecord
100
AcDbLayerTableRecord
  2
LAYER0_00000000
 70
         0
 62
         7
  6
CONTINUOUS
  0
LAYER
  5
33
100
AcDbSymbolTableRecord
100
AcDbLayerTableRecord
  2
LAYER6
 70
         0
 62
         7
  6
CONTINUOUS
  0
LAYER
  5
3F
100
AcDbSymbolTableRecord
100
AcDbLayerTableRecord
  2
LAYER2
 70
         0
 62
         7
  6
CONTINUOUS
  0
LAYER
  5
69
100
AcDbSymbolTableRecord
100
AcDbLayerTableRecord
  2
LAYER4
 70
         0
 62
         7
  6
CONTINUOUS
  0
LAYER
  5
9B
100
AcDbSymbolTableRecord
100
AcDbLayerTableRecord
  2
ﾚｲﾔｰ1
 70
         0
 62
         7
  6
CONTINUOUS
  0
LAYER
  5
BC
100
AcDbSymbolTableRecord
100
AcDbLayerTableRecord
  2
LAYER5
 70
         0
 62
         7
  6
CONTINUOUS
  0
LAYER
  5
114
100
AcDbSymbolTableRecord
100
AcDbLayerTableRecord
  2
寸法線
 70
         0
 62
         7
  6
CONTINUOUS
  0
ENDTAB
  0
TABLE
  2
STYLE
  5
3
100
AcDbSymbolTable
 70
         1
  0
STYLE
  5
17
100
AcDbSymbolTableRecord
100
AcDbTextStyleTableRecord
  2
STANDARD
 70
         0
 40
0.0
 41
1.0
 50
0.0
 71
         0
 42
0.0
  3
txt
  4
extfont
  0
ENDTAB
  0
TABLE
  2
VIEW
  5
5
100
AcDbSymbolTable
 70
         0
  0
ENDTAB
  0
TABLE
  2
UCS
  5
6
100
AcDbSymbolTable
 70
         0
  0
ENDTAB
  0
TABLE
  2
APPID
  5
8
100
AcDbSymbolTable
 70
         1
  0
APPID
  5
16
100
AcDbSymbolTableRecord
100
AcDbRegAppTableRecord
  2
ACAD
 70
         0
  0
ENDTAB
  0
TABLE
  2
DIMSTYLE
  5
9
100
AcDbSymbolTable
 70
         3
  0
DIMSTYLE
105
18
100
AcDbSymbolTableRecord
100
AcDbDimStyleTableRecord
  2
STANDARD
 70
         0
  3

  4

  5

  6

  7

 40
1.0
 41
0.18
 42
0.0625
 43
0.38
 44
0.18
 45
0.0
 46
0.0
 47
0.0
 48
0.0
 71
         0
 72
         0
 73
         1
 74
         1
 75
         0
 76
         0
 77
         0
 78
         0
140
0.18
141
0.09
142
0.0
143
25.4
144
1.0
145
0.0
146
1.0
147
0.09
170
         0
171
         2
172
         0
173
         0
174
         0
175
         0
176
         0
177
         0
178
         0
270
         2
271
         4
272
         4
273
         2
274
         2
275
         0
280
         0
281
         0
282
         0
283
         1
284
         0
285
         0
286
         0
287
         0
288
         0
340
17
  0
DIMSTYLE
105
103
100
AcDbSymbolTableRecord
100
AcDbDimStyleTableRecord
  2
VELDIM0
 70
         0
  3

  4

  5

  6

  7

 40
1.0
 41
40.0
 42
0.0625
 43
0.38
 44
26.6666660309
 45
0.0
 46
80.0
 47
0.0
 48
0.0
 71
         0
 72
         0
 73
         0
 74
         0
 75
         0
 76
         0
 77
         0
 78
         8
140
48.2934200287
141
0.09
142
0.0
143
25.4
144
1.0
145
0.0
146
1.0
147
0.09
170
         0
171
         2
172
         0
173
         0
174
         0
175
         0
176
         0
177
         0
178
         0
270
         2
271
         3
272
         4
273
         2
274
         2
275
         0
280
         0
281
         0
282
         0
283
         1
284
         0
285
         0
286
         0
287
         3
288
         0
340
17
  0
DIMSTYLE
105
17C
100
AcDbSymbolTableRecord
100
AcDbDimStyleTableRecord
  2
VELDIM1
 70
         0
  3

  4

  5

  6

  7

 40
1.0
 41
45.0
 42
0.0625
 43
0.38
 44
30.0
 45
0.0
 46
90.0
 47
0.0
 48
0.0
 71
         0
 72
         0
 73
         0
 74
         0
 75
         0
 76
         0
 77
         0
 78
         8
140
48.2934200287
141
0.09
142
0.0
143
25.4
144
1.0
145
0.0
146
1.0
147
0.09
170
         0
171
         2
172
         0
173
         0
174
         0
175
         0
176
         0
177
         0
178
         0
270
         2
271
         3
272
         4
273
         2
274
         2
275
         0
280
         0
281
         0
282
         0
283
         1
284
         0
285
         0
286
         0
287
         3
288
         0
340
17
  0
ENDTAB
  0
TABLE
  2
BLOCK_RECORD
  5
1
100
AcDbSymbolTable
 70
        14
  0
BLOCK_RECORD
  5
A
100
AcDbSymbolTableRecord
100
AcDbBlockTableRecord
  2
*MODEL_SPACE
  0
BLOCK_RECORD
  5
B
100
AcDbSymbolTableRecord
100
AcDbBlockTableRecord
  2
*PAPER_SPACE
  0
BLOCK_RECORD
  5
104
100
AcDbSymbolTableRecord
100
AcDbBlockTableRecord
  2
*D0
  0
BLOCK_RECORD
  5
116
100
AcDbSymbolTableRecord
100
AcDbBlockTableRecord
  2
*D1
  0
BLOCK_RECORD
  5
127
100
AcDbSymbolTableRecord
100
AcDbBlockTableRecord
  2
*D2
  0
BLOCK_RECORD
  5
138
100
AcDbSymbolTableRecord
100
AcDbBlockTableRecord
  2
*D3
  0
BLOCK_RECORD
  5
149
100
AcDbSymbolTableRecord
100
AcDbBlockTableRecord
  2
*D4
  0
BLOCK_RECORD
  5
15A
100
AcDbSymbolTableRecord
100
AcDbBlockTableRecord
  2
*D5
  0
BLOCK_RECORD
  5
16B
100
AcDbSymbolTableRecord
100
AcDbBlockTableRecord
  2
*D6
  0
BLOCK_RECORD
  5
17D
100
AcDbSymbolTableRecord
100
AcDbBlockTableRecord
  2
*D7
  0
BLOCK_RECORD
  5
18E
100
AcDbSymbolTableRecord
100
AcDbBlockTableRecord
  2
*D8
  0
BLOCK_RECORD
  5
19F
100
AcDbSymbolTableRecord
100
AcDbBlockTableRecord
  2
*D9
  0
BLOCK_RECORD
  5
1B0
100
AcDbSymbolTableRecord
100
AcDbBlockTableRecord
  2
*D10
  0
BLOCK_RECORD
  5
1C1
100
AcDbSymbolTableRecord
100
AcDbBlockTableRecord
  2
*D11
  0
BLOCK_RECORD
  5
1D2
100
AcDbSymbolTableRecord
100
AcDbBlockTableRecord
  2
*D12
  0
BLOCK_RECORD
  5
1E3
100
AcDbSymbolTableRecord
100
AcDbBlockTableRecord
  2
*D13
  0
ENDTAB
  0
ENDSEC
  0
SECTION
  2
BLOCKS
  0
BLOCK
  5
D
100
AcDbEntity
  8
0
100
AcDbBlockBegin
  2
*MODEL_SPACE
 70
         0
 10
0.0
 20
0.0
 30
0.0
  3
*MODEL_SPACE
  1

  0
ENDBLK
  5
E
100
AcDbEntity
  8
0
100
AcDbBlockEnd
  0
BLOCK
  5
F
100
AcDbEntity
 67
         1
  8
0
100
AcDbBlockBegin
  2
*PAPER_SPACE
 70
         0
 10
0.0
 20
0.0
 30
0.0
  3
*PAPER_SPACE
  1

  0
ENDBLK
  5
10
100
AcDbEntity
 67
         1
  8
0
100
AcDbBlockEnd
  0
BLOCK
  5
105
100
AcDbEntity
  8
0
100
AcDbBlockBegin
  2
*D0
 70
         1
 10
0.0
 20
0.0
 30
0.0
  3

  1

  0
TEXT
  5
106
100
AcDbEntity
  8
0
 62
         0
100
AcDbText
 10
3110.6087341867
 20
2480.3657761891
 30
0.0
 40
48.2934200287
  1
400
100
AcDbText
  0
LINE
  5
107
100
AcDbEntity
  8
0
 62
         0
100
AcDbLine
 10
2953.7106166667
 20
2317.3226666667
 30
0.0
 11
2953.7106166667
 21
2526.9179681142
 31
0.0
  0
LINE
  5
108
100
AcDbEntity
  8
0
 62
         0
100
AcDbLine
 10
3353.7101166667
 20
2317.3226666667
 30
0.0
 11
3353.7101166667
 21
2526.9179681142
 31
0.0
  0
LINE
  5
109
100
AcDbEntity
  8
0
 62
         0
100
AcDbLine
 10
2953.7106166667
 20
2500.2513020833
 30
0.0
 11
3082.2008400522
 21
2500.2513020833
 31
0.0
  0
LINE
  5
10A
100
AcDbEntity
  8
0
 62
         0
100
AcDbLine
 10
3353.7101166667
 20
2500.2513020833
 30
0.0
 11
3225.2198932812
 21
2500.2513020833
 31
0.0
  0
LINE
  5
10B
100
AcDbEntity
  8
0
 62
         0
100
AcDbLine
 10
2953.7106166667
 20
2500.2513020833
 30
0.0
 11
3082.2008400522
 21
2500.2513020833
 31
0.0
  0
LINE
  5
10C
100
AcDbEntity
  8
0
 62
         0
100
AcDbLine
 10
3353.7101166667
 20
2500.2513020833
 30
0.0
 11
3225.2198932812
 21
2500.2513020833
 31
0.0
  0
LINE
  5
10D
100
AcDbEntity
  8
0
 62
         0
100
AcDbLine
 10
3353.7101166667
 20
2500.2513020833
 30
0.0
 11
3273.7101166667
 21
2500.2513020833
 31
0.0
  0
LINE
  5
10E
100
AcDbEntity
  8
0
 62
         0
100
AcDbLine
 10
3313.7101166667
 20
2490.2513020833
 30
0.0
 11
3353.7101166667
 21
2500.2513020833
 31
0.0
  0
LINE
  5
10F
100
AcDbEntity
  8
0
 62
         0
100
AcDbLine
 10
3353.7101166667
 20
2500.2513020833
 30
0.0
 11
3313.7101166667
 21
2510.2513020833
 31
0.0
  0
LINE
  5
110
100
AcDbEntity
  8
0
 62
         0
100
AcDbLine
 10
2953.7106166667
 20
2500.2513020833
 30
0.0
 11
3033.7106166667
 21
2500.2513020833
 31
0.0
  0
LINE
  5
111
100
AcDbEntity
  8
0
 62
         0
100
AcDbLine
 10
2993.7106166667
 20
2510.2513020833
 30
0.0
 11
2953.7106166667
 21
2500.2513020833
 31
0.0
  0
LINE
  5
112
100
AcDbEntity
  8
0
 62
         0
100
AcDbLine
 10
2953.7106166667
 20
2500.2513020833
 30
0.0
 11
2993.7106166667
 21
2490.2513020833
 31
0.0
  0
ENDBLK
  5
113
100
AcDbEntity
  8
0
100
AcDbBlockEnd
  0
BLOCK
  5
117
100
AcDbEntity
  8
0
100
AcDbBlockBegin
  2
*D1
 70
         1
 10
0.0
 20
0.0
 30
0.0
  3

  1

  0
TEXT
  5
118
100
AcDbEntity
  8
0
 62
         0
100
AcDbText
 10
3110.6087341867
 20
1549.6939011891
 30
0.0
 40
48.2934200287
  1
200
100
AcDbText
  0
LINE
  5
119
100
AcDbEntity
  8
0
 62
         0
100
AcDbLine
 10
3253.7102166667
 20
1986.3230666667
 30
0.0
 11
3253.7102166667
 21
1542.9127610524
 31
0.0
  0
LINE
  5
11A
100
AcDbEntity
  8
0
 62
         0
100
AcDbLine
 10
3053.7105166667
 20
1986.3230666667
 30
0.0
 11
3053.7105166667
 21
1542.9127610524
 31
0.0
  0
LINE
  5
11B
100
AcDbEntity
  8
0
 62
         0
100
AcDbLine
 10
3253.7102166667
 20
1569.5794270833
 30
0.0
 11
3225.2198932812
 21
1569.5794270833
 31
0.0
  0
LINE
  5
11C
100
AcDbEntity
  8
0
 62
         0
100
AcDbLine
 10
3053.7105166667
 20
1569.5794270833
 30
0.0
 11
3082.2008400522
 21
1569.5794270833
 31
0.0
  0
LINE
  5
11D
100
AcDbEntity
  8
0
 62
         0
100
AcDbLine
 10
3253.7102166667
 20
1569.5794270833
 30
0.0
 11
3225.2198932812
 21
1569.5794270833
 31
0.0
  0
LINE
  5
11E
100
AcDbEntity
  8
0
 62
         0
100
AcDbLine
 10
3053.7105166667
 20
1569.5794270833
 30
0.0
 11
3082.2008400522
 21
1569.5794270833
 31
0.0
  0
LINE
  5
11F
100
AcDbEntity
  8
0
 62
         0
100
AcDbLine
 10
3053.7105166667
 20
1569.5794270833
 30
0.0
 11
2973.7105166667
 21
1569.5794270833
 31
0.0
  0
LINE
  5
120
100
AcDbEntity
  8
0
 62
         0
100
AcDbLine
 10
3013.7105166667
 20
1559.5794270833
 30
0.0
 11
3053.7105166667
 21
1569.5794270833
 31
0.0
  0
LINE
  5
121
100
AcDbEntity
  8
0
 62
         0
100
AcDbLine
 10
3053.7105166667
 20
1569.5794270833
 30
0.0
 11
3013.7105166667
 21
1579.5794270833
 31
0.0
  0
LINE
  5
122
100
AcDbEntity
  8
0
 62
         0
100
AcDbLine
 10
3253.7102166667
 20
1569.5794270833
 30
0.0
 11
3333.7102166667
 21
1569.5794270833
 31
0.0
  0
LINE
  5
123
100
AcDbEntity
  8
0
 62
         0
100
AcDbLine
 10
3293.7102166667
 20
1579.5794270833
 30
0.0
 11
3253.7102166667
 21
1569.5794270833
 31
0.0
  0
LINE
  5
124
100
AcDbEntity
  8
0
 62
         0
100
AcDbLine
 10
3253.7102166667
 20
1569.5794270833
 30
0.0
 11
3293.7102166667
 21
1559.5794270833
 31
0.0
  0
ENDBLK
  5
125
100
AcDbEntity
  8
0
100
AcDbBlockEnd
  0
BLOCK
  5
128
100
AcDbEntity
  8
0
100
AcDbBlockBegin
  2
*D2
 70
         1
 10
0.0
 20
0.0
 30
0.0
  3

  1

  0
TEXT
  5
129
100
AcDbEntity
  8
0
 62
         0
100
AcDbText
 10
3110.6087341867
 20
1669.3517136891
 30
0.0
 40
48.2934200287
  1
100
100
AcDbText
  0
LINE
  5
12A
100
AcDbEntity
  8
0
 62
         0
100
AcDbLine
 10
3203.7103166667
 20
1946.3230666667
 30
0.0
 11
3203.7103166667
 21
1662.5705735524
 31
0.0
  0
LINE
  5
12B
100
AcDbEntity
  8
0
 62
         0
100
AcDbLine
 10
3103.7104166667
 20
1946.3230666667
 30
0.0
 11
3103.7104166667
 21
1662.5705735524
 31
0.0
  0
LINE
  5
12C
100
AcDbEntity
  8
0
 62
         0
100
AcDbLine
 10
3203.7103166667
 20
1689.2372395833
 30
0.0
 11
3203.7103166667
 21
1689.2372395833
 31
0.0
  0
LINE
  5
12D
100
AcDbEntity
  8
0
 62
         0
100
AcDbLine
 10
3103.7104166667
 20
1689.2372395833
 30
0.0
 11
3103.7104166667
 21
1689.2372395833
 31
0.0
  0
LINE
  5
12E
100
AcDbEntity
  8
0
 62
         0
100
AcDbLine
 10
3203.7103166667
 20
1689.2372395833
 30
0.0
 11
3203.7103166667
 21
1689.2372395833
 31
0.0
  0
LINE
  5
12F
100
AcDbEntity
  8
0
 62
         0
100
AcDbLine
 10
3103.7104166667
 20
1689.2372395833
 30
0.0
 11
3103.7104166667
 21
1689.2372395833
 31
0.0
  0
LINE
  5
130
100
AcDbEntity
  8
0
 62
         0
100
AcDbLine
 10
3103.7104166667
 20
1689.2372395833
 30
0.0
 11
3103.7104166667
 21
1689.2372395833
 31
0.0
  0
LINE
  5
131
100
AcDbEntity
  8
0
 62
         0
100
AcDbLine
 10
3103.7104166667
 20
1689.2372395833
 30
0.0
 11
3103.7104166667
 21
1689.2372395833
 31
0.0
  0
LINE
  5
132
100
AcDbEntity
  8
0
 62
         0
100
AcDbLine
 10
3103.7104166667
 20
1689.2372395833
 30
0.0
 11
3103.7104166667
 21
1689.2372395833
 31
0.0
  0
LINE
  5
133
100
AcDbEntity
  8
0
 62
         0
100
AcDbLine
 10
3203.7103166667
 20
1689.2372395833
 30
0.0
 11
3203.7103166667
 21
1689.2372395833
 31
0.0
  0
LINE
  5
134
100
AcDbEntity
  8
0
 62
         0
100
AcDbLine
 10
3203.7103166667
 20
1689.2372395833
 30
0.0
 11
3203.7103166667
 21
1689.2372395833
 31
0.0
  0
LINE
  5
135
100
AcDbEntity
  8
0
 62
         0
100
AcDbLine
 10
3203.7103166667
 20
1689.2372395833
 30
0.0
 11
3203.7103166667
 21
1689.2372395833
 31
0.0
  0
ENDBLK
  5
136
100
AcDbEntity
  8
0
100
AcDbBlockEnd
  0
BLOCK
  5
139
100
AcDbEntity
  8
0
100
AcDbBlockBegin
  2
*D3
 70
         1
 10
0.0
 20
0.0
 30
0.0
  3

  1

  0
TEXT
  5
13A
100
AcDbEntity
  8
0
 62
         0
100
AcDbText
 10
2569.8475050609
 20
2053.2212841867
 30
0.0
 40
48.2934200287
  1
500
 50
90.0
100
AcDbText
  0
LINE
  5
13B
100
AcDbEntity
  8
0
 62
         0
100
AcDbLine
 10
2903.7106166667
 20
1846.3231666667
 30
0.0
 11
2523.2953131358
 21
1846.3231666667
 31
0.0
  0
LINE
  5
13C
100
AcDbEntity
  8
0
 62
         0
100
AcDbLine
 10
2903.7106166667
 20
2346.3226666667
 30
0.0
 11
2523.2953131358
 21
2346.3226666667
 31
0.0
  0
LINE
  5
13D
100
AcDbEntity
  8
0
 62
         0
100
AcDbLine
 10
2549.9619791667
 20
1846.3231666667
 30
0.0
 11
2549.9619791667
 21
2024.8133900522
 31
0.0
  0
LINE
  5
13E
100
AcDbEntity
  8
0
 62
         0
100
AcDbLine
 10
2549.9619791667
 20
2346.3226666667
 30
0.0
 11
2549.9619791667
 21
2167.8324432812
 31
0.0
  0
LINE
  5
13F
100
AcDbEntity
  8
0
 62
         0
100
AcDbLine
 10
2549.9619791667
 20
1846.3231666667
 30
0.0
 11
2549.9619791667
 21
2024.8133900522
 31
0.0
  0
LINE
  5
140
100
AcDbEntity
  8
0
 62
         0
100
AcDbLine
 10
2549.9619791667
 20
2346.3226666667
 30
0.0
 11
2549.9619791667
 21
2167.8324432812
 31
0.0
  0
LINE
  5
141
100
AcDbEntity
  8
0
 62
         0
100
AcDbLine
 10
2549.9619791667
 20
2346.3226666667
 30
0.0
 11
2549.9619791667
 21
2266.3226666667
 31
0.0
  0
LINE
  5
142
100
AcDbEntity
  8
0
 62
         0
100
AcDbLine
 10
2559.9619791667
 20
2306.3226666667
 30
0.0
 11
2549.9619791667
 21
2346.3226666667
 31
0.0
  0
LINE
  5
143
100
AcDbEntity
  8
0
 62
         0
100
AcDbLine
 10
2549.9619791667
 20
2346.3226666667
 30
0.0
 11
2539.9619791667
 21
2306.3226666667
 31
0.0
  0
LINE
  5
144
100
AcDbEntity
  8
0
 62
         0
100
AcDbLine
 10
2549.9619791667
 20
1846.3231666667
 30
0.0
 11
2549.9619791667
 21
1926.3231666667
 31
0.0
  0
LINE
  5
145
100
AcDbEntity
  8
0
 62
         0
100
AcDbLine
 10
2539.9619791667
 20
1886.3231666667
 30
0.0
 11
2549.9619791667
 21
1846.3231666667
 31
0.0
  0
LINE
  5
146
100
AcDbEntity
  8
0
 62
         0
100
AcDbLine
 10
2549.9619791667
 20
1846.3231666667
 30
0.0
 11
2559.9619791667
 21
1886.3231666667
 31
0.0
  0
ENDBLK
  5
147
100
AcDbEntity
  8
0
100
AcDbBlockEnd
  0
BLOCK
  5
14A
100
AcDbEntity
  8
0
100
AcDbBlockBegin
  2
*D4
 70
         1
 10
0.0
 20
0.0
 30
0.0
  3

  1

  0
TEXT
  5
14B
100
AcDbEntity
  8
0
 62
         0
100
AcDbText
 10
2678.4258904775
 20
2053.2212841867
 30
0.0
 40
48.2934200287
  1
400
 50
90.0
100
AcDbText
  0
LINE
  5
14C
100
AcDbEntity
  8
0
 62
         0
100
AcDbLine
 10
2932.7106166667
 20
1896.3231666667
 30
0.0
 11
2631.8736985524
 21
1896.3231666667
 31
0.0
  0
LINE
  5
14D
100
AcDbEntity
  8
0
 62
         0
100
AcDbLine
 10
2932.7106166667
 20
2296.3226666667
 30
0.0
 11
2631.8736985524
 21
2296.3226666667
 31
0.0
  0
LINE
  5
14E
100
AcDbEntity
  8
0
 62
         0
100
AcDbLine
 10
2658.5403645833
 20
1896.3231666667
 30
0.0
 11
2658.5403645833
 21
2024.8133900522
 31
0.0
  0
LINE
  5
14F
100
AcDbEntity
  8
0
 62
         0
100
AcDbLine
 10
2658.5403645833
 20
2296.3226666667
 30
0.0
 11
2658.5403645833
 21
2167.8324432812
 31
0.0
  0
LINE
  5
150
100
AcDbEntity
  8
0
 62
         0
100
AcDbLine
 10
2658.5403645833
 20
1896.3231666667
 30
0.0
 11
2658.5403645833
 21
2024.8133900522
 31
0.0
  0
LINE
  5
151
100
AcDbEntity
  8
0
 62
         0
100
AcDbLine
 10
2658.5403645833
 20
2296.3226666667
 30
0.0
 11
2658.5403645833
 21
2167.8324432812
 31
0.0
  0
LINE
  5
152
100
AcDbEntity
  8
0
 62
         0
100
AcDbLine
 10
2658.5403645833
 20
2296.3226666667
 30
0.0
 11
2658.5403645833
 21
2216.3226666667
 31
0.0
  0
LINE
  5
153
100
AcDbEntity
  8
0
 62
         0
100
AcDbLine
 10
2668.5403645833
 20
2256.3226666667
 30
0.0
 11
2658.5403645833
 21
2296.3226666667
 31
0.0
  0
LINE
  5
154
100
AcDbEntity
  8
0
 62
         0
100
AcDbLine
 10
2658.5403645833
 20
2296.3226666667
 30
0.0
 11
2648.5403645833
 21
2256.3226666667
 31
0.0
  0
LINE
  5
155
100
AcDbEntity
  8
0
 62
         0
100
AcDbLine
 10
2658.5403645833
 20
1896.3231666667
 30
0.0
 11
2658.5403645833
 21
1976.3231666667
 31
0.0
  0
LINE
  5
156
100
AcDbEntity
  8
0
 62
         0
100
AcDbLine
 10
2648.5403645833
 20
1936.3231666667
 30
0.0
 11
2658.5403645833
 21
1896.3231666667
 31
0.0
  0
LINE
  5
157
100
AcDbEntity
  8
0
 62
         0
100
AcDbLine
 10
2658.5403645833
 20
1896.3231666667
 30
0.0
 11
2668.5403645833
 21
1936.3231666667
 31
0.0
  0
ENDBLK
  5
158
100
AcDbEntity
  8
0
100
AcDbBlockEnd
  0
BLOCK
  5
15B
100
AcDbEntity
  8
0
100
AcDbBlockBegin
  2
*D5
 70
         1
 10
0.0
 20
0.0
 30
0.0
  3

  1

  0
TEXT
  5
15C
100
AcDbEntity
  8
0
 62
         0
100
AcDbText
 10
2782.5725050609
 20
2053.2212841867
 30
0.0
 40
48.2934200287
  1
300
 50
90.0
100
AcDbText
  0
LINE
  5
15D
100
AcDbEntity
  8
0
 62
         0
100
AcDbLine
 10
3003.7105166667
 20
1946.3230666667
 30
0.0
 11
2736.0203131358
 21
1946.3230666667
 31
0.0
  0
LINE
  5
15E
100
AcDbEntity
  8
0
 62
         0
100
AcDbLine
 10
3003.7105166667
 20
2246.3227666667
 30
0.0
 11
2736.0203131358
 21
2246.3227666667
 31
0.0
  0
LINE
  5
15F
100
AcDbEntity
  8
0
 62
         0
100
AcDbLine
 10
2762.6869791667
 20
1946.3230666667
 30
0.0
 11
2762.6869791667
 21
2024.8133900522
 31
0.0
  0
LINE
  5
160
100
AcDbEntity
  8
0
 62
         0
100
AcDbLine
 10
2762.6869791667
 20
2246.3227666667
 30
0.0
 11
2762.6869791667
 21
2167.8324432812
 31
0.0
  0
LINE
  5
161
100
AcDbEntity
  8
0
 62
         0
100
AcDbLine
 10
2762.6869791667
 20
1946.3230666667
 30
0.0
 11
2762.6869791667
 21
2024.8133900522
 31
0.0
  0
LINE
  5
162
100
AcDbEntity
  8
0
 62
         0
100
AcDbLine
 10
2762.6869791667
 20
2246.3227666667
 30
0.0
 11
2762.6869791667
 21
2167.8324432812
 31
0.0
  0
LINE
  5
163
100
AcDbEntity
  8
0
 62
         0
100
AcDbLine
 10
2762.6869791667
 20
2246.3227666667
 30
0.0
 11
2762.6869791667
 21
2167.8324432812
 31
0.0
  0
LINE
  5
164
100
AcDbEntity
  8
0
 62
         0
100
AcDbLine
 10
2772.6869791667
 20
2206.3227666667
 30
0.0
 11
2762.6869791667
 21
2246.3227666667
 31
0.0
  0
LINE
  5
165
100
AcDbEntity
  8
0
 62
         0
100
AcDbLine
 10
2762.6869791667
 20
2246.3227666667
 30
0.0
 11
2752.6869791667
 21
2206.3227666667
 31
0.0
  0
LINE
  5
166
100
AcDbEntity
  8
0
 62
         0
100
AcDbLine
 10
2762.6869791667
 20
1946.3230666667
 30
0.0
 11
2762.6869791667
 21
2024.8133900522
 31
0.0
  0
LINE
  5
167
100
AcDbEntity
  8
0
 62
         0
100
AcDbLine
 10
2752.6869791667
 20
1986.3230666667
 30
0.0
 11
2762.6869791667
 21
1946.3230666667
 31
0.0
  0
LINE
  5
168
100
AcDbEntity
  8
0
 62
         0
100
AcDbLine
 10
2762.6869791667
 20
1946.3230666667
 30
0.0
 11
2772.6869791667
 21
1986.3230666667
 31
0.0
  0
ENDBLK
  5
169
100
AcDbEntity
  8
0
100
AcDbBlockEnd
  0
BLOCK
  5
16C
100
AcDbEntity
  8
0
100
AcDbBlockBegin
  2
*D6
 70
         1
 10
0.0
 20
0.0
 30
0.0
  3

  1

  0
TEXT
  5
16D
100
AcDbEntity
  8
0
 62
         0
100
AcDbText
 10
3110.6087341867
 20
2582.2965053558
 30
0.0
 40
48.2934200287
  1
500
100
AcDbText
  0
LINE
  5
16E
100
AcDbEntity
  8
0
 62
         0
100
AcDbLine
 10
2903.7106166667
 20
2346.3226666667
 30
0.0
 11
2903.7106166667
 21
2628.8486972809
 31
0.0
  0
LINE
  5
16F
100
AcDbEntity
  8
0
 62
         0
100
AcDbLine
 10
3403.7101166667
 20
2346.3226666667
 30
0.0
 11
3403.7101166667
 21
2628.8486972809
 31
0.0
  0
LINE
  5
170
100
AcDbEntity
  8
0
 62
         0
100
AcDbLine
 10
2903.7106166667
 20
2602.18203125
 30
0.0
 11
3082.2008400522
 21
2602.18203125
 31
0.0
  0
LINE
  5
171
100
AcDbEntity
  8
0
 62
         0
100
AcDbLine
 10
3403.7101166667
 20
2602.18203125
 30
0.0
 11
3225.2198932812
 21
2602.18203125
 31
0.0
  0
LINE
  5
172
100
AcDbEntity
  8
0
 62
         0
100
AcDbLine
 10
2903.7106166667
 20
2602.18203125
 30
0.0
 11
3082.2008400522
 21
2602.18203125
 31
0.0
  0
LINE
  5
173
100
AcDbEntity
  8
0
 62
         0
100
AcDbLine
 10
3403.7101166667
 20
2602.18203125
 30
0.0
 11
3225.2198932812
 21
2602.18203125
 31
0.0
  0
LINE
  5
174
100
AcDbEntity
  8
0
 62
         0
100
AcDbLine
 10
3403.7101166667
 20
2602.18203125
 30
0.0
 11
3323.7101166667
 21
2602.18203125
 31
0.0
  0
LINE
  5
175
100
AcDbEntity
  8
0
 62
         0
100
AcDbLine
 10
3363.7101166667
 20
2592.18203125
 30
0.0
 11
3403.7101166667
 21
2602.18203125
 31
0.0
  0
LINE
  5
176
100
AcDbEntity
  8
0
 62
         0
100
AcDbLine
 10
3403.7101166667
 20
2602.18203125
 30
0.0
 11
3363.7101166667
 21
2612.18203125
 31
0.0
  0
LINE
  5
177
100
AcDbEntity
  8
0
 62
         0
100
AcDbLine
 10
2903.7106166667
 20
2602.18203125
 30
0.0
 11
2983.7106166667
 21
2602.18203125
 31
0.0
  0
LINE
  5
178
100
AcDbEntity
  8
0
 62
         0
100
AcDbLine
 10
2943.7106166667
 20
2612.18203125
 30
0.0
 11
2903.7106166667
 21
2602.18203125
 31
0.0
  0
LINE
  5
179
100
AcDbEntity
  8
0
 62
         0
100
AcDbLine
 10
2903.7106166667
 20
2602.18203125
 30
0.0
 11
2943.7106166667
 21
2592.18203125
 31
0.0
  0
ENDBLK
  5
17A
100
AcDbEntity
  8
0
100
AcDbBlockEnd
  0
BLOCK
  5
17E
100
AcDbEntity
  8
0
100
AcDbBlockBegin
  2
*D7
 70
         1
 10
0.0
 20
0.0
 30
0.0
  3

  1

  0
TEXT
  5
17F
100
AcDbEntity
  8
0
 62
         0
100
AcDbText
 10
1867.9344877796
 20
2169.3233697375
 30
0.0
 40
48.2934200287
  1
600
 50
90.0
100
AcDbText
  0
LINE
  5
180
100
AcDbEntity
  8
0
 62
         0
100
AcDbLine
 10
1537.0624811725
 20
2512.4250022175
 30
0.0
 11
1878.0489618854
 21
2512.4250022175
 31
0.0
  0
LINE
  5
181
100
AcDbEntity
  8
0
 62
         0
100
AcDbLine
 10
1537.0624811725
 20
1912.4250022175
 30
0.0
 11
1878.0489618854
 21
1912.4250022175
 31
0.0
  0
LINE
  5
182
100
AcDbEntity
  8
0
 62
         0
100
AcDbLine
 10
1848.0489618854
 20
2512.4250022175
 30
0.0
 11
1848.0489618854
 21
2283.934528832
 31
0.0
  0
LINE
  5
183
100
AcDbEntity
  8
0
 62
         0
100
AcDbLine
 10
1848.0489618854
 20
1912.4250022175
 30
0.0
 11
1848.0489618854
 21
2140.915475603
 31
0.0
  0
LINE
  5
184
100
AcDbEntity
  8
0
 62
         0
100
AcDbLine
 10
1848.0489618854
 20
2512.4250022175
 30
0.0
 11
1848.0489618854
 21
2283.934528832
 31
0.0
  0
LINE
  5
185
100
AcDbEntity
  8
0
 62
         0
100
AcDbLine
 10
1848.0489618854
 20
1912.4250022175
 30
0.0
 11
1848.0489618854
 21
2140.915475603
 31
0.0
  0
LINE
  5
186
100
AcDbEntity
  8
0
 62
         0
100
AcDbLine
 10
1848.0489618854
 20
1912.4250022175
 30
0.0
 11
1848.0489618854
 21
2002.4250022175
 31
0.0
  0
LINE
  5
187
100
AcDbEntity
  8
0
 62
         0
100
AcDbLine
 10
1836.7989618854
 20
1957.4250022175
 30
0.0
 11
1848.0489618854
 21
1912.4250022175
 31
0.0
  0
LINE
  5
188
100
AcDbEntity
  8
0
 62
         0
100
AcDbLine
 10
1848.0489618854
 20
1912.4250022175
 30
0.0
 11
1859.2989618854
 21
1957.4250022175
 31
0.0
  0
LINE
  5
189
100
AcDbEntity
  8
0
 62
         0
100
AcDbLine
 10
1848.0489618854
 20
2512.4250022175
 30
0.0
 11
1848.0489618854
 21
2422.4250022175
 31
0.0
  0
LINE
  5
18A
100
AcDbEntity
  8
0
 62
         0
100
AcDbLine
 10
1859.2989618854
 20
2467.4250022175
 30
0.0
 11
1848.0489618854
 21
2512.4250022175
 31
0.0
  0
LINE
  5
18B
100
AcDbEntity
  8
0
 62
         0
100
AcDbLine
 10
1848.0489618854
 20
2512.4250022175
 30
0.0
 11
1836.7989618854
 21
2467.4250022175
 31
0.0
  0
ENDBLK
  5
18C
100
AcDbEntity
  8
0
100
AcDbBlockEnd
  0
BLOCK
  5
18F
100
AcDbEntity
  8
0
100
AcDbBlockBegin
  2
*D8
 70
         1
 10
0.0
 20
0.0
 30
0.0
  3

  1

  0
TEXT
  5
190
100
AcDbEntity
  8
0
 62
         0
100
AcDbText
 10
702.9740827301
 20
2169.32344252
 30
0.0
 40
48.2934200287
  1
400
 50
90.0
100
AcDbText
  0
LINE
  5
191
100
AcDbEntity
  8
0
 62
         0
100
AcDbLine
 10
1026.0628
 20
2012.425325
 30
0.0
 11
653.0885568359
 21
2012.425325
 31
0.0
  0
LINE
  5
192
100
AcDbEntity
  8
0
 62
         0
100
AcDbLine
 10
1016.0628
 20
2412.424825
 30
0.0
 11
653.0885568359
 21
2412.424825
 31
0.0
  0
LINE
  5
193
100
AcDbEntity
  8
0
 62
         0
100
AcDbLine
 10
683.0885568359
 20
2012.425325
 30
0.0
 11
683.0885568359
 21
2140.9155483855
 31
0.0
  0
LINE
  5
194
100
AcDbEntity
  8
0
 62
         0
100
AcDbLine
 10
683.0885568359
 20
2412.424825
 30
0.0
 11
683.0885568359
 21
2283.9346016145
 31
0.0
  0
LINE
  5
195
100
AcDbEntity
  8
0
 62
         0
100
AcDbLine
 10
683.0885568359
 20
2012.425325
 30
0.0
 11
683.0885568359
 21
2140.9155483855
 31
0.0
  0
LINE
  5
196
100
AcDbEntity
  8
0
 62
         0
100
AcDbLine
 10
683.0885568359
 20
2412.424825
 30
0.0
 11
683.0885568359
 21
2283.9346016145
 31
0.0
  0
LINE
  5
197
100
AcDbEntity
  8
0
 62
         0
100
AcDbLine
 10
683.0885568359
 20
2412.424825
 30
0.0
 11
683.0885568359
 21
2322.424825
 31
0.0
  0
LINE
  5
198
100
AcDbEntity
  8
0
 62
         0
100
AcDbLine
 10
694.3385568359
 20
2367.424825
 30
0.0
 11
683.0885568359
 21
2412.424825
 31
0.0
  0
LINE
  5
199
100
AcDbEntity
  8
0
 62
         0
100
AcDbLine
 10
683.0885568359
 20
2412.424825
 30
0.0
 11
671.8385568359
 21
2367.424825
 31
0.0
  0
LINE
  5
19A
100
AcDbEntity
  8
0
 62
         0
100
AcDbLine
 10
683.0885568359
 20
2012.425325
 30
0.0
 11
683.0885568359
 21
2102.425325
 31
0.0
  0
LINE
  5
19B
100
AcDbEntity
  8
0
 62
         0
100
AcDbLine
 10
671.8385568359
 20
2057.425325
 30
0.0
 11
683.0885568359
 21
2012.425325
 31
0.0
  0
LINE
  5
19C
100
AcDbEntity
  8
0
 62
         0
100
AcDbLine
 10
683.0885568359
 20
2012.425325
 30
0.0
 11
694.3385568359
 21
2057.425325
 31
0.0
  0
ENDBLK
  5
19D
100
AcDbEntity
  8
0
100
AcDbBlockEnd
  0
BLOCK
  5
1A0
100
AcDbEntity
  8
0
100
AcDbBlockBegin
  2
*D9
 70
         1
 10
0.0
 20
0.0
 30
0.0
  3

  1

  0
TEXT
  5
1A1
100
AcDbEntity
  8
0
 62
         0
100
AcDbText
 10
1193.96091752
 20
1650.5905193206
 30
0.0
 40
48.2934200287
  1
400
100
AcDbText
  0
LINE
  5
1A2
100
AcDbEntity
  8
0
 62
         0
100
AcDbLine
 10
1437.0623
 20
1991.425325
 30
0.0
 11
1437.0623
 21
1640.4760452148
 31
0.0
  0
LINE
  5
1A3
100
AcDbEntity
  8
0
 62
         0
100
AcDbLine
 10
1037.0628
 20
1991.425325
 30
0.0
 11
1037.0628
 21
1640.4760452148
 31
0.0
  0
LINE
  5
1A4
100
AcDbEntity
  8
0
 62
         0
100
AcDbLine
 10
1437.0623
 20
1670.4760452148
 30
0.0
 11
1308.5720766145
 21
1670.4760452148
 31
0.0
  0
LINE
  5
1A5
100
AcDbEntity
  8
0
 62
         0
100
AcDbLine
 10
1037.0628
 20
1670.4760452148
 30
0.0
 11
1165.5530233855
 21
1670.4760452148
 31
0.0
  0
LINE
  5
1A6
100
AcDbEntity
  8
0
 62
         0
100
AcDbLine
 10
1437.0623
 20
1670.4760452148
 30
0.0
 11
1308.5720766145
 21
1670.4760452148
 31
0.0
  0
LINE
  5
1A7
100
AcDbEntity
  8
0
 62
         0
100
AcDbLine
 10
1037.0628
 20
1670.4760452148
 30
0.0
 11
1165.5530233855
 21
1670.4760452148
 31
0.0
  0
LINE
  5
1A8
100
AcDbEntity
  8
0
 62
         0
100
AcDbLine
 10
1037.0628
 20
1670.4760452148
 30
0.0
 11
1127.0628
 21
1670.4760452148
 31
0.0
  0
LINE
  5
1A9
100
AcDbEntity
  8
0
 62
         0
100
AcDbLine
 10
1082.0628
 20
1681.7260452148
 30
0.0
 11
1037.0628
 21
1670.4760452148
 31
0.0
  0
LINE
  5
1AA
100
AcDbEntity
  8
0
 62
         0
100
AcDbLine
 10
1037.0628
 20
1670.4760452148
 30
0.0
 11
1082.0628
 21
1659.2260452148
 31
0.0
  0
LINE
  5
1AB
100
AcDbEntity
  8
0
 62
         0
100
AcDbLine
 10
1437.0623
 20
1670.4760452148
 30
0.0
 11
1347.0623
 21
1670.4760452148
 31
0.0
  0
LINE
  5
1AC
100
AcDbEntity
  8
0
 62
         0
100
AcDbLine
 10
1392.0623
 20
1659.2260452148
 30
0.0
 11
1437.0623
 21
1670.4760452148
 31
0.0
  0
LINE
  5
1AD
100
AcDbEntity
  8
0
 62
         0
100
AcDbLine
 10
1437.0623
 20
1670.4760452148
 30
0.0
 11
1392.0623
 21
1681.7260452148
 31
0.0
  0
ENDBLK
  5
1AE
100
AcDbEntity
  8
0
100
AcDbBlockEnd
  0
BLOCK
  5
1B1
100
AcDbEntity
  8
0
100
AcDbBlockBegin
  2
*D10
 70
         1
 10
0.0
 20
0.0
 30
0.0
  3

  1

  0
TEXT
  5
1B2
100
AcDbEntity
  8
0
 62
         0
100
AcDbText
 10
2024.5678268708
 20
2169.32336752
 30
0.0
 40
48.2934200287
  1
800
 50
90.0
100
AcDbText
  0
LINE
  5
1B3
100
AcDbEntity
  8
0
 62
         0
100
AcDbLine
 10
1637.06255
 20
2612.425
 30
0.0
 11
2034.6823009766
 21
2612.425
 31
0.0
  0
LINE
  5
1B4
100
AcDbEntity
  8
0
 62
         0
100
AcDbLine
 10
1637.06255
 20
1812.425
 30
0.0
 11
2034.6823009766
 21
1812.425
 31
0.0
  0
LINE
  5
1B5
100
AcDbEntity
  8
0
 62
         0
100
AcDbLine
 10
2004.6823009766
 20
2612.425
 30
0.0
 11
2004.6823009766
 21
2283.9345266145
 31
0.0
  0
LINE
  5
1B6
100
AcDbEntity
  8
0
 62
         0
100
AcDbLine
 10
2004.6823009766
 20
1812.425
 30
0.0
 11
2004.6823009766
 21
2140.9154733855
 31
0.0
  0
LINE
  5
1B7
100
AcDbEntity
  8
0
 62
         0
100
AcDbLine
 10
2004.6823009766
 20
2612.425
 30
0.0
 11
2004.6823009766
 21
2283.9345266145
 31
0.0
  0
LINE
  5
1B8
100
AcDbEntity
  8
0
 62
         0
100
AcDbLine
 10
2004.6823009766
 20
1812.425
 30
0.0
 11
2004.6823009766
 21
2140.9154733855
 31
0.0
  0
LINE
  5
1B9
100
AcDbEntity
  8
0
 62
         0
100
AcDbLine
 10
2004.6823009766
 20
1812.425
 30
0.0
 11
2004.6823009766
 21
1902.425
 31
0.0
  0
LINE
  5
1BA
100
AcDbEntity
  8
0
 62
         0
100
AcDbLine
 10
1993.4323009766
 20
1857.425
 30
0.0
 11
2004.6823009766
 21
1812.425
 31
0.0
  0
LINE
  5
1BB
100
AcDbEntity
  8
0
 62
         0
100
AcDbLine
 10
2004.6823009766
 20
1812.425
 30
0.0
 11
2015.9323009766
 21
1857.425
 31
0.0
  0
LINE
  5
1BC
100
AcDbEntity
  8
0
 62
         0
100
AcDbLine
 10
2004.6823009766
 20
2612.425
 30
0.0
 11
2004.6823009766
 21
2522.425
 31
0.0
  0
LINE
  5
1BD
100
AcDbEntity
  8
0
 62
         0
100
AcDbLine
 10
2015.9323009766
 20
2567.425
 30
0.0
 11
2004.6823009766
 21
2612.425
 31
0.0
  0
LINE
  5
1BE
100
AcDbEntity
  8
0
 62
         0
100
AcDbLine
 10
2004.6823009766
 20
2612.425
 30
0.0
 11
1993.4323009766
 21
2567.425
 31
0.0
  0
ENDBLK
  5
1BF
100
AcDbEntity
  8
0
100
AcDbBlockEnd
  0
BLOCK
  5
1C2
100
AcDbEntity
  8
0
100
AcDbBlockBegin
  2
*D11
 70
         1
 10
0.0
 20
0.0
 30
0.0
  3

  1

  0
TEXT
  5
1C3
100
AcDbEntity
  8
0
 62
         0
100
AcDbText
 10
1193.96091752
 20
345.4009243011
 30
0.0
 40
48.2934200287
  1
800
100
AcDbText
  0
LINE
  5
1C4
100
AcDbEntity
  8
0
 62
         0
100
AcDbLine
 10
1637.06255
 20
637.675
 30
0.0
 11
1637.06255
 21
335.2864501953
 31
0.0
  0
LINE
  5
1C5
100
AcDbEntity
  8
0
 62
         0
100
AcDbLine
 10
837.06255
 20
637.675
 30
0.0
 11
837.06255
 21
335.2864501953
 31
0.0
  0
LINE
  5
1C6
100
AcDbEntity
  8
0
 62
         0
100
AcDbLine
 10
1637.06255
 20
365.2864501953
 30
0.0
 11
1308.5720766145
 21
365.2864501953
 31
0.0
  0
LINE
  5
1C7
100
AcDbEntity
  8
0
 62
         0
100
AcDbLine
 10
837.06255
 20
365.2864501953
 30
0.0
 11
1165.5530233855
 21
365.2864501953
 31
0.0
  0
LINE
  5
1C8
100
AcDbEntity
  8
0
 62
         0
100
AcDbLine
 10
1637.06255
 20
365.2864501953
 30
0.0
 11
1308.5720766145
 21
365.2864501953
 31
0.0
  0
LINE
  5
1C9
100
AcDbEntity
  8
0
 62
         0
100
AcDbLine
 10
837.06255
 20
365.2864501953
 30
0.0
 11
1165.5530233855
 21
365.2864501953
 31
0.0
  0
LINE
  5
1CA
100
AcDbEntity
  8
0
 62
         0
100
AcDbLine
 10
837.06255
 20
365.2864501953
 30
0.0
 11
927.06255
 21
365.2864501953
 31
0.0
  0
LINE
  5
1CB
100
AcDbEntity
  8
0
 62
         0
100
AcDbLine
 10
882.06255
 20
376.5364501953
 30
0.0
 11
837.06255
 21
365.2864501953
 31
0.0
  0
LINE
  5
1CC
100
AcDbEntity
  8
0
 62
         0
100
AcDbLine
 10
837.06255
 20
365.2864501953
 30
0.0
 11
882.06255
 21
354.0364501953
 31
0.0
  0
LINE
  5
1CD
100
AcDbEntity
  8
0
 62
         0
100
AcDbLine
 10
1637.06255
 20
365.2864501953
 30
0.0
 11
1547.06255
 21
365.2864501953
 31
0.0
  0
LINE
  5
1CE
100
AcDbEntity
  8
0
 62
         0
100
AcDbLine
 10
1592.06255
 20
354.0364501953
 30
0.0
 11
1637.06255
 21
365.2864501953
 31
0.0
  0
LINE
  5
1CF
100
AcDbEntity
  8
0
 62
         0
100
AcDbLine
 10
1637.06255
 20
365.2864501953
 30
0.0
 11
1592.06255
 21
376.5364501953
 31
0.0
  0
ENDBLK
  5
1D0
100
AcDbEntity
  8
0
100
AcDbBlockEnd
  0
BLOCK
  5
1D3
100
AcDbEntity
  8
0
100
AcDbBlockBegin
  2
*D12
 70
         1
 10
0.0
 20
0.0
 30
0.0
  3

  1

  0
TEXT
  5
1D4
100
AcDbEntity
  8
0
 62
         0
100
AcDbText
 10
1806.9480758942
 20
854.57336752
 30
0.0
 40
48.2934200287
  1
520
 50
90.0
100
AcDbText
  0
LINE
  5
1D5
100
AcDbEntity
  8
0
 62
         0
100
AcDbLine
 10
1537.06255
 20
1157.675
 30
0.0
 11
1817.06255
 21
1157.675
 31
0.0
  0
LINE
  5
1D6
100
AcDbEntity
  8
0
 62
         0
100
AcDbLine
 10
1637.06255
 20
637.675
 30
0.0
 11
1817.06255
 21
637.675
 31
0.0
  0
LINE
  5
1D7
100
AcDbEntity
  8
0
 62
         0
100
AcDbLine
 10
1787.06255
 20
1157.675
 30
0.0
 11
1787.06255
 21
969.1845266145
 31
0.0
  0
LINE
  5
1D8
100
AcDbEntity
  8
0
 62
         0
100
AcDbLine
 10
1787.06255
 20
637.675
 30
0.0
 11
1787.06255
 21
826.1654733855
 31
0.0
  0
LINE
  5
1D9
100
AcDbEntity
  8
0
 62
         0
100
AcDbLine
 10
1787.06255
 20
1157.675
 30
0.0
 11
1787.06255
 21
969.1845266145
 31
0.0
  0
LINE
  5
1DA
100
AcDbEntity
  8
0
 62
         0
100
AcDbLine
 10
1787.06255
 20
637.675
 30
0.0
 11
1787.06255
 21
826.1654733855
 31
0.0
  0
LINE
  5
1DB
100
AcDbEntity
  8
0
 62
         0
100
AcDbLine
 10
1787.06255
 20
637.675
 30
0.0
 11
1787.06255
 21
727.675
 31
0.0
  0
LINE
  5
1DC
100
AcDbEntity
  8
0
 62
         0
100
AcDbLine
 10
1775.81255
 20
682.675
 30
0.0
 11
1787.06255
 21
637.675
 31
0.0
  0
LINE
  5
1DD
100
AcDbEntity
  8
0
 62
         0
100
AcDbLine
 10
1787.06255
 20
637.675
 30
0.0
 11
1798.31255
 21
682.675
 31
0.0
  0
LINE
  5
1DE
100
AcDbEntity
  8
0
 62
         0
100
AcDbLine
 10
1787.06255
 20
1157.675
 30
0.0
 11
1787.06255
 21
1067.675
 31
0.0
  0
LINE
  5
1DF
100
AcDbEntity
  8
0
 62
         0
100
AcDbLine
 10
1798.31255
 20
1112.675
 30
0.0
 11
1787.06255
 21
1157.675
 31
0.0
  0
LINE
  5
1E0
100
AcDbEntity
  8
0
 62
         0
100
AcDbLine
 10
1787.06255
 20
1157.675
 30
0.0
 11
1775.81255
 21
1112.675
 31
0.0
  0
ENDBLK
  5
1E1
100
AcDbEntity
  8
0
100
AcDbBlockEnd
  0
BLOCK
  5
1E4
100
AcDbEntity
  8
0
100
AcDbBlockBegin
  2
*D13
 70
         1
 10
0.0
 20
0.0
 30
0.0
  3

  1

  0
TEXT
  5
1E5
100
AcDbEntity
  8
0
 62
         0
100
AcDbText
 10
675.7881173004
 20
885.7473272515
 30
0.0
 40
48.2934200287
  1
600
 50
90.0
100
AcDbText
  0
LINE
  5
1E6
100
AcDbEntity
  8
0
 62
         0
100
AcDbLine
 10
970.6189
 20
658.9140020833
 30
0.0
 11
625.9025914062
 21
658.9140020833
 31
0.0
  0
LINE
  5
1E7
100
AcDbEntity
  8
0
 62
         0
100
AcDbLine
 10
1026.0625
 20
1258.9138020833
 30
0.0
 11
625.9025914062
 21
1258.9138020833
 31
0.0
  0
LINE
  5
1E8
100
AcDbEntity
  8
0
 62
         0
100
AcDbLine
 10
655.9025914062
 20
658.9140020833
 30
0.0
 11
655.9025914062
 21
857.339433117
 31
0.0
  0
LINE
  5
1E9
100
AcDbEntity
  8
0
 62
         0
100
AcDbLine
 10
655.9025914062
 20
1258.9138020833
 30
0.0
 11
655.9025914062
 21
1000.358486346
 31
0.0
  0
LINE
  5
1EA
100
AcDbEntity
  8
0
 62
         0
100
AcDbLine
 10
655.9025914062
 20
658.9140020833
 30
0.0
 11
655.9025914062
 21
857.339433117
 31
0.0
  0
LINE
  5
1EB
100
AcDbEntity
  8
0
 62
         0
100
AcDbLine
 10
655.9025914062
 20
1258.9138020833
 30
0.0
 11
655.9025914062
 21
1000.358486346
 31
0.0
  0
LINE
  5
1EC
100
AcDbEntity
  8
0
 62
         0
100
AcDbLine
 10
655.9025914062
 20
1258.9138020833
 30
0.0
 11
655.9025914062
 21
1168.9138020833
 31
0.0
  0
LINE
  5
1ED
100
AcDbEntity
  8
0
 62
         0
100
AcDbLine
 10
667.1525914062
 20
1213.9138020833
 30
0.0
 11
655.9025914062
 21
1258.9138020833
 31
0.0
  0
LINE
  5
1EE
100
AcDbEntity
  8
0
 62
         0
100
AcDbLine
 10
655.9025914062
 20
1258.9138020833
 30
0.0
 11
644.6525914062
 21
1213.9138020833
 31
0.0
  0
LINE
  5
1EF
100
AcDbEntity
  8
0
 62
         0
100
AcDbLine
 10
655.9025914062
 20
658.9140020833
 30
0.0
 11
655.9025914062
 21
748.9140020833
 31
0.0
  0
LINE
  5
1F0
100
AcDbEntity
  8
0
 62
         0
100
AcDbLine
 10
644.6525914062
 20
703.9140020833
 30
0.0
 11
655.9025914062
 21
658.9140020833
 31
0.0
  0
LINE
  5
1F1
100
AcDbEntity
  8
0
 62
         0
100
AcDbLine
 10
655.9025914062
 20
658.9140020833
 30
0.0
 11
667.1525914062
 21
703.9140020833
 31
0.0
  0
ENDBLK
  5
1F2
100
AcDbEntity
  8
0
100
AcDbBlockEnd
  0
ENDSEC
  0
SECTION
  2
ENTITIES
  0
LINE
  5
28
100
AcDbEntity
  8
LAYER0
100
AcDbLine
 10
440.2315408963
 20
1621.314774987
 30
0.0
 11
440.2315408963
 21
1621.314774987
 31
0.0
  0
LINE
  5
29
100
AcDbEntity
  8
LAYER0
100
AcDbLine
 10
3119.8111779096
 20
128.1649267535
 30
0.0
 11
3262.5469243314
 21
128.165212225
 31
0.0
  0
LINE
  5
2B
100
AcDbEntity
  8
LAYER0_00000000
100
AcDbLine
 10
3144.7103166667
 20
2096.3228666667
 30
0.0
 11
3162.7103166667
 21
2096.3228666667
 31
0.0
  0
CIRCLE
  5
2C
100
AcDbEntity
  8
LAYER0_00000000
100
AcDbCircle
 10
3153.7103166667
 20
2096.3228666667
 30
0.0
 40
9.0
210
0.0
220
0.0
230
1.0
  0
LINE
  5
2D
100
AcDbEntity
  8
LAYER0_00000000
100
AcDbLine
 10
2903.7106166667
 20
1846.3231666667
 30
0.0
 11
3403.7101166667
 21
1846.3231666667
 31
0.0
  0
LINE
  5
2E
100
AcDbEntity
  8
LAYER0_00000000
100
AcDbLine
 10
3403.7101166667
 20
2346.3226666667
 30
0.0
 11
2903.7106166667
 21
2346.3226666667
 31
0.0
  0
LINE
  5
2F
100
AcDbEntity
  8
LAYER0_00000000
 62
         3
100
AcDbLine
 10
2879.3771166667
 20
2096.3228416667
 30
0.0
 11
3428.0435166667
 21
2096.3228916667
 31
0.0
  0
LINE
  5
30
100
AcDbEntity
  8
LAYER0_00000000
 62
         3
100
AcDbLine
 10
3153.7103416667
 20
1828.9896666667
 30
0.0
 11
3153.7102916667
 21
2363.6560666667
 31
0.0
  0
LINE
  5
31
100
AcDbEntity
  8
LAYER0_00000000
100
AcDbLine
 10
2903.7106166667
 20
2346.3226666667
 30
0.0
 11
2903.7106166667
 21
1846.3231666667
 31
0.0
  0
CIRCLE
  5
32
100
AcDbEntity
  8
LAYER0_00000000
100
AcDbCircle
 10
2953.7106166667
 20
1896.3231666667
 30
0.0
 40
11.0
210
0.0
220
0.0
230
1.0
  0
LINE
  5
34
100
AcDbEntity
  8
LAYER6
 62
         3
100
AcDbLine
 10
2953.7106166667
 20
1917.3230666667
 30
0.0
 11
2953.7106166667
 21
1875.3231666667
 31
0.0
  0
LINE
  5
35
100
AcDbEntity
  8
LAYER0_00000000
 62
         3
100
AcDbLine
 10
3259.3041166667
 20
2189.2723666667
 30
0.0
 11
3532.3969166667
 21
2088.6382666667
 31
0.0
  0
LINE
  5
36
100
AcDbEntity
  8
LAYER6
 62
         3
100
AcDbLine
 10
3253.7102166667
 20
2086.3228666667
 30
0.0
 11
3253.7102166667
 21
2106.3228666667
 31
0.0
  0
LINE
  5
37
100
AcDbEntity
  8
LAYER6
 62
         3
100
AcDbLine
 10
3253.7102166667
 20
2186.3227666667
 30
0.0
 11
3253.7102166667
 21
2206.3227666667
 31
0.0
  0
LINE
  5
38
100
AcDbEntity
  8
LAYER6
 62
         3
100
AcDbLine
 10
3263.7102166667
 20
2196.3227666667
 30
0.0
 11
3243.7103166667
 21
2196.3227666667
 31
0.0
  0
ARC
  5
39
100
AcDbEntity
  8
LAYER0_00000000
100
AcDbCircle
 10
3199.4103166667
 20
2050.6229666667
 30
0.0
 40
4.3
210
0.0
220
0.0
230
1.0
100
AcDbArc
 50
270.0
 51
0.0
  0
LINE
  5
3A
100
AcDbEntity
  8
LAYER0_00000000
100
AcDbLine
 10
3203.7103166667
 20
2142.0228666667
 30
0.0
 11
3203.7103166667
 21
2050.6229666667
 31
0.0
  0
LINE
  5
3B
100
AcDbEntity
  8
LAYER0_00000000
100
AcDbLine
 10
3203.7103166667
 20
2246.3227666667
 30
0.0
 11
3203.7103166667
 21
2141.5228666667
 31
0.0
  0
LINE
  5
3C
100
AcDbEntity
  8
LAYER0_00000000
100
AcDbLine
 10
3403.7101166667
 20
1846.3231666667
 30
0.0
 11
3403.7101166667
 21
2346.3226666667
 31
0.0
  0
LINE
  5
3D
100
AcDbEntity
  8
LAYER6
100
AcDbLine
 10
3353.7101166667
 20
1917.3230666667
 30
0.0
 11
3353.7101166667
 21
1875.3231666667
 31
0.0
  0
CIRCLE
  5
3E
100
AcDbEntity
  8
LAYER0_00000000
100
AcDbCircle
 10
3353.7101166667
 20
1896.3231666667
 30
0.0
 40
11.0
210
0.0
220
0.0
230
1.0
  0
LINE
  5
40
100
AcDbEntity
  8
LAYER2
 62
         3
100
AcDbLine
 10
3413.7101166667
 20
1940.8335666667
 30
0.0
 11
3533.0695166667
 21
1787.3661666667
 31
0.0
  0
LINE
  5
41
100
AcDbEntity
  8
LAYER0_00000000
 62
         3
100
AcDbLine
 10
3534.1597166667
 20
2398.4261666667
 30
0.0
 11
3905.1660333333
 21
2398.4261666667
 31
0.0
  0
LINE
  5
42
100
AcDbEntity
  8
LAYER2
 62
         3
100
AcDbLine
 10
3900.7563111111
 20
2295.4418089894
 30
0.0
 11
3536.3264166667
 21
2295.4418089894
 31
0.0
  0
LINE
  5
43
100
AcDbEntity
  8
LAYER0_00000000
100
AcDbLine
 10
3106.0104166667
 20
2142.0228666667
 30
0.0
 11
3106.0104166667
 21
2050.6229666667
 31
0.0
  0
LINE
  5
44
100
AcDbEntity
  8
LAYER0_00000000
100
AcDbLine
 10
3203.7103166667
 20
2050.8228666667
 30
0.0
 11
3203.7103166667
 21
1946.3230666667
 31
0.0
  0
LINE
  5
45
100
AcDbEntity
  8
LAYER0_00000000
100
AcDbLine
 10
3201.4103166667
 20
2142.0228666667
 30
0.0
 11
3201.4103166667
 21
2050.6229666667
 31
0.0
  0
CIRCLE
  5
46
100
AcDbEntity
  8
LAYER0_00000000
100
AcDbCircle
 10
3253.7102166667
 20
2096.3228666667
 30
0.0
 40
9.0
210
0.0
220
0.0
230
1.0
  0
LINE
  5
47
100
AcDbEntity
  8
LAYER0_00000000
 62
         3
100
AcDbLine
 10
3303.7102166667
 20
2197.2152464894
 30
0.0
 11
3327.17645
 21
2215.0074339894
 31
0.0
  0
LINE
  5
48
100
AcDbEntity
  8
LAYER0_00000000
100
AcDbLine
 10
3203.7103166667
 20
2246.3227666667
 30
0.0
 11
3303.7102166667
 21
2246.3227666667
 31
0.0
  0
LINE
  5
49
100
AcDbEntity
  8
LAYER0_00000000
100
AcDbLine
 10
3259.3041166667
 20
2189.2723666667
 30
0.0
 11
3286.5692166667
 21
2188.0344666667
 31
0.0
  0
LINE
  5
4A
100
AcDbEntity
  8
LAYER6
100
AcDbLine
 10
3243.7103166667
 20
2096.3228666667
 30
0.0
 11
3263.7102166667
 21
2096.3228666667
 31
0.0
  0
LINE
  5
4B
100
AcDbEntity
  8
LAYER0_00000000
100
AcDbLine
 10
3103.7104166667
 20
2142.0228666667
 30
0.0
 11
3103.7104166667
 21
2050.6229666667
 31
0.0
  0
LINE
  5
4C
100
AcDbEntity
  8
LAYER0_00000000
100
AcDbLine
 10
3003.7105166667
 20
2246.3227666667
 30
0.0
 11
3103.7104166667
 21
2246.3227666667
 31
0.0
  0
LINE
  5
4D
100
AcDbEntity
  8
LAYER0_00000000
100
AcDbLine
 10
3003.7105166667
 20
2246.3227666667
 30
0.0
 11
3003.7105166667
 21
1946.3230666667
 31
0.0
  0
LINE
  5
4E
100
AcDbEntity
  8
LAYER0_00000000
100
AcDbLine
 10
3093.7104166667
 20
2246.3227666667
 30
0.0
 11
3093.7104166667
 21
1946.3230666667
 31
0.0
  0
LINE
  5
4F
100
AcDbEntity
  8
LAYER0_00000000
 62
         3
100
AcDbLine
 10
3403.7101166667
 20
1958.1540666667
 30
0.0
 11
3411.3233166667
 21
1928.6668666667
 31
0.0
  0
LINE
  5
50
100
AcDbEntity
  8
LAYER0_00000000
 62
         3
100
AcDbLine
 10
3427.5968166667
 20
1938.0002666667
 30
0.0
 11
3403.7101166667
 21
1958.1540666667
 31
0.0
  0
CIRCLE
  5
51
100
AcDbEntity
  8
LAYER0_00000000
100
AcDbCircle
 10
3253.7102166667
 20
1996.3229666667
 30
0.0
 40
9.0
210
0.0
220
0.0
230
1.0
  0
LINE
  5
52
100
AcDbEntity
  8
LAYER6
100
AcDbLine
 10
3332.7102166667
 20
1896.3231666667
 30
0.0
 11
3374.7101166667
 21
1896.3231666667
 31
0.0
  0
LINE
  5
53
100
AcDbEntity
  8
LAYER0_00000000
100
AcDbLine
 10
3203.7103166667
 20
1946.3230666667
 30
0.0
 11
3303.7102166667
 21
1946.3230666667
 31
0.0
  0
LINE
  5
54
100
AcDbEntity
  8
LAYER0_00000000
 62
         3
100
AcDbLine
 10
3303.7102166667
 20
2197.2152464894
 30
0.0
 11
3332.9232166667
 21
2202.9203246144
 31
0.0
  0
LINE
  5
55
100
AcDbEntity
  8
LAYER6
 62
         3
100
AcDbLine
 10
3353.7101166667
 20
2317.3226666667
 30
0.0
 11
3353.7101166667
 21
2275.3226666667
 31
0.0
  0
LINE
  5
56
100
AcDbEntity
  8
LAYER6
100
AcDbLine
 10
3063.7104166667
 20
2196.3227666667
 30
0.0
 11
3043.7105166667
 21
2196.3227666667
 31
0.0
  0
ARC
  5
57
100
AcDbEntity
  8
LAYER0_00000000
100
AcDbCircle
 10
3108.0104166667
 20
2142.0228666667
 30
0.0
 40
2.0
210
0.0
220
0.0
230
1.0
100
AcDbArc
 50
90.0
 51
180.0
  0
CIRCLE
  5
58
100
AcDbEntity
  8
LAYER0_00000000
 62
         3
100
AcDbCircle
 10
3053.7105166667
 20
2196.3227666667
 30
0.0
 40
9.0
210
0.0
220
0.0
230
1.0
  0
ARC
  5
59
100
AcDbEntity
  8
LAYER0_00000000
100
AcDbCircle
 10
3108.0104166667
 20
2142.0228666667
 30
0.0
 40
4.3
210
0.0
220
0.0
230
1.0
100
AcDbArc
 50
90.0
 51
180.0
  0
LINE
  5
5A
100
AcDbEntity
  8
LAYER6
100
AcDbLine
 10
3043.7105166667
 20
2096.3228666667
 30
0.0
 11
3063.7104166667
 21
2096.3228666667
 31
0.0
  0
LINE
  5
5B
100
AcDbEntity
  8
LAYER6
 62
         3
100
AcDbLine
 10
2932.7106166667
 20
1896.3231666667
 30
0.0
 11
2974.7105166667
 21
1896.3231666667
 31
0.0
  0
LINE
  5
5C
100
AcDbEntity
  8
LAYER6
 62
         3
100
AcDbLine
 10
3043.7105166667
 20
1996.3229666667
 30
0.0
 11
3063.7104166667
 21
1996.3229666667
 31
0.0
  0
LINE
  5
5D
100
AcDbEntity
  8
LAYER6
 62
         3
100
AcDbLine
 10
3053.7105166667
 20
1986.3230666667
 30
0.0
 11
3053.7105166667
 21
2006.3229666667
 31
0.0
  0
LINE
  5
5E
100
AcDbEntity
  8
LAYER0_00000000
100
AcDbLine
 10
3003.7105166667
 20
1946.3230666667
 30
0.0
 11
3103.7104166667
 21
1946.3230666667
 31
0.0
  0
CIRCLE
  5
5F
100
AcDbEntity
  8
LAYER0_00000000
100
AcDbCircle
 10
3053.7105166667
 20
1996.3229666667
 30
0.0
 40
9.0
210
0.0
220
0.0
230
1.0
  0
LINE
  5
60
100
AcDbEntity
  8
LAYER0_00000000
100
AcDbLine
 10
3108.0104166667
 20
2046.3229666667
 30
0.0
 11
3199.4103166667
 21
2046.3229666667
 31
0.0
  0
LINE
  5
61
100
AcDbEntity
  8
LAYER0_00000000
100
AcDbLine
 10
3108.0104166667
 20
2144.0228666667
 30
0.0
 11
3199.4103166667
 21
2144.0228666667
 31
0.0
  0
LINE
  5
62
100
AcDbEntity
  8
LAYER0_00000000
100
AcDbLine
 10
3108.0104166667
 20
2146.3228666667
 30
0.0
 11
3199.4103166667
 21
2146.3228666667
 31
0.0
  0
ARC
  5
63
100
AcDbEntity
  8
LAYER0_00000000
100
AcDbCircle
 10
3108.0104166667
 20
2050.6229666667
 30
0.0
 40
2.0
210
0.0
220
0.0
230
1.0
100
AcDbArc
 50
180.0
 51
270.0
  0
ARC
  5
64
100
AcDbEntity
  8
LAYER0_00000000
100
AcDbCircle
 10
3108.0104166667
 20
2050.6229666667
 30
0.0
 40
4.3
210
0.0
220
0.0
230
1.0
100
AcDbArc
 50
180.0
 51
270.0
  0
LINE
  5
65
100
AcDbEntity
  8
LAYER0_00000000
100
AcDbLine
 10
3108.0104166667
 20
2048.6229666667
 30
0.0
 11
3199.4103166667
 21
2048.6229666667
 31
0.0
  0
LINE
  5
66
100
AcDbEntity
  8
LAYER0_00000000
 62
         3
100
AcDbLine
 10
3361.3264166667
 20
2304.2594666667
 30
0.0
 11
3390.5394166667
 21
2312.8868666667
 31
0.0
  0
LINE
  5
67
100
AcDbEntity
  8
LAYER0_00000000
 62
         3
100
AcDbLine
 10
3361.3264166667
 20
2304.2594666667
 30
0.0
 11
3534.1597166667
 21
2398.4261666667
 31
0.0
  0
LINE
  5
68
100
AcDbEntity
  8
LAYER0_00000000
100
AcDbLine
 10
2870.0236216713
 20
584.9158896455
 30
0.0
 11
2870.0236216713
 21
520.6848037557
 31
0.0
  0
LINE
  5
6A
100
AcDbEntity
  8
LAYER4
100
AcDbLine
 10
4233.2975173939
 20
128.1669964219
 30
0.0
 11
3590.8391411017
 21
128.165783168
 31
0.0
  0
LINE
  5
6B
100
AcDbEntity
  8
LAYER0_00000000
100
AcDbLine
 10
2820.0661104237
 20
327.9942580654
 30
0.0
 11
4233.15
 21
327.9942580654
 31
0.0
  0
LINE
  5
6C
100
AcDbEntity
  8
LAYER4
100
AcDbLine
 10
4233.15
 20
520.6875157349
 30
0.0
 11
2820.0661104237
 21
520.6848751236
 31
0.0
  0
LINE
  5
6D
100
AcDbEntity
  8
LAYER0_00000000
100
AcDbLine
 10
3119.8111779096
 20
327.9942580654
 30
0.0
 11
3119.8111779096
 21
520.6848037557
 31
0.0
  0
LINE
  5
6E
100
AcDbEntity
  8
LAYER0_00000000
100
AcDbLine
 10
2748.6982372127
 20
392.2253439552
 30
0.0
 11
3119.8111779096
 21
392.2253439552
 31
0.0
  0
LINE
  5
6F
100
AcDbEntity
  8
LAYER0_00000000
100
AcDbLine
 10
3119.8111779096
 20
456.4564298451
 30
0.0
 11
2748.6982372127
 21
456.4564298451
 31
0.0
  0
LINE
  5
70
100
AcDbEntity
  8
LAYER0_00000000
100
AcDbLine
 10
3103.7104166667
 20
2246.3227666667
 30
0.0
 11
3103.7104166667
 21
2143.9228666667
 31
0.0
  0
LINE
  5
71
100
AcDbEntity
  8
LAYER0_00000000
100
AcDbLine
 10
3153.7103166667
 20
2087.3228666667
 30
0.0
 11
3153.7103166667
 21
2105.3228666667
 31
0.0
  0
ARC
  5
72
100
AcDbEntity
  8
LAYER0_00000000
100
AcDbCircle
 10
3199.4103166667
 20
2142.0228666667
 30
0.0
 40
4.3
210
0.0
220
0.0
230
1.0
100
AcDbArc
 50
0.0
 51
90.0
  0
CIRCLE
  5
73
100
AcDbEntity
  8
LAYER0_00000000
100
AcDbCircle
 10
3053.7105166667
 20
2096.3228666667
 30
0.0
 40
9.0
210
0.0
220
0.0
230
1.0
  0
LINE
  5
74
100
AcDbEntity
  8
LAYER6
 62
         3
100
AcDbLine
 10
3053.7105166667
 20
2186.3227666667
 30
0.0
 11
3053.7105166667
 21
2206.3227666667
 31
0.0
  0
LINE
  5
75
100
AcDbEntity
  8
LAYER6
 62
         3
100
AcDbLine
 10
3053.7105166667
 20
2086.3228666667
 30
0.0
 11
3053.7105166667
 21
2106.3228666667
 31
0.0
  0
CIRCLE
  5
76
100
AcDbEntity
  8
LAYER0_00000000
100
AcDbCircle
 10
2953.7106166667
 20
2296.3226666667
 30
0.0
 40
11.0
210
0.0
220
0.0
230
1.0
  0
LINE
  5
77
100
AcDbEntity
  8
LAYER6
 62
         3
100
AcDbLine
 10
2932.7106166667
 20
2296.3226666667
 30
0.0
 11
2974.7105166667
 21
2296.3226666667
 31
0.0
  0
LINE
  5
78
100
AcDbEntity
  8
LAYER6
 62
         3
100
AcDbLine
 10
2953.7106166667
 20
2317.3226666667
 30
0.0
 11
2953.7106166667
 21
2275.3226666667
 31
0.0
  0
ARC
  5
79
100
AcDbEntity
  8
LAYER0_00000000
100
AcDbCircle
 10
3199.4103166667
 20
2142.0228666667
 30
0.0
 40
2.0
210
0.0
220
0.0
230
1.0
100
AcDbArc
 50
0.0
 51
90.0
  0
LINE
  5
7A
100
AcDbEntity
  8
LAYER2
 62
         3
100
AcDbLine
 10
3772.8743666667
 20
1787.3661666667
 30
0.0
 11
3533.0695166667
 21
1787.3661666667
 31
0.0
  0
LINE
  5
7B
100
AcDbEntity
  8
LAYER0_00000000
 62
         3
100
AcDbLine
 10
3303.7102166667
 20
2197.2152464894
 30
0.0
 11
3534.1597166667
 21
2295.4418089894
 31
0.0
  0
LINE
  5
7C
100
AcDbEntity
  8
LAYER0_00000000
100
AcDbLine
 10
3213.7103166667
 20
2246.3227666667
 30
0.0
 11
3213.7103166667
 21
1946.3230666667
 31
0.0
  0
ARC
  5
7D
100
AcDbEntity
  8
LAYER0_00000000
100
AcDbCircle
 10
3199.4103166667
 20
2050.6229666667
 30
0.0
 40
2.0
210
0.0
220
0.0
230
1.0
100
AcDbArc
 50
270.0
 51
0.0
  0
LINE
  5
7E
100
AcDbEntity
  8
LAYER0_00000000
 62
         3
100
AcDbLine
 10
3532.3969166667
 20
2088.6382666667
 30
0.0
 11
3841.0535333333
 21
2088.6382666667
 31
0.0
  0
LINE
  5
7F
100
AcDbEntity
  8
LAYER0_00000000
100
AcDbLine
 10
3259.3041166667
 20
2189.2723666667
 30
0.0
 11
3281.0197166667
 21
2173.5307666667
 31
0.0
  0
LINE
  5
80
100
AcDbEntity
  8
LAYER6
 62
         3
100
AcDbLine
 10
3253.7102166667
 20
1986.3230666667
 30
0.0
 11
3253.7102166667
 21
2006.3229666667
 31
0.0
  0
LINE
  5
81
100
AcDbEntity
  8
LAYER6
 62
         3
100
AcDbLine
 10
3243.7103166667
 20
1996.3229666667
 30
0.0
 11
3263.7102166667
 21
1996.3229666667
 31
0.0
  0
LINE
  5
82
100
AcDbEntity
  8
LAYER6
 62
         3
100
AcDbLine
 10
1137.0627
 20
2302.424925
 30
0.0
 11
1137.0627
 21
2322.424925
 31
0.0
  0
CIRCLE
  5
83
100
AcDbEntity
  8
LAYER0_00000000
100
AcDbCircle
 10
1137.0627
 20
2212.425025
 30
0.0
 40
9.0
210
0.0
220
0.0
230
1.0
  0
LINE
  5
84
100
AcDbEntity
  8
LAYER6
 62
         3
100
AcDbLine
 10
1416.0624
 20
2412.424825
 30
0.0
 11
1458.0623
 21
2412.424825
 31
0.0
  0
CIRCLE
  5
85
100
AcDbEntity
  8
LAYER0_00000000
100
AcDbCircle
 10
1137.0627
 20
2112.425125
 30
0.0
 40
9.0
210
0.0
220
0.0
230
1.0
  0
LINE
  5
86
100
AcDbEntity
  8
LAYER6
 62
         3
100
AcDbLine
 10
1137.0627
 20
2102.425225
 30
0.0
 11
1137.0627
 21
2122.425125
 31
0.0
  0
LINE
  5
87
100
AcDbEntity
  8
LAYER6
 62
         3
100
AcDbLine
 10
1127.0627
 20
2112.425125
 30
0.0
 11
1147.0626
 21
2112.425125
 31
0.0
  0
LINE
  5
88
100
AcDbEntity
  8
LAYER6
 62
         3
100
AcDbLine
 10
1016.0628
 20
2012.425325
 30
0.0
 11
1058.0627
 21
2012.425325
 31
0.0
  0
CIRCLE
  5
89
100
AcDbEntity
  8
LAYER0_00000000
100
AcDbCircle
 10
3353.7101166667
 20
2296.3226666667
 30
0.0
 40
11.0
210
0.0
220
0.0
230
1.0
  0
LINE
  5
8A
100
AcDbEntity
  8
LAYER0_00000000
100
AcDbLine
 10
3119.8111779096
 20
424.3408869001
 30
0.0
 11
3531.1550957021
 21
424.3408869001
 31
0.0
  0
LINE
  5
8B
100
AcDbEntity
  8
LAYER4
100
AcDbLine
 10
3590.8391411017
 20
128.165783168
 30
0.0
 11
3262.5469243314
 21
128.165212225
 31
0.0
  0
LINE
  5
8C
100
AcDbEntity
  8
LAYER4
100
AcDbLine
 10
2748.6982372127
 20
317.2863651046
 30
0.0
 11
2748.6982372127
 21
422.9108174567
 31
0.0
  0
LINE
  5
8D
100
AcDbEntity
  8
LAYER4
100
AcDbLine
 10
2820.0661104237
 20
520.6848751236
 30
0.0
 11
2748.6982372127
 21
520.6848037557
 31
0.0
  0
LINE
  5
8E
100
AcDbEntity
  8
LAYER4
100
AcDbLine
 10
2820.0661104237
 20
520.6848751236
 30
0.0
 11
2748.6982372127
 21
520.6848037557
 31
0.0
  0
LINE
  5
8F
100
AcDbEntity
  8
LAYER4
100
AcDbLine
 10
4233.1498666358
 20
592.0553889457
 30
0.0
 11
2748.6982372127
 21
592.0553889457
 31
0.0
  0
LINE
  5
90
100
AcDbEntity
  8
LAYER4
100
AcDbLine
 10
90.9917410004
 20
-14.56875
 30
0.0
 11
4233.15
 21
-14.56875
 31
0.0
  0
LINE
  5
91
100
AcDbEntity
  8
LAYER0_00000000
100
AcDbLine
 10
3862.0370593032
 20
584.9158896455
 30
0.0
 11
3862.0370593032
 21
520.686873424
 31
0.0
  0
LINE
  5
92
100
AcDbEntity
  8
LAYER4
100
AcDbLine
 10
4233.15
 20
-14.56875
 30
0.0
 11
4233.15
 21
2920.7140983009
 31
0.0
  0
LINE
  5
93
100
AcDbEntity
  8
LAYER0_00000000
100
AcDbLine
 10
3490.9241186064
 20
592.054675267
 30
0.0
 11
3490.9241186064
 21
520.6861597453
 31
0.0
  0
LINE
  5
94
100
AcDbEntity
  8
LAYER0_00000000
100
AcDbLine
 10
3490.9241186064
 20
584.9158896455
 30
0.0
 11
3490.9241186064
 21
520.6861597453
 31
0.0
  0
LINE
  5
95
100
AcDbEntity
  8
LAYER0_00000000
100
AcDbLine
 10
3103.7104166667
 20
2050.8228666667
 30
0.0
 11
3103.7104166667
 21
1946.3230666667
 31
0.0
  0
LINE
  5
96
100
AcDbEntity
  8
LAYER6
 62
         3
100
AcDbLine
 10
3332.7102166667
 20
2296.3226666667
 30
0.0
 11
3374.7101166667
 21
2296.3226666667
 31
0.0
  0
LINE
  5
97
100
AcDbEntity
  8
LAYER0_00000000
 62
         3
100
AcDbLine
 10
3361.3264166667
 20
2304.2594666667
 30
0.0
 11
3382.9132166667
 21
2325.1349666667
 31
0.0
  0
LINE
  5
98
100
AcDbEntity
  8
LAYER0_00000000
100
AcDbLine
 10
2748.6982372127
 20
584.9158896455
 30
0.0
 11
2748.6982372127
 21
520.6848037557
 31
0.0
  0
LINE
  5
99
100
AcDbEntity
  8
LAYER0_00000000
100
AcDbLine
 10
2748.6982372127
 20
592.0533192774
 30
0.0
 11
2748.6982372127
 21
520.6848037557
 31
0.0
  0
LINE
  5
9A
100
AcDbEntity
  8
LAYER0_00000000
100
AcDbLine
 10
2870.0236216713
 20
592.053533381
 30
0.0
 11
2870.0236216713
 21
520.6850178593
 31
0.0
  0
LINE
  5
9C
100
AcDbEntity
  8
ﾚｲﾔｰ1
100
AcDbLine
 10
1537.0624811725
 20
1912.4250022175
 30
0.0
 11
1637.06255
 21
1812.425
 31
0.0
  0
LINE
  5
9D
100
AcDbEntity
  8
ﾚｲﾔｰ1
100
AcDbLine
 10
937.0624811725
 20
1912.4250022175
 30
0.0
 11
837.06255
 21
1812.425
 31
0.0
  0
CIRCLE
  5
9E
100
AcDbEntity
  8
LAYER0_00000000
100
AcDbCircle
 10
1337.0624
 20
2212.425025
 30
0.0
 40
9.0
210
0.0
220
0.0
230
1.0
  0
CIRCLE
  5
9F
100
AcDbEntity
  8
LAYER0_00000000
100
AcDbCircle
 10
1437.0623
 20
2012.425325
 30
0.0
 40
11.0
210
0.0
220
0.0
230
1.0
  0
LINE
  5
A0
100
AcDbEntity
  8
LAYER6
100
AcDbLine
 10
1437.0623
 20
2033.425225
 30
0.0
 11
1437.0623
 21
1991.425325
 31
0.0
  0
LINE
  5
A1
100
AcDbEntity
  8
LAYER0_00000000
100
AcDbLine
 10
1487.0623
 20
1962.425325
 30
0.0
 11
1487.0623
 21
2462.424825
 31
0.0
  0
LINE
  5
A2
100
AcDbEntity
  8
LAYER6
 62
         3
100
AcDbLine
 10
1037.0628
 20
2033.425225
 30
0.0
 11
1037.0628
 21
1991.425325
 31
0.0
  0
CIRCLE
  5
A3
100
AcDbEntity
  8
LAYER0_00000000
100
AcDbCircle
 10
1037.0628
 20
2012.425325
 30
0.0
 40
11.0
210
0.0
220
0.0
230
1.0
  0
LINE
  5
A4
100
AcDbEntity
  8
LAYER0_00000000
100
AcDbLine
 10
987.0628
 20
2462.424825
 30
0.0
 11
987.0628
 21
1962.425325
 31
0.0
  0
LINE
  5
A5
100
AcDbEntity
  8
LAYER0_00000000
100
AcDbLine
 10
1487.0623
 20
2462.424825
 30
0.0
 11
987.0628
 21
2462.424825
 31
0.0
  0
LINE
  5
A6
100
AcDbEntity
  8
LAYER4
100
AcDbLine
 10
3119.8111779096
 20
128.1649267535
 30
0.0
 11
2748.6982372127
 21
128.1642130748
 31
0.0
  0
LINE
  5
A7
100
AcDbEntity
  8
LAYER0_00000000
100
AcDbLine
 10
3505.1976932485
 20
-14.56875
 30
0.0
 11
3505.1976932485
 21
128.1669964219
 31
0.0
  0
LINE
  5
A8
100
AcDbEntity
  8
LAYER4
100
AcDbLine
 10
3433.8298200376
 20
128.1669964219
 30
0.0
 11
3433.8298200376
 21
-14.56875
 31
0.0
  0
LINE
  5
A9
100
AcDbEntity
  8
LAYER0_00000000
100
AcDbLine
 10
3531.1550957021
 20
327.9942580654
 30
0.0
 11
3531.1550957021
 21
520.6848037557
 31
0.0
  0
LINE
  5
AA
100
AcDbEntity
  8
LAYER4
100
AcDbLine
 10
2748.6982372127
 20
430.0476047778
 30
0.0
 11
2748.6982372127
 21
520.6848037557
 31
0.0
  0
LINE
  5
AB
100
AcDbEntity
  8
LAYER4
100
AcDbLine
 10
2820.0661104237
 20
327.9942580654
 30
0.0
 11
2820.0661104237
 21
128.1642130748
 31
0.0
  0
LINE
  5
AC
100
AcDbEntity
  8
LAYER4
100
AcDbLine
 10
2870.0236216713
 20
519.9711250236
 30
0.0
 11
2870.0236216713
 21
327.2806507012
 31
0.0
  0
LINE
  5
AD
100
AcDbEntity
  8
LAYER0_00000000
100
AcDbLine
 10
2820.0661104237
 20
327.9942580654
 30
0.0
 11
2748.6982372127
 21
327.9942580654
 31
0.0
  0
LINE
  5
AE
100
AcDbEntity
  8
LAYER0_00000000
100
AcDbLine
 10
3303.7102166667
 20
2246.3227666667
 30
0.0
 11
3303.7102166667
 21
1946.3230666667
 31
0.0
  0
CIRCLE
  5
AF
100
AcDbEntity
  8
LAYER0_00000000
100
AcDbCircle
 10
3253.7102166667
 20
2196.3227666667
 30
0.0
 40
9.0
210
0.0
220
0.0
230
1.0
  0
LINE
  5
B0
100
AcDbEntity
  8
LAYER0_00000000
 62
         3
100
AcDbLine
 10
3403.7101166667
 20
1958.1540666667
 30
0.0
 11
3413.7101166667
 21
1940.8335666667
 31
0.0
  0
LINE
  5
B1
100
AcDbEntity
  8
LAYER4
100
AcDbLine
 10
2748.6982372127
 20
422.9108174567
 30
0.0
 11
2748.6982372127
 21
430.0476047778
 31
0.0
  0
LINE
  5
B2
100
AcDbEntity
  8
LAYER0_00000000
100
AcDbLine
 10
3262.5469243314
 20
520.6848037557
 30
0.0
 11
3262.5469243314
 21
327.9942580654
 31
0.0
  0
LINE
  5
B3
100
AcDbEntity
  8
LAYER4
100
AcDbLine
 10
90.9917410004
 20
2920.7140983009
 30
0.0
 11
90.9917410004
 21
-14.56875
 31
0.0
  0
LINE
  5
B4
100
AcDbEntity
  8
LAYER4
100
AcDbLine
 10
4233.15
 20
2920.7140983009
 30
0.0
 11
90.9917410004
 21
2920.7140983009
 31
0.0
  0
LINE
  5
B5
100
AcDbEntity
  8
LAYER6
 62
         3
100
AcDbLine
 10
1137.0627
 20
2202.425025
 30
0.0
 11
1137.0627
 21
2222.425025
 31
0.0
  0
LINE
  5
B6
100
AcDbEntity
  8
LAYER0_00000000
100
AcDbLine
 10
987.0625
 20
1213.9138020833
 30
0.0
 11
1487.0626
 21
1213.9138020833
 31
0.0
  0
LINE
  5
B7
100
AcDbEntity
  8
LAYER0_00000000
100
AcDbLine
 10
987.0625
 20
1201.9138020833
 30
0.0
 11
987.0625
 21
1213.9138020833
 31
0.0
  0
LINE
  5
B8
100
AcDbEntity
  8
LAYER0_00000000
100
AcDbLine
 10
1048.0624
 20
691.9140020833
 30
0.0
 11
1048.0624
 21
1201.9138020833
 31
0.0
  0
LINE
  5
B9
100
AcDbEntity
  8
LAYER0_00000000
100
AcDbLine
 10
1026.0625
 20
1228.9138020833
 30
0.0
 11
1026.0625
 21
1258.9138020833
 31
0.0
  0
LINE
  5
BA
100
AcDbEntity
  8
LAYER0_00000000
100
AcDbLine
 10
1026.0625
 20
691.9140020833
 30
0.0
 11
1026.0625
 21
1201.9138020833
 31
0.0
  0
LINE
  5
BB
100
AcDbEntity
  8
LAYER0_00000000
100
AcDbLine
 10
1459.0624
 20
1228.9138020833
 30
0.0
 11
1415.0626
 21
1228.9138020833
 31
0.0
  0
LINE
  5
BD
100
AcDbEntity
  8
LAYER5
  6
BORDER
 62
         3
100
AcDbLine
 10
1037.0626
 20
691.9140020833
 30
0.0
 11
1037.0626
 21
1278.9139020833
 31
0.0
  0
LINE
  5
BE
100
AcDbEntity
  8
LAYER0_00000000
100
AcDbLine
 10
1048.0624
 20
1228.9138020833
 30
0.0
 11
1048.0624
 21
1258.9138020833
 31
0.0
  0
LINE
  5
BF
100
AcDbEntity
  8
LAYER0_00000000
100
AcDbLine
 10
1059.0625
 20
1213.9138020833
 30
0.0
 11
1059.0625
 21
1228.9138020833
 31
0.0
  0
LINE
  5
C0
100
AcDbEntity
  8
LAYER6
100
AcDbLine
 10
1127.0627
 20
2212.425025
 30
0.0
 11
1147.0626
 21
2212.425025
 31
0.0
  0
CIRCLE
  5
C1
100
AcDbEntity
  8
LAYER0_00000000
 62
         3
100
AcDbCircle
 10
1137.0627
 20
2312.424925
 30
0.0
 40
9.0
210
0.0
220
0.0
230
1.0
  0
LINE
  5
C2
100
AcDbEntity
  8
LAYER6
100
AcDbLine
 10
1147.0626
 20
2312.424925
 30
0.0
 11
1127.0627
 21
2312.424925
 31
0.0
  0
LINE
  5
C3
100
AcDbEntity
  8
ﾚｲﾔｰ1
100
AcDbLine
 10
837.06255
 20
1812.425
 30
0.0
 11
837.06255
 21
2612.425
 31
0.0
  0
LINE
  5
C4
100
AcDbEntity
  8
ﾚｲﾔｰ1
100
AcDbLine
 10
1637.06255
 20
1812.425
 30
0.0
 11
837.06255
 21
1812.425
 31
0.0
  0
LINE
  5
C5
100
AcDbEntity
  8
ﾚｲﾔｰ1
100
AcDbLine
 10
1637.06255
 20
2612.425
 30
0.0
 11
1637.06255
 21
1812.425
 31
0.0
  0
LINE
  5
C6
100
AcDbEntity
  8
ﾚｲﾔｰ1
100
AcDbLine
 10
837.06255
 20
2612.425
 30
0.0
 11
1637.06255
 21
2612.425
 31
0.0
  0
LINE
  5
C7
100
AcDbEntity
  8
LAYER0_00000000
 62
         3
100
AcDbLine
 10
1237.0625607314
 20
1775.2102786686
 30
0.0
 11
1237.0624663645
 21
2649.6397713314
 31
0.0
  0
LINE
  5
C8
100
AcDbEntity
  8
LAYER0_00000000
100
AcDbLine
 10
3747.8484621657
 20
584.9158896455
 30
0.0
 11
3747.8484621657
 21
520.6866593204
 31
0.0
  0
LINE
  5
C9
100
AcDbEntity
  8
LAYER0_00000000
100
AcDbLine
 10
3747.8484621657
 20
592.0551748421
 30
0.0
 11
3747.8484621657
 21
520.6866593204
 31
0.0
  0
LINE
  5
CA
100
AcDbEntity
  8
LAYER0_00000000
100
AcDbLine
 10
3862.0370593032
 20
592.0553889457
 30
0.0
 11
3862.0370593032
 21
520.686873424
 31
0.0
  0
LINE
  5
CB
100
AcDbEntity
  8
ﾚｲﾔｰ1
100
AcDbLine
 10
937.0624811725
 20
1912.4250022175
 30
0.0
 11
1537.0624811725
 21
1912.4250022175
 31
0.0
  0
LINE
  5
CC
100
AcDbEntity
  8
ﾚｲﾔｰ1
100
AcDbLine
 10
1537.0624811725
 20
2512.4250022175
 30
0.0
 11
937.0624811725
 21
2512.4250022175
 31
0.0
  0
LINE
  5
CD
100
AcDbEntity
  8
ﾚｲﾔｰ1
100
AcDbLine
 10
937.0624811725
 20
2512.4250022175
 30
0.0
 11
837.06255
 21
2612.425
 31
0.0
  0
LINE
  5
CE
100
AcDbEntity
  8
ﾚｲﾔｰ1
100
AcDbLine
 10
1537.0624811725
 20
2512.4250022175
 30
0.0
 11
1637.06255
 21
2612.425
 31
0.0
  0
LINE
  5
CF
100
AcDbEntity
  8
LAYER0_00000000
100
AcDbLine
 10
1503.5062
 20
658.9140020833
 30
0.0
 11
1459.0624
 21
658.9140020833
 31
0.0
  0
LINE
  5
D0
100
AcDbEntity
  8
LAYER0_00000000
100
AcDbLine
 10
970.6189
 20
680.9139020833
 30
0.0
 11
1015.0624
 21
680.9139020833
 31
0.0
  0
ARC
  5
D1
100
AcDbEntity
  8
LAYER0_00000000
100
AcDbCircle
 10
1015.0624
 20
691.9140020833
 30
0.0
 40
33.0
210
0.0
220
0.0
230
1.0
100
AcDbArc
 50
270.0
 51
0.0
  0
ARC
  5
D2
100
AcDbEntity
  8
LAYER0_00000000
100
AcDbCircle
 10
1015.0624
 20
691.9140020833
 30
0.0
 40
11.0001
210
0.0
220
0.0
230
1.0
100
AcDbArc
 50
270.0
 51
0.0
  0
ARC
  5
D3
100
AcDbEntity
  8
LAYER0_00000000
100
AcDbCircle
 10
1459.0624
 20
691.9140020833
 30
0.0
 40
33.0
210
0.0
220
0.0
230
1.0
100
AcDbArc
 50
180.0
 51
270.0
  0
ARC
  5
D4
100
AcDbEntity
  8
LAYER0_00000000
100
AcDbCircle
 10
1459.0624
 20
691.9140020833
 30
0.0
 40
11.0001
210
0.0
220
0.0
230
1.0
100
AcDbArc
 50
180.0
 51
270.0
  0
LINE
  5
D5
100
AcDbEntity
  8
LAYER5
  6
BORDER
 62
         3
100
AcDbLine
 10
1015.0624
 20
669.9138020833
 30
0.0
 11
950.6188
 21
669.9138020833
 31
0.0
  0
ARC
  5
D6
100
AcDbEntity
  8
LAYER5
  6
BORDER
 62
         3
100
AcDbCircle
 10
1015.0624
 20
691.9140020833
 30
0.0
 40
21.9999
210
0.0
220
0.0
230
1.0
100
AcDbArc
 50
270.0
 51
0.0
  0
LINE
  5
D7
100
AcDbEntity
  8
LAYER0_00000000
100
AcDbLine
 10
970.6189
 20
658.9140020833
 30
0.0
 11
1015.0624
 21
658.9140020833
 31
0.0
  0
LINE
  5
D8
100
AcDbEntity
  8
LAYER0_00000000
100
AcDbLine
 10
970.6189
 20
658.9140020833
 30
0.0
 11
970.6189
 21
680.9139020833
 31
0.0
  0
LINE
  5
D9
100
AcDbEntity
  8
LAYER0_00000000
100
AcDbLine
 10
987.0628
 20
1962.425325
 30
0.0
 11
1487.0623
 21
1962.425325
 31
0.0
  0
LINE
  5
DA
100
AcDbEntity
  8
LAYER6
 62
         3
100
AcDbLine
 10
1347.0624
 20
2312.424925
 30
0.0
 11
1327.0625
 21
2312.424925
 31
0.0
  0
LINE
  5
DB
100
AcDbEntity
  8
LAYER6
 62
         3
100
AcDbLine
 10
1337.0624
 20
2302.424925
 30
0.0
 11
1337.0624
 21
2322.424925
 31
0.0
  0
LINE
  5
DC
100
AcDbEntity
  8
LAYER6
 62
         3
100
AcDbLine
 10
1337.0624
 20
2202.425025
 30
0.0
 11
1337.0624
 21
2222.425025
 31
0.0
  0
CIRCLE
  5
DD
100
AcDbEntity
  8
LAYER0_00000000
100
AcDbCircle
 10
1437.0623
 20
2412.424825
 30
0.0
 40
11.0
210
0.0
220
0.0
230
1.0
  0
LINE
  5
DE
100
AcDbEntity
  8
LAYER6
 62
         3
100
AcDbLine
 10
1437.0623
 20
2433.424825
 30
0.0
 11
1437.0623
 21
2391.424825
 31
0.0
  0
LINE
  5
DF
100
AcDbEntity
  8
LAYER6
100
AcDbLine
 10
1416.0624
 20
2012.425325
 30
0.0
 11
1458.0623
 21
2012.425325
 31
0.0
  0
CIRCLE
  5
E0
100
AcDbEntity
  8
LAYER0_00000000
100
AcDbCircle
 10
1337.0624
 20
2112.425125
 30
0.0
 40
9.0
210
0.0
220
0.0
230
1.0
  0
LINE
  5
E1
100
AcDbEntity
  8
LAYER4
100
AcDbLine
 10
2855.036368297
 20
128.1669964219
 30
0.0
 11
2748.6982372127
 21
128.1669964219
 31
0.0
  0
LINE
  5
E2
100
AcDbEntity
  8
LAYER4
100
AcDbLine
 10
2748.6982372127
 20
-14.56875
 30
0.0
 11
2748.6982372127
 21
128.1669964219
 31
0.0
  0
LINE
  5
E3
100
AcDbEntity
  8
LAYER4
100
AcDbLine
 10
2748.6982372127
 20
128.1642130748
 30
0.0
 11
2748.6982372127
 21
327.9942580654
 31
0.0
  0
CIRCLE
  5
E4
100
AcDbEntity
  8
LAYER0_00000000
100
AcDbCircle
 10
1337.0624
 20
2312.424925
 30
0.0
 40
9.0
210
0.0
220
0.0
230
1.0
  0
LINE
  5
E5
100
AcDbEntity
  8
LAYER6
 62
         3
100
AcDbLine
 10
1037.0628
 20
2433.424825
 30
0.0
 11
1037.0628
 21
2391.424825
 31
0.0
  0
LINE
  5
E6
100
AcDbEntity
  8
LAYER6
 62
         3
100
AcDbLine
 10
1016.0628
 20
2412.424825
 30
0.0
 11
1058.0627
 21
2412.424825
 31
0.0
  0
CIRCLE
  5
E7
100
AcDbEntity
  8
LAYER0_00000000
100
AcDbCircle
 10
1037.0628
 20
2412.424825
 30
0.0
 40
11.0
210
0.0
220
0.0
230
1.0
  0
LINE
  5
E8
100
AcDbEntity
  8
LAYER0_00000000
100
AcDbLine
 10
1426.0624
 20
1101.9138020833
 30
0.0
 11
1048.0624
 21
1101.9138020833
 31
0.0
  0
LINE
  5
E9
100
AcDbEntity
  8
LAYER5
  6
BORDER
 62
         3
100
AcDbLine
 10
1437.0625
 20
791.9139020833
 30
0.0
 11
1037.0626
 21
791.9139020833
 31
0.0
  0
LINE
  5
EA
100
AcDbEntity
  8
LAYER5
  6
BORDER
 62
         3
100
AcDbLine
 10
1437.0625
 20
1112.9139020833
 30
0.0
 11
1037.0626
 21
1112.9139020833
 31
0.0
  0
LINE
  5
EB
100
AcDbEntity
  8
LAYER0_00000000
100
AcDbLine
 10
1048.0624
 20
1258.9138020833
 30
0.0
 11
1026.0622
 21
1258.9138020833
 31
0.0
  0
LINE
  5
EC
100
AcDbEntity
  8
LAYER0_00000000
100
AcDbLine
 10
1448.0626
 20
1258.9138020833
 30
0.0
 11
1426.0624
 21
1258.9138020833
 31
0.0
  0
LINE
  5
ED
100
AcDbEntity
  8
LAYER6
 62
         3
100
AcDbLine
 10
1327.0625
 20
2112.425125
 30
0.0
 11
1347.0624
 21
2112.425125
 31
0.0
  0
LINE
  5
EE
100
AcDbEntity
  8
LAYER6
100
AcDbLine
 10
1327.0625
 20
2212.425025
 30
0.0
 11
1347.0624
 21
2212.425025
 31
0.0
  0
LINE
  5
EF
100
AcDbEntity
  8
LAYER6
 62
         3
100
AcDbLine
 10
1337.0624
 20
2102.425225
 30
0.0
 11
1337.0624
 21
2122.425125
 31
0.0
  0
LINE
  5
F0
100
AcDbEntity
  8
LAYER5
  6
BORDER
 62
         3
100
AcDbLine
 10
1437.0625
 20
691.9140020833
 30
0.0
 11
1437.0625
 21
1278.9139020833
 31
0.0
  0
LINE
  5
F1
100
AcDbEntity
  8
LAYER0_00000000
100
AcDbLine
 10
1503.5062
 20
658.9140020833
 30
0.0
 11
1503.5062
 21
680.9139020833
 31
0.0
  0
LINE
  5
F2
100
AcDbEntity
  8
LAYER0_00000000
100
AcDbLine
 10
1015.0624
 20
1228.9138020833
 30
0.0
 11
1059.0625
 21
1228.9138020833
 31
0.0
  0
LINE
  5
F3
100
AcDbEntity
  8
LAYER0_00000000
100
AcDbLine
 10
1015.0624
 20
1213.9138020833
 30
0.0
 11
1015.0624
 21
1228.9138020833
 31
0.0
  0
LINE
  5
F4
100
AcDbEntity
  8
LAYER0_00000000
100
AcDbLine
 10
1426.0624
 20
691.9140020833
 30
0.0
 11
1426.0624
 21
1201.9138020833
 31
0.0
  0
LINE
  5
F5
100
AcDbEntity
  8
LAYER0_00000000
100
AcDbLine
 10
1448.0626
 20
1228.9138020833
 30
0.0
 11
1448.0626
 21
1258.9138020833
 31
0.0
  0
LINE
  5
F6
100
AcDbEntity
  8
LAYER0_00000000
100
AcDbLine
 10
1426.0624
 20
1228.9138020833
 30
0.0
 11
1426.0624
 21
1258.9138020833
 31
0.0
  0
LINE
  5
F7
100
AcDbEntity
  8
LAYER0_00000000
100
AcDbLine
 10
1487.0626
 20
1201.9138020833
 30
0.0
 11
1487.0626
 21
1213.9138020833
 31
0.0
  0
LINE
  5
F8
100
AcDbEntity
  8
LAYER0_00000000
100
AcDbLine
 10
1459.0624
 20
1213.9138020833
 30
0.0
 11
1459.0624
 21
1228.9138020833
 31
0.0
  0
LINE
  5
F9
100
AcDbEntity
  8
LAYER5
  6
BORDER
 62
         3
100
AcDbLine
 10
1237.06255
 20
578.9705729167
 30
0.0
 11
1237.06255
 21
1329.31494375
 31
0.0
  0
LINE
  5
FA
100
AcDbEntity
  8
LAYER0_00000000
 62
         3
100
AcDbLine
 10
771.1947902952
 20
2212.4249825454
 30
0.0
 11
1706.1000004128
 21
2212.4250677434
 31
0.0
  0
LINE
  5
FB
100
AcDbEntity
  8
ﾚｲﾔｰ1
100
AcDbLine
 10
1537.0624811725
 20
1912.4250022175
 30
0.0
 11
1537.0624811725
 21
2512.4250022175
 31
0.0
  0
LINE
  5
FC
100
AcDbEntity
  8
ﾚｲﾔｰ1
100
AcDbLine
 10
937.0624811725
 20
2512.4250022175
 30
0.0
 11
937.0624811725
 21
1912.4250022175
 31
0.0
  0
LINE
  5
FD
100
AcDbEntity
  8
LAYER0_00000000
100
AcDbLine
 10
837.06255
 20
637.675
 30
0.0
 11
1637.06255
 21
637.675
 31
0.0
  0
ARC
  5
FE
100
AcDbEntity
  8
LAYER5
  6
BORDER
 62
         3
100
AcDbCircle
 10
1459.0624
 20
691.9140020833
 30
0.0
 40
21.9999
210
0.0
220
0.0
230
1.0
100
AcDbArc
 50
180.0
 51
270.0
  0
LINE
  5
FF
100
AcDbEntity
  8
LAYER5
  6
BORDER
 62
         3
100
AcDbLine
 10
1459.0624
 20
669.9138020833
 30
0.0
 11
1523.506
 21
669.9138020833
 31
0.0
  0
LINE
  5
100
100
AcDbEntity
  8
LAYER0_00000000
100
AcDbLine
 10
1503.5062
 20
680.9139020833
 30
0.0
 11
1459.0624
 21
680.9139020833
 31
0.0
  0
MTEXT
  5
101
100
AcDbEntity
  8
LAYER4
100
AcDbMText
 10
2760.6902989036
 20
196.794789889
 30
0.0
 40
37.3047615051
 41
68.3315709364
 71
         1
 72
         1
  1
\W0.8;\fＭＳ Ｐゴシック;\W1.0;称
  0
MTEXT
  5
102
100
AcDbEntity
  8
LAYER0_00000000
100
AcDbMText
 10
2916.187257319
 20
580.8699206952
 30
0.0
 40
37.3047615051
 41
875.9199319934
 71
         1
 72
         1
  1
\W0.8;\fＭＳ Ｐゴシック;\W1.0;品　　　　　　　　　　名
  0
DIMENSION
  5
115
100
AcDbEntity
  8
寸法線
 62
         3
100
AcDbDimension
  2
*D0
 10
2953.7106166667
 20
2500.2513020833
 30
0.0
 11
3153.7103666667
 21
2500.2513020833
 31
0.0
 70
       128
210
0.0
220
0.0
230
1.0
  1
400
  3
VELDIM0
100
AcDbAlignedDimension
 13
2953.7106166667
 23
2317.3226666667
 33
0.0
 14
3353.7101166667
 24
2317.3226666667
 34
0.0
100
AcDbRotatedDimension
  0
DIMENSION
  5
126
100
AcDbEntity
  8
寸法線
 62
         3
100
AcDbDimension
  2
*D1
 10
3253.7102166667
 20
1569.5794270833
 30
0.0
 11
3153.7103666667
 21
1569.5794270833
 31
0.0
 70
       128
210
0.0
220
0.0
230
1.0
  1
200
  3
VELDIM0
100
AcDbAlignedDimension
 13
3253.7102166667
 23
1986.3230666667
 33
0.0
 14
3053.7105166667
 24
1986.3230666667
 34
0.0
100
AcDbRotatedDimension
  0
DIMENSION
  5
137
100
AcDbEntity
  8
寸法線
 62
         3
100
AcDbDimension
  2
*D2
 10
3203.7103166667
 20
1689.2372395833
 30
0.0
 11
3153.7103666667
 21
1689.2372395833
 31
0.0
 70
       128
210
0.0
220
0.0
230
1.0
  1
100
  3
VELDIM0
100
AcDbAlignedDimension
 13
3203.7103166667
 23
1946.3230666667
 33
0.0
 14
3103.7104166667
 24
1946.3230666667
 34
0.0
100
AcDbRotatedDimension
  0
DIMENSION
  5
148
100
AcDbEntity
  8
寸法線
 62
         3
100
AcDbDimension
  2
*D3
 10
2549.9619791667
 20
1846.3231666667
 30
0.0
 11
2549.9619791667
 21
2096.3229166667
 31
0.0
 70
       128
210
0.0
220
0.0
230
1.0
  1
500
  3
VELDIM0
100
AcDbAlignedDimension
 13
2903.7106166667
 23
1846.3231666667
 33
0.0
 14
2903.7106166667
 24
2346.3226666667
 34
0.0
 50
90.0
100
AcDbRotatedDimension
  0
DIMENSION
  5
159
100
AcDbEntity
  8
寸法線
 62
         3
100
AcDbDimension
  2
*D4
 10
2658.5403645833
 20
1896.3231666667
 30
0.0
 11
2658.5403645833
 21
2096.3229166667
 31
0.0
 70
       128
210
0.0
220
0.0
230
1.0
  1
400
  3
VELDIM0
100
AcDbAlignedDimension
 13
2932.7106166667
 23
1896.3231666667
 33
0.0
 14
2932.7106166667
 24
2296.3226666667
 34
0.0
 50
90.0
100
AcDbRotatedDimension
  0
DIMENSION
  5
16A
100
AcDbEntity
  8
寸法線
 62
         3
100
AcDbDimension
  2
*D5
 10
2762.6869791667
 20
1946.3230666667
 30
0.0
 11
2762.6869791667
 21
2096.3229166667
 31
0.0
 70
       128
210
0.0
220
0.0
230
1.0
  1
300
  3
VELDIM0
100
AcDbAlignedDimension
 13
3003.7105166667
 23
1946.3230666667
 33
0.0
 14
3003.7105166667
 24
2246.3227666667
 34
0.0
 50
90.0
100
AcDbRotatedDimension
  0
DIMENSION
  5
17B
100
AcDbEntity
  8
寸法線
 62
         3
100
AcDbDimension
  2
*D6
 10
2903.7106166667
 20
2602.18203125
 30
0.0
 11
3153.7103666667
 21
2602.18203125
 31
0.0
 70
       128
210
0.0
220
0.0
230
1.0
  1
500
  3
VELDIM0
100
AcDbAlignedDimension
 13
2903.7106166667
 23
2346.3226666667
 33
0.0
 14
3403.7101166667
 24
2346.3226666667
 34
0.0
100
AcDbRotatedDimension
  0
DIMENSION
  5
18D
100
AcDbEntity
  8
寸法線
 62
         3
100
AcDbDimension
  2
*D7
 10
1848.0489618854
 20
2512.4250022175
 30
0.0
 11
1848.0489618854
 21
2212.4250022175
 31
0.0
 70
       128
210
0.0
220
0.0
230
1.0
  1
<>
  3
VELDIM1
100
AcDbAlignedDimension
 13
1537.0624811725
 23
2512.4250022175
 33
0.0
 14
1537.0624811725
 24
1912.4250022175
 34
0.0
 50
90.0
100
AcDbRotatedDimension
  0
DIMENSION
  5
19E
100
AcDbEntity
  8
寸法線
 62
         3
100
AcDbDimension
  2
*D8
 10
683.0885568359
 20
2012.425325
 30
0.0
 11
683.0885568359
 21
2212.425075
 31
0.0
 70
       128
210
0.0
220
0.0
230
1.0
  1
<>
  3
VELDIM1
100
AcDbAlignedDimension
 13
1026.0628
 23
2012.425325
 33
0.0
 14
1016.0628
 24
2412.424825
 34
0.0
 50
90.0
100
AcDbRotatedDimension
  0
DIMENSION
  5
1AF
100
AcDbEntity
  8
寸法線
 62
         3
100
AcDbDimension
  2
*D9
 10
1437.0623
 20
1670.4760452148
 30
0.0
 11
1237.06255
 21
1670.4760452148
 31
0.0
 70
       128
210
0.0
220
0.0
230
1.0
  1
<>
  3
VELDIM1
100
AcDbAlignedDimension
 13
1437.0623
 23
1991.425325
 33
0.0
 14
1037.0628
 24
1991.425325
 34
0.0
100
AcDbRotatedDimension
  0
DIMENSION
  5
1C0
100
AcDbEntity
  8
寸法線
 62
         3
100
AcDbDimension
  2
*D10
 10
2004.6823009766
 20
2612.425
 30
0.0
 11
2004.6823009766
 21
2212.425
 31
0.0
 70
       128
210
0.0
220
0.0
230
1.0
  1
<>
  3
VELDIM1
100
AcDbAlignedDimension
 13
1637.06255
 23
2612.425
 33
0.0
 14
1637.06255
 24
1812.425
 34
0.0
 50
90.0
100
AcDbRotatedDimension
  0
DIMENSION
  5
1D1
100
AcDbEntity
  8
寸法線
 62
         3
100
AcDbDimension
  2
*D11
 10
1637.06255
 20
365.2864501953
 30
0.0
 11
1237.06255
 21
365.2864501953
 31
0.0
 70
       128
210
0.0
220
0.0
230
1.0
  1
<>
  3
VELDIM1
100
AcDbAlignedDimension
 13
1637.06255
 23
637.675
 33
0.0
 14
837.06255
 24
637.675
 34
0.0
100
AcDbRotatedDimension
  0
DIMENSION
  5
1E2
100
AcDbEntity
  8
寸法線
 62
         3
100
AcDbDimension
  2
*D12
 10
1787.06255
 20
1157.675
 30
0.0
 11
1787.06255
 21
897.675
 31
0.0
 70
       128
210
0.0
220
0.0
230
1.0
  1
<>
  3
VELDIM1
100
AcDbAlignedDimension
 13
1537.06255
 23
1157.675
 33
0.0
 14
1637.06255
 24
637.675
 34
0.0
 50
90.0
100
AcDbRotatedDimension
  0
DIMENSION
  5
1F3
100
AcDbEntity
  8
寸法線
 62
         3
100
AcDbDimension
  2
*D13
 10
655.9025914062
 20
658.9140020833
 30
0.0
 11
655.9025914062
 21
928.8489597315
 31
0.0
 70
       128
210
0.0
220
0.0
230
1.0
  1
<>
  3
VELDIM1
100
AcDbAlignedDimension
 13
970.6189
 23
658.9140020833
 33
0.0
 14
1026.0625
 24
1258.9138020833
 34
0.0
 50
90.0
100
AcDbRotatedDimension
  0
LINE
  5
1F4
100
AcDbEntity
  8
LAYER0_00000000
100
AcDbLine
 10
837.06255
 20
637.675
 30
0.0
 11
937.06255
 21
1157.675
 31
0.0
  0
LINE
  5
1F5
100
AcDbEntity
  8
LAYER0_00000000
100
AcDbLine
 10
1637.06255
 20
637.675
 30
0.0
 11
1537.06255
 21
1157.675
 31
0.0
  0
LINE
  5
1F6
100
AcDbEntity
  8
LAYER0_00000000
100
AcDbLine
 10
937.06255
 20
1157.675
 30
0.0
 11
1537.06255
 21
1157.675
 31
0.0
  0
LINE
  5
1F7
100
AcDbEntity
  8
LAYER0_00000000
100
AcDbLine
 10
987.0625
 20
1201.9138020833
 30
0.0
 11
1487.0626
 21
1201.9138020833
 31
0.0
  0
LINE
  5
1F8
100
AcDbEntity
  8
LAYER0_00000000
100
AcDbLine
 10
1448.0626
 20
691.9140020833
 30
0.0
 11
1448.0626
 21
1201.9138020833
 31
0.0
  0
LINE
  5
1F9
100
AcDbEntity
  8
LAYER0_00000000
100
AcDbLine
 10
1415.0626
 20
1213.9138020833
 30
0.0
 11
1415.0626
 21
1228.9138020833
 31
0.0
  0
LINE
  5
1FA
100
AcDbEntity
  8
LAYER0_00000000
100
AcDbLine
 10
1426.0624
 20
802.9140020833
 30
0.0
 11
1048.0624
 21
802.9140020833
 31
0.0
  0
LINE
  5
1FB
100
AcDbEntity
  8
LAYER0_00000000
100
AcDbLine
 10
1426.0624
 20
780.9138020833
 30
0.0
 11
1048.0624
 21
780.9138020833
 31
0.0
  0
LINE
  5
1FC
100
AcDbEntity
  8
LAYER0_00000000
100
AcDbLine
 10
1426.0624
 20
1123.9140020833
 30
0.0
 11
1048.0624
 21
1123.9140020833
 31
0.0
  0
MTEXT
  5
1FD
100
AcDbEntity
  8
LAYER2
100
AcDbMText
 10
3532.3969166667
 20
2154.4901160319
 30
0.0
 40
50.0820632935
 41
481.3234415139
 71
         1
 72
         1
  1
\W0.8;\fＭＳ Ｐゴシック;\W1.0;６－φ２２孔
  0
MTEXT
  5
1FE
100
AcDbEntity
  8
LAYER0_00000000
100
AcDbMText
 10
3558.0803453179
 20
105.8503661404
 30
0.0
 40
74.6095230103
 41
657.7760648614
 71
         1
 72
         1
  1
\W0.8;\fＭＳ Ｐゴシック;\W1.0;０1１２０１９
  0
MTEXT
  5
1FF
100
AcDbEntity
  8
LAYER4
100
AcDbMText
 10
2841.9822938385
 20
274.8216608902
 30
0.0
 40
58.0296268463
 41
1579.7690376477
 71
         1
 72
         1
  1
\W0.8;\fＭＳ Ｐゴシック;\W1.0;ＮＫパネルゲート用基礎ブロック
  0
MTEXT
  5
200
100
AcDbEntity
  8
LAYER0_00000000
100
AcDbMText
 10
3910.5672130866
 20
575.4180866946
 30
0.0
 40
37.3047615051
 41
426.615735693
 71
         1
 72
         1
  1
\W0.8;\fＭＳ Ｐゴシック;\W1.0;備　　　　考
  0
MTEXT
  5
201
100
AcDbEntity
  8
LAYER4
100
AcDbMText
 10
2725.5020655583
 20
94.9500909018
 30
0.0
 40
58.0296268463
 41
894.0811161871
 71
         1
 72
         1
  1
\W0.8;\fＭＳ Ｐゴシック;\W1.0;日本機電株式会社
  0
MTEXT
  5
202
100
AcDbEntity
  8
LAYER0_00000000
100
AcDbMText
 10
3446.7413363415
 20
46.8620216611
 30
0.0
 40
37.3047615051
 41
67.9564888714
 71
         1
 72
         1
  1
\W0.8;\fＭＳ Ｐゴシック;\W1.0;番
  0
MTEXT
  5
203
100
AcDbEntity
  8
LAYER0_00000000
100
AcDbMText
 10
3446.7413363415
 20
111.0931075509
 30
0.0
 40
37.3047615051
 41
67.9564888714
 71
         1
 72
         1
  1
\W0.8;\fＭＳ Ｐゴシック;\W1.0;図
  0
MTEXT
  5
204
100
AcDbEntity
  8
ﾚｲﾔｰ1
100
AcDbMText
 10
2953.3813996488
 20
1327.103898285
 30
0.0
 40
56.3423244476
 41
1234.0009190497
 71
         1
 72
         1
  1
\W0.8;\fＭＳ Ｐゴシック;\W1.0;基礎ブロックの大きさ
  0
MTEXT
  5
205
100
AcDbEntity
  8
ﾚｲﾔｰ1
100
AcDbMText
 10
2969.7359569223
 20
1114.618259956
 30
0.0
 40
56.3423244476
 41
1291.3354215971
 71
         1
 72
         1
  1
\W0.8;\fＭＳ Ｐゴシック;\W1.0;上面　　　□６００\P底面　　　□８００\P高さ　　　　Ｈ＝５２０\P質量　　　５３０ｋｇ
  0
MTEXT
  5
206
100
AcDbEntity
  8
LAYER2
100
AcDbMText
 10
3534.1597166667
 20
2464.2780160319
 30
0.0
 40
50.0820632935
 41
490.6558537917
 71
         1
 72
         1
  1
\W0.8;\fＭＳ Ｐゴシック;\W1.0;４－φ２５孔
  0
MTEXT
  5
207
100
AcDbEntity
  8
LAYER2
100
AcDbMText
 10
3536.3264166667
 20
2361.2936583547
 30
0.0
 40
50.0820632935
 41
522.7310708055
 71
         1
 72
         1
  1
\W0.8;\fＭＳ Ｐゴシック;\W1.0;Ｌ100x100x10
  0
MTEXT
  5
208
100
AcDbEntity
  8
LAYER2
100
AcDbMText
 10
3533.0695166667
 20
1853.2180160319
 30
0.0
 40
50.0820632935
 41
317.141914125
 71
         1
 72
         1
  1
\W0.8;\fＭＳ Ｐゴシック;\W1.0;ＰＬ１２ｔ
  0
MTEXT
  5
209
100
AcDbEntity
  8
LAYER0_00000000
100
AcDbMText
 10
3510.8957884251
 20
574.7044079625
 30
0.0
 40
37.3047615051
 41
403.8124615098
 71
         1
 72
         1
  1
\W0.8;\fＭＳ Ｐゴシック;\W1.0;材　　　質
  0
MTEXT
  5
20A
100
AcDbEntity
  8
LAYER0_00000000
100
AcDbMText
 10
3747.8484621657
 20
574.7044079625
 30
0.0
 40
37.3047615051
 41
187.126563559
 71
         1
 72
         1
  1
\W0.8;\fＭＳ Ｐゴシック;\W1.0;数量
  0
MTEXT
  5
20B
100
AcDbEntity
  8
LAYER4
100
AcDbMText
 10
3284.1645385985
 20
491.7906822521
 30
0.0
 40
37.3047615051
 41
326.6450117695
 71
         1
 72
         1
  1
\W0.8;\fＭＳ Ｐゴシック;\W1.0;2001. 1. 20
  0
MTEXT
  5
20C
100
AcDbEntity
  8
LAYER0_00000000
100
AcDbMText
 10
2760.8333181391
 20
573.8647649341
 30
0.0
 40
37.3047615051
 41
178.6570300569
 71
         1
 72
         1
  1
\W0.8;\fＭＳ Ｐゴシック;\W1.0;番号
  0
MTEXT
  5
20D
100
AcDbEntity
  8
LAYER4
100
AcDbMText
 10
4165.3748568944
 20
422.0795349671
 30
0.0
 40
37.3047615051
 41
76.7405396292
 71
         1
 72
         1
  1
\W0.8;\fＭＳ Ｐゴシック;\W1.0;殿
  0
MTEXT
  5
20E
100
AcDbEntity
  8
LAYER0_00000000
100
AcDbMText
 10
3288.8970716254
 20
393.0928369602
 30
0.0
 40
37.3047615051
 41
320.3862368414
 71
         1
 72
         1
  1
\W0.8;\fＭＳ Ｐゴシック;\W1.0;1/15
  0
MTEXT
  5
20F
100
AcDbEntity
  8
LAYER0_00000000
100
AcDbMText
 10
2904.4142175314
 20
392.2253439552
 30
0.0
 40
37.3047615051
 41
247.7065044349
 71
         1
 72
         1
  1
\W0.8;\fＭＳ Ｐゴシック;\W1.0;横　山
  0
MTEXT
  5
210
100
AcDbEntity
  8
LAYER0_00000000
100
AcDbMText
 10
3119.8111779096
 20
488.2159399909
 30
0.0
 40
28.2327825546
 41
218.8804589373
 71
         1
 72
         1
  1
\W0.8;\fＭＳ Ｐゴシック;\W1.0;作図月日
  0
MTEXT
  5
211
100
AcDbEntity
  8
LAYER0_00000000
100
AcDbMText
 10
3119.8111779096
 20
399.048219686
 30
0.0
 40
37.3047615051
 41
367.2174991252
 71
         1
 72
         1
  1
\W0.8;\fＭＳ Ｐゴシック;\W1.0;尺 度
  0
MTEXT
  5
212
100
AcDbEntity
  8
LAYER0_00000000
100
AcDbMText
 10
2759.8817702856
 20
378.461608037
 30
0.0
 40
37.3047615051
 41
145.6625984576
 71
         1
 72
         1
  1
\W0.8;\fＭＳ Ｐゴシック;\W1.0;作図
  0
MTEXT
  5
213
100
AcDbEntity
  8
LAYER0_00000000
100
AcDbMText
 10
2760.8333181391
 20
443.7132545138
 30
0.0
 40
37.3047615051
 41
144.4041764214
 71
         1
 72
         1
  1
\W0.8;\fＭＳ Ｐゴシック;\W1.0;検図
  0
MTEXT
  5
214
100
AcDbEntity
  8
LAYER0_00000000
100
AcDbMText
 10
2760.8333181391
 20
508.0418289184
 30
0.0
 40
37.3047615051
 41
144.4041764214
 71
         1
 72
         1
  1
\W0.8;\fＭＳ Ｐゴシック;\W1.0;承認
  0
MTEXT
  5
215
100
AcDbEntity
  8
LAYER4
100
AcDbMText
 10
2758.535916915
 20
305.8812264028
 30
0.0
 40
37.3047615051
 41
71.1807411163
 71
         1
 72
         1
  1
\W0.8;\fＭＳ Ｐゴシック;\W1.0;名
  0
ENDSEC
  0
SECTION
  2
OBJECTS
  0
DICTIONARY
  5
19
100
AcDbDictionary
  3
ACAD_GROUP
350
1A
  3
ACAD_MLINESTYLE
350
1B
  0
DICTIONARY
  5
1A
102
{ACAD_REACTORS
330
19
102
}
100
AcDbDictionary
  0
DICTIONARY
  5
1B
102
{ACAD_REACTORS
330
19
102
}
100
AcDbDictionary
  3
STANDARD
350
1C
  0
MLINESTYLE
  5
1C
102
{ACAD_REACTORS
330
1B
102
}
100
AcDbMlineStyle
  2
STANDARD
 70
         0
  3

 62
         0
 51
90.0
 52
90.0
 71
         2
 49
0.5
 62
       256
  6
BYLAYER
 49
-0.5
 62
       256
  6
BYLAYER
  0
ENDSEC
  0
EOF
