  0
SECTION
  2
HEADER
  9
$ACADVER
  1
AC1014
  9
$ACADMAINTVER
 70
         0
  9
$DWGCODEPAGE
  3
ANSI_932
  9
$INSBASE
 10
0.0
 20
0.0
 30
0.0
  9
$EXTMIN
 10
1.0000000000E+20
 20
1.0000000000E+20
 30
1.0000000000E+20
  9
$EXTMAX
 10
-1.0000000000E+20
 20
-1.0000000000E+20
 30
-1.0000000000E+20
  9
$LIMMIN
 10
0.0
 20
0.0
  9
$LIMMAX
 10
0.0
 20
0.0
  9
$ORTHOMODE
 70
         0
  9
$REGENMODE
 70
         1
  9
$FILLMODE
 70
         1
  9
$QTEXTMODE
 70
         0
  9
$MIRRTEXT
 70
         1
  9
$DRAGMODE
 70
         2
  9
$LTSCALE
 40
1.0
  9
$OSMODE
 70
         0
  9
$ATTMODE
 70
         1
  9
$TEXTSIZE
 40
0.2
  9
$TRACEWID
 40
0.05
  9
$TEXTSTYLE
  7
STANDARD
  9
$CLAYER
  8
0
  9
$CELTYPE
  6
CONTINUOUS
  9
$CECOLOR
 62
       256
  9
$CELTSCALE
 40
1.0
  9
$DELOBJ
 70
         1
  9
$DISPSILH
 70
         0
  9
$DIMSCALE
 40
1.0
  9
$DIMASZ
 40
0.18
  9
$DIMEXO
 40
0.0625
  9
$DIMDLI
 40
0.38
  9
$DIMRND
 40
0.0
  9
$DIMDLE
 40
0.0
  9
$DIMEXE
 40
0.18
  9
$DIMTP
 40
0.0
  9
$DIMTM
 40
0.0
  9
$DIMTXT
 40
0.18
  9
$DIMCEN
 40
0.09
  9
$DIMTSZ
 40
0.0
  9
$DIMTOL
 70
         0
  9
$DIMLIM
 70
         0
  9
$DIMTIH
 70
         1
  9
$DIMTOH
 70
         1
  9
$DIMSE1
 70
         0
  9
$DIMSE2
 70
         0
  9
$DIMTAD
 70
         0
  9
$DIMZIN
 70
         0
  9
$DIMBLK
  1

  9
$DIMASO
 70
         1
  9
$DIMSHO
 70
         1
  9
$DIMPOST
  1

  9
$DIMAPOST
  1

  9
$DIMALT
 70
         0
  9
$DIMALTD
 70
         2
  9
$DIMALTF
 40
25.4
  9
$DIMLFAC
 40
1.0
  9
$DIMTOFL
 70
         0
  9
$DIMTVP
 40
0.0
  9
$DIMTIX
 70
         0
  9
$DIMSOXD
 70
         0
  9
$DIMSAH
 70
         0
  9
$DIMBLK1
  1

  9
$DIMBLK2
  1

  9
$DIMSTYLE
  2
STANDARD
  9
$DIMCLRD
 70
         0
  9
$DIMCLRE
 70
         0
  9
$DIMCLRT
 70
         0
  9
$DIMTFAC
 40
1.0
  9
$DIMGAP
 40
0.09
  9
$DIMJUST
 70
         0
  9
$DIMSD1
 70
         0
  9
$DIMSD2
 70
         0
  9
$DIMTOLJ
 70
         1
  9
$DIMTZIN
 70
         0
  9
$DIMALTZ
 70
         0
  9
$DIMALTTZ
 70
         0
  9
$DIMFIT
 70
         3
  9
$DIMUPT
 70
         0
  9
$DIMUNIT
 70
         2
  9
$DIMDEC
 70
         4
  9
$DIMTDEC
 70
         4
  9
$DIMALTU
 70
         2
  9
$DIMALTTD
 70
         2
  9
$DIMTXSTY
  7
STANDARD
  9
$DIMAUNIT
 70
         0
  9
$LUNITS
 70
         2
  9
$LUPREC
 70
         4
  9
$SKETCHINC
 40
0.1
  9
$FILLETRAD
 40
0.0
  9
$AUNITS
 70
         0
  9
$AUPREC
 70
         0
  9
$MENU
  1
acad
  9
$ELEVATION
 40
0.0
  9
$PELEVATION
 40
0.0
  9
$THICKNESS
 40
0.0
  9
$LIMCHECK
 70
         0
  9
$BLIPMODE
 70
         1
  9
$CHAMFERA
 40
0.0
  9
$CHAMFERB
 40
0.0
  9
$CHAMFERC
 40
0.0
  9
$CHAMFERD
 40
0.0
  9
$SKPOLY
 70
         0
  9
$TDCREATE
 40
0.000000000
  9
$TDUPDATE
 40
0.000000000
  9
$TDINDWG
 40
0.0000000000
  9
$TDUSRTIMER
 40
0.0000000000
  9
$USRTIMER
 70
         1
  9
$ANGBASE
 50
0.0
  9
$ANGDIR
 70
         0
  9
$PDMODE
 70
         3
  9
$PDSIZE
 40
-1.0
  9
$PLINEWID
 40
0.0
  9
$COORDS
 70
         0
  9
$SPLFRAME
 70
         0
  9
$SPLINETYPE
 70
         6
  9
$SPLINESEGS
 70
         8
  9
$ATTDIA
 70
         0
  9
$ATTREQ
 70
         1
  9
$HANDLING
 70
         1
  9
$HANDSEED
  5
293
  9
$SURFTAB1
 70
         6
  9
$SURFTAB2
 70
         6
  9
$SURFTYPE
 70
         6
  9
$SURFU
 70
         6
  9
$SURFV
 70
         6
  9
$UCSNAME
  2

  9
$UCSORG
 10
0.0
 20
0.0
 30
0.0
  9
$UCSXDIR
 10
1.0
 20
0.0
 30
0.0
  9
$UCSYDIR
 10
0.0
 20
1.0
 30
0.0
  9
$PUCSNAME
  2

  9
$PUCSORG
 10
0.0
 20
0.0
 30
0.0
  9
$PUCSXDIR
 10
1.0
 20
0.0
 30
0.0
  9
$PUCSYDIR
 10
0.0
 20
1.0
 30
0.0
  9
$USERI1
 70
         0
  9
$USERI2
 70
         0
  9
$USERI3
 70
         0
  9
$USERI4
 70
         0
  9
$USERI5
 70
         0
  9
$USERR1
 40
0.0
  9
$USERR2
 40
0.0
  9
$USERR3
 40
0.0
  9
$USERR4
 40
0.0
  9
$USERR5
 40
0.0
  9
$WORLDVIEW
 70
         1
  9
$SHADEDGE
 70
         3
  9
$SHADEDIF
 70
        70
  9
$TILEMODE
 70
         1
  9
$MAXACTVP
 70
        16
  9
$PINSBASE
 10
0.0
 20
0.0
 30
0.0
  9
$PLIMCHECK
 70
         0
  9
$PEXTMIN
 10
1.0000000000E+20
 20
1.0000000000E+20
 30
1.0000000000E+20
  9
$PEXTMAX
 10
-1.0000000000E+20
 20
-1.0000000000E+20
 30
-1.0000000000E+20
  9
$PLIMMIN
 10
0.0
 20
0.0
  9
$PLIMMAX
 10
12.0
 20
9.0
  9
$UNITMODE
 70
         0
  9
$VISRETAIN
 70
         0
  9
$PLINEGEN
 70
         1
  9
$PSLTSCALE
 70
         0
  9
$TREEDEPTH
 70
      3020
  9
$PICKSTYLE
 70
         1
  9
$CMLSTYLE
  2
STANDARD
  9
$CMLJUST
 70
         0
  9
$CMLSCALE
 40
1.0
  9
$PROXYGRAPHICS
 70
         0
  9
$MEASUREMENT
 70
         0
  0
ENDSEC
  0
SECTION
  2
CLASSES
  0
CLASS
  1
LWPOLYLINE
  2
AcDbPolyline
  3
"AutoCAD"
 90
        0
280
         0
281
         1
  0
CLASS
  1
IMAGE
  2
AcDbRasterImage
  3
ISM
 90
      127
280
         0
281
         1
  0
CLASS
  1
OLE2FRAME
  2
AcDbOle2Frame
  3
""
 90
        0
280
         0
281
         1
  0
CLASS
  1
HATCH
  2
AcDbHatch
  3
"ACAD_SEDONA"
 90
        0
280
         0
281
         1
  0
CLASS
  1
DICTIONARYVAR
  2
AcDbDictionaryVar
  3
"AutoCAD"
 90
        0
280
         0
281
         0
  0
CLASS
  1
RASTERVARIABLES
  2
AcDbRasterVariables
  3
ISM
 90
        0
280
         0
281
         0
  0
CLASS
  1
IMAGEDEF
  2
AcDbRasterImageDef
  3
ISM
 90
        0
280
         0
281
         0
  0
CLASS
  1
IMAGEDEF_REACTOR
  2
AcDbRasterImageDefReactor
  3
ISM
 90
        1
280
         0
281
         0
  0
CLASS
  1
IDBUFFER
  2
AcDbIdBuffer
  3
"Acad"
 90
        0
280
         0
281
         0
  0
CLASS
  1
SPATIAL_FILTER
  2
AcDbSpatialFilter
  3
"Acad"
 90
        0
280
         0
281
         0
  0
CLASS
  1
XRECORD
  2
AcDbXrecord
  3
"<Built In>"
 90
        0
280
         0
281
         0
  0
CLASS
  1
SORTENTSTABLE
  2
AcDbSortentsTable
  3
"AutoCAD"
 90
        0
280
         0
281
         0
  0
CLASS
  1
LAYER_INDEX
  2
AcDbLayerIndex
  3
"Acad"
 90
        0
280
         0
281
         0
  0
CLASS
  1
SPATIAL_INDEX
  2
AcDbSpatialIndex
  3
"Acad"
 90
        0
280
         0
281
         0
  0
CLASS
  1
OBJECT_PTR
  2
CAseDLPNTableRecord
  3
"ASE-LPNTableRecord"
 90
        1
280
         0
281
         0
  0
CLASS
  1
LAYOUT
  2
AcDbLayout
  3
"AutoCAD 2000"
 90
        1
280
         0
281
         0
  0
CLASS
  1
PLOTSETTINGS
  2
AcDbPlotSettings
  3
"AutoCAD 2000"
 90
        1
280
         0
281
         0
  0
CLASS
  1
ACDBDICTIONARYWDFLT
  2
AcDbDictionaryWithDefault
  3
"AutoCAD 2000"
 90
        1
280
         0
281
         0
  0
CLASS
  1
ACDBPLACEHOLDER
  2
AcDbPlaceHolder
  3
"AutoCAD 2000"
 90
        1
280
         0
281
         0
  0
CLASS
  1
VBA_PROJECT
  2
AcDbVbaProject
  3
"acadvba"
 90
        1
280
         0
281
         0
  0
CLASS
  1
WIPEOUT
  2
AcDbWipeout
  3
WipeOut|AutoCAD Express Tool|expresstools@autodesk.com
 90
      127
280
         0
281
         1
  0
CLASS
  1
WIPEOUTVARIABLES
  2
AcDbWipeoutVariables
  3
WipeOut|AutoCAD Express Tool|expresstools@autodesk.com
 90
        0
280
         0
281
         0
  0
CLASS
  1
RTEXT
  2
RText
  3
RText|AutoCAD Express Tool|expresstools@autodesk.com
 90
        0
280
         0
281
         1
  0
CLASS
  1
ARCALIGNEDTEXT
  2
AcDbArcAlignedText
  3
ATEXT|AutoCAD Express Tool|expresstools@autodesk.com
 90
        0
280
         0
281
         1
  0
ENDSEC
  0
SECTION
  2
TABLES
  0
TABLE
  2
VPORT
  5
7
100
AcDbSymbolTable
 70
         1
  0
VPORT
  5
15
100
AcDbSymbolTableRecord
100
AcDbViewportTableRecord
  2
*ACTIVE
 70
         0
 10
0.0
 20
0.0
 11
1.0
 21
1.0
 12
6.591288
 22
4.579184
 13
0.0
 23
0.0
 14
1.0
 24
1.0
 15
0.0
 25
0.0
 16
0.0
 26
0.0
 36
1.0
 17
0.0
 27
0.0
 37
0.0
 40
9.158369
 41
0.688564
 42
50.0
 43
0.0
 44
0.0
 50
0.0
 51
0.0
 71
         0
 72
       100
 73
         1
 74
         1
 75
         0
 76
         0
 77
         0
 78
         0
  0
ENDTAB
  0
TABLE
  2
LTYPE
  5
4
100
AcDbSymbolTable
 70
        13
  0
LTYPE
  5
11
100
AcDbSymbolTableRecord
100
AcDbLinetypeTableRecord
  2
BYBLOCK
 70
        64
  3

 72
        65
 73
         0
 40
0.0
  0
LTYPE
  5
12
100
AcDbSymbolTableRecord
100
AcDbLinetypeTableRecord
  2
BYLAYER
 70
        64
  3

 72
        65
 73
         0
 40
0.0
  0
LTYPE
  5
13
100
AcDbSymbolTableRecord
100
AcDbLinetypeTableRecord
  2
CONTINUOUS
 70
        64
  3
Solid line
 72
        65
 73
         0
 40
0.0
  0
LTYPE
  5
1D
100
AcDbSymbolTableRecord
100
AcDbLinetypeTableRecord
  2
DOT
 70
        64
  3
. . . . . . . . 
 72
        65
 73
         2
 40
1.0
 49
0.0
 74
         0
 49
-1.0
 74
         0
  0
LTYPE
  5
1E
100
AcDbSymbolTableRecord
100
AcDbLinetypeTableRecord
  2
DASHED
 70
        64
  3
___  ___  ___  ___  
 72
        65
 73
         2
 40
4.0
 49
3.0
 74
         0
 49
-1.0
 74
         0
  0
LTYPE
  5
1F
100
AcDbSymbolTableRecord
100
AcDbLinetypeTableRecord
  2
HIDDEN
 70
        64
  3
__ __ __ __ 
 72
        65
 73
         2
 40
3.0
 49
2.0
 74
         0
 49
-1.0
 74
         0
  0
LTYPE
  5
20
100
AcDbSymbolTableRecord
100
AcDbLinetypeTableRecord
  2
STITCH
 70
        64
  3
_ _ _ _ 
 72
        65
 73
         2
 40
2.0
 49
1.0
 74
         0
 49
-1.0
 74
         0
  0
LTYPE
  5
21
100
AcDbSymbolTableRecord
100
AcDbLinetypeTableRecord
  2
CENTER
 70
        64
  3
______  __  ______  __  
 72
        65
 73
         4
 40
43.0
 49
40.0
 74
         0
 49
-1.0
 74
         0
 49
1.0
 74
         0
 49
-1.0
 74
         0
  0
LTYPE
  5
22
100
AcDbSymbolTableRecord
100
AcDbLinetypeTableRecord
  2
DASHDOT
 70
        64
  3
____ . ____ . 
 72
        65
 73
         4
 40
32.0
 49
30.0
 74
         0
 49
-1.0
 74
         0
 49
0.0
 74
         0
 49
-1.0
 74
         0
  0
LTYPE
  5
23
100
AcDbSymbolTableRecord
100
AcDbLinetypeTableRecord
  2
BORDER
 70
        64
  3
__ . __ . 
 72
        65
 73
         4
 40
22.0
 49
20.0
 74
         0
 49
-1.0
 74
         0
 49
0.0
 74
         0
 49
-1.0
 74
         0
  0
LTYPE
  5
24
100
AcDbSymbolTableRecord
100
AcDbLinetypeTableRecord
  2
CUTTING
 70
        64
  3
________   ___   ___   
 72
        65
 73
         6
 40
45.0
 49
40.0
 74
         0
 49
-1.0
 74
         0
 49
1.0
 74
         0
 49
-1.0
 74
         0
 49
1.0
 74
         0
 49
-1.0
 74
         0
  0
LTYPE
  5
25
100
AcDbSymbolTableRecord
100
AcDbLinetypeTableRecord
  2
PHANTOM
 70
        64
  3
______  __  __  
 72
        65
 73
         6
 40
35.0
 49
30.0
 74
         0
 49
-1.0
 74
         0
 49
1.0
 74
         0
 49
-1.0
 74
         0
 49
1.0
 74
         0
 49
-1.0
 74
         0
  0
LTYPE
  5
26
100
AcDbSymbolTableRecord
100
AcDbLinetypeTableRecord
  2
DIVIDE
 70
        64
  3
____ . . ____ . . 
 72
        65
 73
         6
 40
23.0
 49
20.0
 74
         0
 49
-1.0
 74
         0
 49
0.0
 74
         0
 49
-1.0
 74
         0
 49
0.0
 74
         0
 49
-1.0
 74
         0
  0
ENDTAB
  0
TABLE
  2
LAYER
  5
2
100
AcDbSymbolTable
 70
         3
  0
LAYER
  5
14
100
AcDbSymbolTableRecord
100
AcDbLayerTableRecord
  2
0
 70
         0
 62
         7
  6
CONTINUOUS
  0
LAYER
  5
27
100
AcDbSymbolTableRecord
100
AcDbLayerTableRecord
  2
ﾚｲﾔｰ1
 70
         0
 62
         7
  6
CONTINUOUS
  0
LAYER
  5
40
100
AcDbSymbolTableRecord
100
AcDbLayerTableRecord
  2
寸法線
 70
         0
 62
         7
  6
CONTINUOUS
  0
ENDTAB
  0
TABLE
  2
STYLE
  5
3
100
AcDbSymbolTable
 70
         1
  0
STYLE
  5
17
100
AcDbSymbolTableRecord
100
AcDbTextStyleTableRecord
  2
STANDARD
 70
         0
 40
0.0
 41
1.0
 50
0.0
 71
         0
 42
0.0
  3
txt
  4
extfont
  0
ENDTAB
  0
TABLE
  2
VIEW
  5
5
100
AcDbSymbolTable
 70
         0
  0
ENDTAB
  0
TABLE
  2
UCS
  5
6
100
AcDbSymbolTable
 70
         0
  0
ENDTAB
  0
TABLE
  2
APPID
  5
8
100
AcDbSymbolTable
 70
         1
  0
APPID
  5
16
100
AcDbSymbolTableRecord
100
AcDbRegAppTableRecord
  2
ACAD
 70
         0
  0
ENDTAB
  0
TABLE
  2
DIMSTYLE
  5
9
100
AcDbSymbolTable
 70
         3
  0
DIMSTYLE
105
18
100
AcDbSymbolTableRecord
100
AcDbDimStyleTableRecord
  2
STANDARD
 70
         0
  3

  4

  5

  6

  7

 40
1.0
 41
0.18
 42
0.0625
 43
0.38
 44
0.18
 45
0.0
 46
0.0
 47
0.0
 48
0.0
 71
         0
 72
         0
 73
         1
 74
         1
 75
         0
 76
         0
 77
         0
 78
         0
140
0.18
141
0.09
142
0.0
143
25.4
144
1.0
145
0.0
146
1.0
147
0.09
170
         0
171
         2
172
         0
173
         0
174
         0
175
         0
176
         0
177
         0
178
         0
270
         2
271
         4
272
         4
273
         2
274
         2
275
         0
280
         0
281
         0
282
         0
283
         1
284
         0
285
         0
286
         0
287
         0
288
         0
340
17
  0
DIMSTYLE
105
2F
100
AcDbSymbolTableRecord
100
AcDbDimStyleTableRecord
  2
VELDIM0
 70
         0
  3

  4

  5

  6

  7

 40
1.0
 41
6.0
 42
0.0625
 43
0.38
 44
4.0
 45
0.0
 46
10.0
 47
0.0
 48
0.0
 71
         0
 72
         0
 73
         0
 74
         0
 75
         0
 76
         0
 77
         0
 78
         8
140
5.3974999189
141
0.09
142
0.0
143
25.4
144
1.0
145
0.0
146
1.0
147
0.09
170
         0
171
         2
172
         0
173
         0
174
         0
175
         0
176
         0
177
         0
178
         0
270
         2
271
         3
272
         4
273
         2
274
         2
275
         0
280
         0
281
         0
282
         0
283
         1
284
         0
285
         0
286
         0
287
         3
288
         0
340
17
  0
DIMSTYLE
105
26D
100
AcDbSymbolTableRecord
100
AcDbDimStyleTableRecord
  2
VELDIM1
 70
         0
  3

  4

  5

  6

  7

 40
1.0
 41
6.0
 42
0.0625
 43
0.38
 44
1.25
 45
0.0
 46
5.0
 47
0.0
 48
0.0
 71
         0
 72
         0
 73
         0
 74
         0
 75
         0
 76
         0
 77
         0
 78
         8
140
5.3974999189
141
0.09
142
0.0
143
25.4
144
1.0
145
0.0
146
1.0
147
0.09
170
         0
171
         2
172
         0
173
         0
174
         0
175
         0
176
         0
177
         0
178
         0
270
         2
271
         3
272
         4
273
         2
274
         2
275
         0
280
         0
281
         0
282
         0
283
         1
284
         0
285
         0
286
         0
287
         3
288
         0
340
17
  0
ENDTAB
  0
TABLE
  2
BLOCK_RECORD
  5
1
100
AcDbSymbolTable
 70
        23
  0
BLOCK_RECORD
  5
A
100
AcDbSymbolTableRecord
100
AcDbBlockTableRecord
  2
*MODEL_SPACE
  0
BLOCK_RECORD
  5
B
100
AcDbSymbolTableRecord
100
AcDbBlockTableRecord
  2
*PAPER_SPACE
  0
BLOCK_RECORD
  5
30
100
AcDbSymbolTableRecord
100
AcDbBlockTableRecord
  2
*D0
  0
BLOCK_RECORD
  5
42
100
AcDbSymbolTableRecord
100
AcDbBlockTableRecord
  2
*D1
  0
BLOCK_RECORD
  5
53
100
AcDbSymbolTableRecord
100
AcDbBlockTableRecord
  2
*D2
  0
BLOCK_RECORD
  5
79
100
AcDbSymbolTableRecord
100
AcDbBlockTableRecord
  2
*D3
  0
BLOCK_RECORD
  5
94
100
AcDbSymbolTableRecord
100
AcDbBlockTableRecord
  2
*D4
  0
BLOCK_RECORD
  5
A5
100
AcDbSymbolTableRecord
100
AcDbBlockTableRecord
  2
*D5
  0
BLOCK_RECORD
  5
B6
100
AcDbSymbolTableRecord
100
AcDbBlockTableRecord
  2
*D6
  0
BLOCK_RECORD
  5
C7
100
AcDbSymbolTableRecord
100
AcDbBlockTableRecord
  2
*D7
  0
BLOCK_RECORD
  5
D8
100
AcDbSymbolTableRecord
100
AcDbBlockTableRecord
  2
*D8
  0
BLOCK_RECORD
  5
F3
100
AcDbSymbolTableRecord
100
AcDbBlockTableRecord
  2
*D9
  0
BLOCK_RECORD
  5
112
100
AcDbSymbolTableRecord
100
AcDbBlockTableRecord
  2
*D10
  0
BLOCK_RECORD
  5
154
100
AcDbSymbolTableRecord
100
AcDbBlockTableRecord
  2
*D11
  0
BLOCK_RECORD
  5
165
100
AcDbSymbolTableRecord
100
AcDbBlockTableRecord
  2
*D12
  0
BLOCK_RECORD
  5
176
100
AcDbSymbolTableRecord
100
AcDbBlockTableRecord
  2
*D13
  0
BLOCK_RECORD
  5
187
100
AcDbSymbolTableRecord
100
AcDbBlockTableRecord
  2
*D14
  0
BLOCK_RECORD
  5
1B2
100
AcDbSymbolTableRecord
100
AcDbBlockTableRecord
  2
*D15
  0
BLOCK_RECORD
  5
218
100
AcDbSymbolTableRecord
100
AcDbBlockTableRecord
  2
*D16
  0
BLOCK_RECORD
  5
229
100
AcDbSymbolTableRecord
100
AcDbBlockTableRecord
  2
*D17
  0
BLOCK_RECORD
  5
23A
100
AcDbSymbolTableRecord
100
AcDbBlockTableRecord
  2
*D18
  0
BLOCK_RECORD
  5
24B
100
AcDbSymbolTableRecord
100
AcDbBlockTableRecord
  2
*D19
  0
BLOCK_RECORD
  5
25C
100
AcDbSymbolTableRecord
100
AcDbBlockTableRecord
  2
*D20
  0
BLOCK_RECORD
  5
26E
100
AcDbSymbolTableRecord
100
AcDbBlockTableRecord
  2
*D21
  0
BLOCK_RECORD
  5
276
100
AcDbSymbolTableRecord
100
AcDbBlockTableRecord
  2
*D22
  0
ENDTAB
  0
ENDSEC
  0
SECTION
  2
BLOCKS
  0
BLOCK
  5
D
100
AcDbEntity
  8
0
100
AcDbBlockBegin
  2
*MODEL_SPACE
 70
         0
 10
0.0
 20
0.0
 30
0.0
  3
*MODEL_SPACE
  1

  0
ENDBLK
  5
E
100
AcDbEntity
  8
0
100
AcDbBlockEnd
  0
BLOCK
  5
F
100
AcDbEntity
 67
         1
  8
0
100
AcDbBlockBegin
  2
*PAPER_SPACE
 70
         0
 10
0.0
 20
0.0
 30
0.0
  3
*PAPER_SPACE
  1

  0
ENDBLK
  5
10
100
AcDbEntity
 67
         1
  8
0
100
AcDbBlockEnd
  0
BLOCK
  5
31
100
AcDbEntity
  8
0
100
AcDbBlockBegin
  2
*D0
 70
         1
 10
0.0
 20
0.0
 30
0.0
  3

  1

  0
TEXT
  5
32
100
AcDbEntity
  8
0
 62
         0
100
AcDbText
 10
225.7380208572
 20
242.902630194
 30
0.0
 40
5.3974999189
  1
4
100
AcDbText
  0
LINE
  5
33
100
AcDbEntity
  8
0
 62
         0
100
AcDbLine
 10
229.3255208333
 20
219.9501302083
 30
0.0
 11
229.3255208333
 21
243.9501302083
 31
0.0
  0
LINE
  5
34
100
AcDbEntity
  8
0
 62
         0
100
AcDbLine
 10
225.3255208333
 20
219.9501302083
 30
0.0
 11
225.3255208333
 21
243.9501302083
 31
0.0
  0
LINE
  5
35
100
AcDbEntity
  8
0
 62
         0
100
AcDbLine
 10
229.3255208333
 20
239.9501302083
 30
0.0
 11
232.0880207618
 21
239.9501302083
 31
0.0
  0
LINE
  5
36
100
AcDbEntity
  8
0
 62
         0
100
AcDbLine
 10
225.3255208333
 20
239.9501302083
 30
0.0
 11
232.0880207618
 21
239.9501302083
 31
0.0
  0
LINE
  5
37
100
AcDbEntity
  8
0
 62
         0
100
AcDbLine
 10
229.3255208333
 20
239.9501302083
 30
0.0
 11
222.5630209049
 21
239.9501302083
 31
0.0
  0
LINE
  5
38
100
AcDbEntity
  8
0
 62
         0
100
AcDbLine
 10
225.3255208333
 20
239.9501302083
 30
0.0
 11
222.5630209049
 21
239.9501302083
 31
0.0
  0
LINE
  5
39
100
AcDbEntity
  8
0
 62
         0
100
AcDbLine
 10
225.3255208333
 20
239.9501302083
 30
0.0
 11
215.3255208333
 21
239.9501302083
 31
0.0
  0
LINE
  5
3A
100
AcDbEntity
  8
0
 62
         0
100
AcDbLine
 10
219.3255208333
 20
238.3421301683
 30
0.0
 11
225.3255208333
 21
239.9501302083
 31
0.0
  0
LINE
  5
3B
100
AcDbEntity
  8
0
 62
         0
100
AcDbLine
 10
225.3255208333
 20
239.9501302083
 30
0.0
 11
219.3255208333
 21
241.5581302484
 31
0.0
  0
LINE
  5
3C
100
AcDbEntity
  8
0
 62
         0
100
AcDbLine
 10
229.3255208333
 20
239.9501302083
 30
0.0
 11
239.3255208333
 21
239.9501302083
 31
0.0
  0
LINE
  5
3D
100
AcDbEntity
  8
0
 62
         0
100
AcDbLine
 10
235.3255208333
 20
241.5581302484
 30
0.0
 11
229.3255208333
 21
239.9501302083
 31
0.0
  0
LINE
  5
3E
100
AcDbEntity
  8
0
 62
         0
100
AcDbLine
 10
229.3255208333
 20
239.9501302083
 30
0.0
 11
235.3255208333
 21
238.3421301683
 31
0.0
  0
ENDBLK
  5
3F
100
AcDbEntity
  8
0
100
AcDbBlockEnd
  0
BLOCK
  5
43
100
AcDbEntity
  8
0
100
AcDbBlockBegin
  2
*D1
 70
         1
 10
0.0
 20
0.0
 30
0.0
  3

  1

  0
TEXT
  5
44
100
AcDbEntity
  8
0
 62
         0
100
AcDbText
 10
121.5955729405
 20
239.902630194
 30
0.0
 40
5.3974999189
  1
4
100
AcDbText
  0
LINE
  5
45
100
AcDbEntity
  8
0
 62
         0
100
AcDbLine
 10
125.1830729167
 20
216.9501302083
 30
0.0
 11
125.1830729167
 21
240.9501302083
 31
0.0
  0
LINE
  5
46
100
AcDbEntity
  8
0
 62
         0
100
AcDbLine
 10
121.1830729167
 20
216.9501302083
 30
0.0
 11
121.1830729167
 21
240.9501302083
 31
0.0
  0
LINE
  5
47
100
AcDbEntity
  8
0
 62
         0
100
AcDbLine
 10
125.1830729167
 20
236.9501302083
 30
0.0
 11
127.9455728451
 21
236.9501302083
 31
0.0
  0
LINE
  5
48
100
AcDbEntity
  8
0
 62
         0
100
AcDbLine
 10
121.1830729167
 20
236.9501302083
 30
0.0
 11
127.9455728451
 21
236.9501302083
 31
0.0
  0
LINE
  5
49
100
AcDbEntity
  8
0
 62
         0
100
AcDbLine
 10
125.1830729167
 20
236.9501302083
 30
0.0
 11
118.4205729882
 21
236.9501302083
 31
0.0
  0
LINE
  5
4A
100
AcDbEntity
  8
0
 62
         0
100
AcDbLine
 10
121.1830729167
 20
236.9501302083
 30
0.0
 11
118.4205729882
 21
236.9501302083
 31
0.0
  0
LINE
  5
4B
100
AcDbEntity
  8
0
 62
         0
100
AcDbLine
 10
121.1830729167
 20
236.9501302083
 30
0.0
 11
111.1830729167
 21
236.9501302083
 31
0.0
  0
LINE
  5
4C
100
AcDbEntity
  8
0
 62
         0
100
AcDbLine
 10
115.1830729167
 20
235.3421301683
 30
0.0
 11
121.1830729167
 21
236.9501302083
 31
0.0
  0
LINE
  5
4D
100
AcDbEntity
  8
0
 62
         0
100
AcDbLine
 10
121.1830729167
 20
236.9501302083
 30
0.0
 11
115.1830729167
 21
238.5581302484
 31
0.0
  0
LINE
  5
4E
100
AcDbEntity
  8
0
 62
         0
100
AcDbLine
 10
125.1830729167
 20
236.9501302083
 30
0.0
 11
135.1830729167
 21
236.9501302083
 31
0.0
  0
LINE
  5
4F
100
AcDbEntity
  8
0
 62
         0
100
AcDbLine
 10
131.1830729167
 20
238.5581302484
 30
0.0
 11
125.1830729167
 21
236.9501302083
 31
0.0
  0
LINE
  5
50
100
AcDbEntity
  8
0
 62
         0
100
AcDbLine
 10
125.1830729167
 20
236.9501302083
 30
0.0
 11
131.1830729167
 21
235.3421301683
 31
0.0
  0
ENDBLK
  5
51
100
AcDbEntity
  8
0
100
AcDbBlockEnd
  0
BLOCK
  5
54
100
AcDbEntity
  8
0
100
AcDbBlockBegin
  2
*D2
 70
         1
 10
0.0
 20
0.0
 30
0.0
  3

  1

  0
TEXT
  5
55
100
AcDbEntity
  8
0
 62
         0
100
AcDbText
 10
246.3730208476
 20
215.3626302322
 30
0.0
 40
5.3974999189
  1
6
 50
90.0
100
AcDbText
  0
LINE
  5
56
100
AcDbEntity
  8
0
 62
         0
100
AcDbLine
 10
229.3255208333
 20
213.9501302083
 30
0.0
 11
253.3255208333
 21
213.9501302083
 31
0.0
  0
LINE
  5
57
100
AcDbEntity
  8
0
 62
         0
100
AcDbLine
 10
229.3255208333
 20
219.9501302083
 30
0.0
 11
253.3255208333
 21
219.9501302083
 31
0.0
  0
LINE
  5
58
100
AcDbEntity
  8
0
 62
         0
100
AcDbLine
 10
249.3255208333
 20
213.9501302083
 30
0.0
 11
249.3255208333
 21
221.7126301368
 31
0.0
  0
LINE
  5
59
100
AcDbEntity
  8
0
 62
         0
100
AcDbLine
 10
249.3255208333
 20
219.9501302083
 30
0.0
 11
249.3255208333
 21
221.7126301368
 31
0.0
  0
LINE
  5
5A
100
AcDbEntity
  8
0
 62
         0
100
AcDbLine
 10
249.3255208333
 20
213.9501302083
 30
0.0
 11
249.3255208333
 21
212.1876302799
 31
0.0
  0
LINE
  5
5B
100
AcDbEntity
  8
0
 62
         0
100
AcDbLine
 10
249.3255208333
 20
219.9501302083
 30
0.0
 11
249.3255208333
 21
212.1876302799
 31
0.0
  0
LINE
  5
5C
100
AcDbEntity
  8
0
 62
         0
100
AcDbLine
 10
249.3255208333
 20
219.9501302083
 30
0.0
 11
249.3255208333
 21
229.9501302083
 31
0.0
  0
LINE
  5
5D
100
AcDbEntity
  8
0
 62
         0
100
AcDbLine
 10
247.7175207933
 20
225.9501302083
 30
0.0
 11
249.3255208333
 21
219.9501302083
 31
0.0
  0
LINE
  5
5E
100
AcDbEntity
  8
0
 62
         0
100
AcDbLine
 10
249.3255208333
 20
219.9501302083
 30
0.0
 11
250.9335208734
 21
225.9501302083
 31
0.0
  0
LINE
  5
5F
100
AcDbEntity
  8
0
 62
         0
100
AcDbLine
 10
249.3255208333
 20
213.9501302083
 30
0.0
 11
249.3255208333
 21
203.9501302083
 31
0.0
  0
LINE
  5
60
100
AcDbEntity
  8
0
 62
         0
100
AcDbLine
 10
250.9335208734
 20
207.9501302083
 30
0.0
 11
249.3255208333
 21
213.9501302083
 31
0.0
  0
LINE
  5
61
100
AcDbEntity
  8
0
 62
         0
100
AcDbLine
 10
249.3255208333
 20
213.9501302083
 30
0.0
 11
247.7175207933
 21
207.9501302083
 31
0.0
  0
ENDBLK
  5
62
100
AcDbEntity
  8
0
100
AcDbBlockEnd
  0
BLOCK
  5
7A
100
AcDbEntity
  8
0
100
AcDbBlockBegin
  2
*D3
 70
         1
 10
0.0
 20
0.0
 30
0.0
  3

  1

  0
TEXT
  5
7B
100
AcDbEntity
  8
0
 62
         0
100
AcDbText
 10
56.3303287903
 20
249.3373698394
 30
0.0
 40
5.3974999189
  1
40
 50
90.0
100
AcDbText
  0
LINE
  5
7C
100
AcDbEntity
  8
0
 62
         0
100
AcDbLine
 10
79.282828776
 20
272.5123697917
 30
0.0
 11
55.282828776
 21
272.5123697917
 31
0.0
  0
LINE
  5
7D
100
AcDbEntity
  8
0
 62
         0
100
AcDbLine
 10
79.282828776
 20
232.5123697917
 30
0.0
 11
55.282828776
 21
232.5123697917
 31
0.0
  0
LINE
  5
7E
100
AcDbEntity
  8
0
 62
         0
100
AcDbLine
 10
59.282828776
 20
272.5123697917
 30
0.0
 11
59.282828776
 21
258.8623696963
 31
0.0
  0
LINE
  5
7F
100
AcDbEntity
  8
0
 62
         0
100
AcDbLine
 10
59.282828776
 20
232.5123697917
 30
0.0
 11
59.282828776
 21
258.8623696963
 31
0.0
  0
LINE
  5
80
100
AcDbEntity
  8
0
 62
         0
100
AcDbLine
 10
59.282828776
 20
272.5123697917
 30
0.0
 11
59.282828776
 21
246.162369887
 31
0.0
  0
LINE
  5
81
100
AcDbEntity
  8
0
 62
         0
100
AcDbLine
 10
59.282828776
 20
232.5123697917
 30
0.0
 11
59.282828776
 21
246.162369887
 31
0.0
  0
LINE
  5
82
100
AcDbEntity
  8
0
 62
         0
100
AcDbLine
 10
59.282828776
 20
232.5123697917
 30
0.0
 11
59.282828776
 21
242.5123697917
 31
0.0
  0
LINE
  5
83
100
AcDbEntity
  8
0
 62
         0
100
AcDbLine
 10
57.674828736
 20
238.5123697917
 30
0.0
 11
59.282828776
 21
232.5123697917
 31
0.0
  0
LINE
  5
84
100
AcDbEntity
  8
0
 62
         0
100
AcDbLine
 10
59.282828776
 20
232.5123697917
 30
0.0
 11
60.8908288161
 21
238.5123697917
 31
0.0
  0
LINE
  5
85
100
AcDbEntity
  8
0
 62
         0
100
AcDbLine
 10
59.282828776
 20
272.5123697917
 30
0.0
 11
59.282828776
 21
262.5123697917
 31
0.0
  0
LINE
  5
86
100
AcDbEntity
  8
0
 62
         0
100
AcDbLine
 10
60.8908288161
 20
266.5123697917
 30
0.0
 11
59.282828776
 21
272.5123697917
 31
0.0
  0
LINE
  5
87
100
AcDbEntity
  8
0
 62
         0
100
AcDbLine
 10
59.282828776
 20
272.5123697917
 30
0.0
 11
57.674828736
 21
266.5123697917
 31
0.0
  0
ENDBLK
  5
88
100
AcDbEntity
  8
0
100
AcDbBlockEnd
  0
BLOCK
  5
95
100
AcDbEntity
  8
0
100
AcDbBlockBegin
  2
*D4
 70
         1
 10
0.0
 20
0.0
 30
0.0
  3

  1

  0
TEXT
  5
96
100
AcDbEntity
  8
0
 62
         0
100
AcDbText
 10
224.150520881
 20
44.902630194
 30
0.0
 40
5.3974999189
  1
11
100
AcDbText
  0
LINE
  5
97
100
AcDbEntity
  8
0
 62
         0
100
AcDbLine
 10
221.8255208333
 20
61.9501302083
 30
0.0
 11
221.8255208333
 21
37.9501302083
 31
0.0
  0
LINE
  5
98
100
AcDbEntity
  8
0
 62
         0
100
AcDbLine
 10
232.8255208333
 20
61.9501302083
 30
0.0
 11
232.8255208333
 21
37.9501302083
 31
0.0
  0
LINE
  5
99
100
AcDbEntity
  8
0
 62
         0
100
AcDbLine
 10
221.8255208333
 20
41.9501302083
 30
0.0
 11
233.675520738
 21
41.9501302083
 31
0.0
  0
LINE
  5
9A
100
AcDbEntity
  8
0
 62
         0
100
AcDbLine
 10
232.8255208333
 20
41.9501302083
 30
0.0
 11
233.675520738
 21
41.9501302083
 31
0.0
  0
LINE
  5
9B
100
AcDbEntity
  8
0
 62
         0
100
AcDbLine
 10
221.8255208333
 20
41.9501302083
 30
0.0
 11
220.9755209287
 21
41.9501302083
 31
0.0
  0
LINE
  5
9C
100
AcDbEntity
  8
0
 62
         0
100
AcDbLine
 10
232.8255208333
 20
41.9501302083
 30
0.0
 11
220.9755209287
 21
41.9501302083
 31
0.0
  0
LINE
  5
9D
100
AcDbEntity
  8
0
 62
         0
100
AcDbLine
 10
232.8255208333
 20
41.9501302083
 30
0.0
 11
242.8255208333
 21
41.9501302083
 31
0.0
  0
LINE
  5
9E
100
AcDbEntity
  8
0
 62
         0
100
AcDbLine
 10
238.8255208333
 20
43.5581302484
 30
0.0
 11
232.8255208333
 21
41.9501302083
 31
0.0
  0
LINE
  5
9F
100
AcDbEntity
  8
0
 62
         0
100
AcDbLine
 10
232.8255208333
 20
41.9501302083
 30
0.0
 11
238.8255208333
 21
40.3421301683
 31
0.0
  0
LINE
  5
A0
100
AcDbEntity
  8
0
 62
         0
100
AcDbLine
 10
221.8255208333
 20
41.9501302083
 30
0.0
 11
211.8255208333
 21
41.9501302083
 31
0.0
  0
LINE
  5
A1
100
AcDbEntity
  8
0
 62
         0
100
AcDbLine
 10
215.8255208333
 20
40.3421301683
 30
0.0
 11
221.8255208333
 21
41.9501302083
 31
0.0
  0
LINE
  5
A2
100
AcDbEntity
  8
0
 62
         0
100
AcDbLine
 10
221.8255208333
 20
41.9501302083
 30
0.0
 11
215.8255208333
 21
43.5581302484
 31
0.0
  0
ENDBLK
  5
A3
100
AcDbEntity
  8
0
100
AcDbBlockEnd
  0
BLOCK
  5
A6
100
AcDbEntity
  8
0
100
AcDbBlockBegin
  2
*D5
 70
         1
 10
0.0
 20
0.0
 30
0.0
  3

  1

  0
TEXT
  5
A7
100
AcDbEntity
  8
0
 62
         0
100
AcDbText
 10
156.730572931
 20
188.8998698632
 30
0.0
 40
5.3974999189
  1
2.3
 50
90.0
100
AcDbText
  0
LINE
  5
A8
100
AcDbEntity
  8
0
 62
         0
100
AcDbLine
 10
139.6830729167
 20
192.5123697917
 30
0.0
 11
163.6830729167
 21
192.5123697917
 31
0.0
  0
LINE
  5
A9
100
AcDbEntity
  8
0
 62
         0
100
AcDbLine
 10
139.6830729167
 20
194.8123697917
 30
0.0
 11
163.6830729167
 21
194.8123697917
 31
0.0
  0
LINE
  5
AA
100
AcDbEntity
  8
0
 62
         0
100
AcDbLine
 10
159.6830729167
 20
192.5123697917
 30
0.0
 11
159.6830729167
 21
201.5998696725
 31
0.0
  0
LINE
  5
AB
100
AcDbEntity
  8
0
 62
         0
100
AcDbLine
 10
159.6830729167
 20
194.8123697917
 30
0.0
 11
159.6830729167
 21
201.5998696725
 31
0.0
  0
LINE
  5
AC
100
AcDbEntity
  8
0
 62
         0
100
AcDbLine
 10
159.6830729167
 20
192.5123697917
 30
0.0
 11
159.6830729167
 21
185.7248699109
 31
0.0
  0
LINE
  5
AD
100
AcDbEntity
  8
0
 62
         0
100
AcDbLine
 10
159.6830729167
 20
194.8123697917
 30
0.0
 11
159.6830729167
 21
185.7248699109
 31
0.0
  0
LINE
  5
AE
100
AcDbEntity
  8
0
 62
         0
100
AcDbLine
 10
159.6830729167
 20
194.8123697917
 30
0.0
 11
159.6830729167
 21
204.8123697917
 31
0.0
  0
LINE
  5
AF
100
AcDbEntity
  8
0
 62
         0
100
AcDbLine
 10
158.0750728766
 20
200.8123697917
 30
0.0
 11
159.6830729167
 21
194.8123697917
 31
0.0
  0
LINE
  5
B0
100
AcDbEntity
  8
0
 62
         0
100
AcDbLine
 10
159.6830729167
 20
194.8123697917
 30
0.0
 11
161.2910729567
 21
200.8123697917
 31
0.0
  0
LINE
  5
B1
100
AcDbEntity
  8
0
 62
         0
100
AcDbLine
 10
159.6830729167
 20
192.5123697917
 30
0.0
 11
159.6830729167
 21
182.5123697917
 31
0.0
  0
LINE
  5
B2
100
AcDbEntity
  8
0
 62
         0
100
AcDbLine
 10
161.2910729567
 20
186.5123697917
 30
0.0
 11
159.6830729167
 21
192.5123697917
 31
0.0
  0
LINE
  5
B3
100
AcDbEntity
  8
0
 62
         0
100
AcDbLine
 10
159.6830729167
 20
192.5123697917
 30
0.0
 11
158.0750728766
 21
186.5123697917
 31
0.0
  0
ENDBLK
  5
B4
100
AcDbEntity
  8
0
100
AcDbBlockEnd
  0
BLOCK
  5
B7
100
AcDbEntity
  8
0
100
AcDbBlockBegin
  2
*D6
 70
         1
 10
0.0
 20
0.0
 30
0.0
  3

  1

  0
TEXT
  5
B8
100
AcDbEntity
  8
0
 62
         0
100
AcDbText
 10
224.150520881
 20
175.4648697774
 30
0.0
 40
5.3974999189
  1
62
100
AcDbText
  0
LINE
  5
B9
100
AcDbEntity
  8
0
 62
         0
100
AcDbLine
 10
196.3255208333
 20
192.5123697917
 30
0.0
 11
196.3255208333
 21
168.5123697917
 31
0.0
  0
LINE
  5
BA
100
AcDbEntity
  8
0
 62
         0
100
AcDbLine
 10
258.3255208333
 20
192.5123697917
 30
0.0
 11
258.3255208333
 21
168.5123697917
 31
0.0
  0
LINE
  5
BB
100
AcDbEntity
  8
0
 62
         0
100
AcDbLine
 10
196.3255208333
 20
172.5123697917
 30
0.0
 11
233.675520738
 21
172.5123697917
 31
0.0
  0
LINE
  5
BC
100
AcDbEntity
  8
0
 62
         0
100
AcDbLine
 10
258.3255208333
 20
172.5123697917
 30
0.0
 11
233.675520738
 21
172.5123697917
 31
0.0
  0
LINE
  5
BD
100
AcDbEntity
  8
0
 62
         0
100
AcDbLine
 10
196.3255208333
 20
172.5123697917
 30
0.0
 11
220.9755209287
 21
172.5123697917
 31
0.0
  0
LINE
  5
BE
100
AcDbEntity
  8
0
 62
         0
100
AcDbLine
 10
258.3255208333
 20
172.5123697917
 30
0.0
 11
220.9755209287
 21
172.5123697917
 31
0.0
  0
LINE
  5
BF
100
AcDbEntity
  8
0
 62
         0
100
AcDbLine
 10
258.3255208333
 20
172.5123697917
 30
0.0
 11
248.3255208333
 21
172.5123697917
 31
0.0
  0
LINE
  5
C0
100
AcDbEntity
  8
0
 62
         0
100
AcDbLine
 10
252.3255208333
 20
170.9043697516
 30
0.0
 11
258.3255208333
 21
172.5123697917
 31
0.0
  0
LINE
  5
C1
100
AcDbEntity
  8
0
 62
         0
100
AcDbLine
 10
258.3255208333
 20
172.5123697917
 30
0.0
 11
252.3255208333
 21
174.1203698317
 31
0.0
  0
LINE
  5
C2
100
AcDbEntity
  8
0
 62
         0
100
AcDbLine
 10
196.3255208333
 20
172.5123697917
 30
0.0
 11
206.3255208333
 21
172.5123697917
 31
0.0
  0
LINE
  5
C3
100
AcDbEntity
  8
0
 62
         0
100
AcDbLine
 10
202.3255208333
 20
174.1203698317
 30
0.0
 11
196.3255208333
 21
172.5123697917
 31
0.0
  0
LINE
  5
C4
100
AcDbEntity
  8
0
 62
         0
100
AcDbLine
 10
196.3255208333
 20
172.5123697917
 30
0.0
 11
202.3255208333
 21
170.9043697516
 31
0.0
  0
ENDBLK
  5
C5
100
AcDbEntity
  8
0
100
AcDbBlockEnd
  0
BLOCK
  5
C8
100
AcDbEntity
  8
0
100
AcDbBlockBegin
  2
*D7
 70
         1
 10
0.0
 20
0.0
 30
0.0
  3

  1

  0
TEXT
  5
C9
100
AcDbEntity
  8
0
 62
         0
100
AcDbText
 10
251.8730208476
 20
68.775130256
 30
0.0
 40
5.3974999189
  1
20
 50
90.0
100
AcDbText
  0
LINE
  5
CA
100
AcDbEntity
  8
0
 62
         0
100
AcDbLine
 10
232.8255208333
 20
61.9501302083
 30
0.0
 11
258.8255208333
 21
61.9501302083
 31
0.0
  0
LINE
  5
CB
100
AcDbEntity
  8
0
 62
         0
100
AcDbLine
 10
234.8255208333
 20
81.9501302083
 30
0.0
 11
258.8255208333
 21
81.9501302083
 31
0.0
  0
LINE
  5
CC
100
AcDbEntity
  8
0
 62
         0
100
AcDbLine
 10
254.8255208333
 20
61.9501302083
 30
0.0
 11
254.8255208333
 21
78.300130113
 31
0.0
  0
LINE
  5
CD
100
AcDbEntity
  8
0
 62
         0
100
AcDbLine
 10
254.8255208333
 20
81.9501302083
 30
0.0
 11
254.8255208333
 21
78.300130113
 31
0.0
  0
LINE
  5
CE
100
AcDbEntity
  8
0
 62
         0
100
AcDbLine
 10
254.8255208333
 20
61.9501302083
 30
0.0
 11
254.8255208333
 21
65.6001303037
 31
0.0
  0
LINE
  5
CF
100
AcDbEntity
  8
0
 62
         0
100
AcDbLine
 10
254.8255208333
 20
81.9501302083
 30
0.0
 11
254.8255208333
 21
65.6001303037
 31
0.0
  0
LINE
  5
D0
100
AcDbEntity
  8
0
 62
         0
100
AcDbLine
 10
254.8255208333
 20
81.9501302083
 30
0.0
 11
254.8255208333
 21
91.9501302083
 31
0.0
  0
LINE
  5
D1
100
AcDbEntity
  8
0
 62
         0
100
AcDbLine
 10
253.2175207933
 20
87.9501302083
 30
0.0
 11
254.8255208333
 21
81.9501302083
 31
0.0
  0
LINE
  5
D2
100
AcDbEntity
  8
0
 62
         0
100
AcDbLine
 10
254.8255208333
 20
81.9501302083
 30
0.0
 11
256.4335208734
 21
87.9501302083
 31
0.0
  0
LINE
  5
D3
100
AcDbEntity
  8
0
 62
         0
100
AcDbLine
 10
254.8255208333
 20
61.9501302083
 30
0.0
 11
254.8255208333
 21
51.9501302083
 31
0.0
  0
LINE
  5
D4
100
AcDbEntity
  8
0
 62
         0
100
AcDbLine
 10
256.4335208734
 20
55.9501302083
 30
0.0
 11
254.8255208333
 21
61.9501302083
 31
0.0
  0
LINE
  5
D5
100
AcDbEntity
  8
0
 62
         0
100
AcDbLine
 10
254.8255208333
 20
61.9501302083
 30
0.0
 11
253.2175207933
 21
55.9501302083
 31
0.0
  0
ENDBLK
  5
D6
100
AcDbEntity
  8
0
100
AcDbBlockEnd
  0
BLOCK
  5
D9
100
AcDbEntity
  8
0
100
AcDbBlockBegin
  2
*D8
 70
         1
 10
0.0
 20
0.0
 30
0.0
  3

  1

  0
TEXT
  5
DA
100
AcDbEntity
  8
0
 62
         0
100
AcDbText
 10
109.333073012
 20
127.0945572774
 30
0.0
 40
5.3974999189
  1
%%c15
100
AcDbText
  0
LINE
  5
DB
100
AcDbEntity
  8
0
 62
         0
100
AcDbLine
 10
123.1830729167
 20
104.1420572917
 30
0.0
 11
123.1830729167
 21
128.1420572917
 31
0.0
  0
LINE
  5
DC
100
AcDbEntity
  8
0
 62
         0
100
AcDbLine
 10
108.1830729167
 20
104.1420572917
 30
0.0
 11
108.1830729167
 21
128.1420572917
 31
0.0
  0
LINE
  5
DD
100
AcDbEntity
  8
0
 62
         0
100
AcDbLine
 10
123.1830729167
 20
124.1420572917
 30
0.0
 11
125.2080727736
 21
124.1420572917
 31
0.0
  0
LINE
  5
DE
100
AcDbEntity
  8
0
 62
         0
100
AcDbLine
 10
108.1830729167
 20
124.1420572917
 30
0.0
 11
125.2080727736
 21
124.1420572917
 31
0.0
  0
LINE
  5
DF
100
AcDbEntity
  8
0
 62
         0
100
AcDbLine
 10
123.1830729167
 20
124.1420572917
 30
0.0
 11
106.1580730597
 21
124.1420572917
 31
0.0
  0
LINE
  5
E0
100
AcDbEntity
  8
0
 62
         0
100
AcDbLine
 10
108.1830729167
 20
124.1420572917
 30
0.0
 11
106.1580730597
 21
124.1420572917
 31
0.0
  0
LINE
  5
E1
100
AcDbEntity
  8
0
 62
         0
100
AcDbLine
 10
108.1830729167
 20
124.1420572917
 30
0.0
 11
98.1830729167
 21
124.1420572917
 31
0.0
  0
LINE
  5
E2
100
AcDbEntity
  8
0
 62
         0
100
AcDbLine
 10
102.1830729167
 20
122.5340572516
 30
0.0
 11
108.1830729167
 21
124.1420572917
 31
0.0
  0
LINE
  5
E3
100
AcDbEntity
  8
0
 62
         0
100
AcDbLine
 10
108.1830729167
 20
124.1420572917
 30
0.0
 11
102.1830729167
 21
125.7500573317
 31
0.0
  0
LINE
  5
E4
100
AcDbEntity
  8
0
 62
         0
100
AcDbLine
 10
123.1830729167
 20
124.1420572917
 30
0.0
 11
133.1830729167
 21
124.1420572917
 31
0.0
  0
LINE
  5
E5
100
AcDbEntity
  8
0
 62
         0
100
AcDbLine
 10
129.1830729167
 20
125.7500573317
 30
0.0
 11
123.1830729167
 21
124.1420572917
 31
0.0
  0
LINE
  5
E6
100
AcDbEntity
  8
0
 62
         0
100
AcDbLine
 10
123.1830729167
 20
124.1420572917
 30
0.0
 11
129.1830729167
 21
122.5340572516
 31
0.0
  0
ENDBLK
  5
E7
100
AcDbEntity
  8
0
100
AcDbBlockEnd
  0
BLOCK
  5
F4
100
AcDbEntity
  8
0
100
AcDbBlockBegin
  2
*D9
 70
         1
 10
0.0
 20
0.0
 30
0.0
  3

  1

  0
TEXT
  5
F5
100
AcDbEntity
  8
0
 62
         0
100
AcDbText
 10
167.1838924805
 20
247.7498698632
 30
0.0
 40
5.3974999189
  1
120
 50
90.0
100
AcDbText
  0
LINE
  5
F6
100
AcDbEntity
  8
0
 62
         0
100
AcDbLine
 10
139.6830729167
 20
192.5123697917
 30
0.0
 11
174.1363924662
 21
192.5123697917
 31
0.0
  0
LINE
  5
F7
100
AcDbEntity
  8
0
 62
         0
100
AcDbLine
 10
139.6830729167
 20
312.5123697917
 30
0.0
 11
174.1363924662
 21
312.5123697917
 31
0.0
  0
LINE
  5
F8
100
AcDbEntity
  8
0
 62
         0
100
AcDbLine
 10
170.1363924662
 20
192.5123697917
 30
0.0
 11
170.1363924662
 21
260.4498696725
 31
0.0
  0
LINE
  5
F9
100
AcDbEntity
  8
0
 62
         0
100
AcDbLine
 10
170.1363924662
 20
312.5123697917
 30
0.0
 11
170.1363924662
 21
260.4498696725
 31
0.0
  0
LINE
  5
FA
100
AcDbEntity
  8
0
 62
         0
100
AcDbLine
 10
170.1363924662
 20
192.5123697917
 30
0.0
 11
170.1363924662
 21
244.5748699109
 31
0.0
  0
LINE
  5
FB
100
AcDbEntity
  8
0
 62
         0
100
AcDbLine
 10
170.1363924662
 20
312.5123697917
 30
0.0
 11
170.1363924662
 21
244.5748699109
 31
0.0
  0
LINE
  5
FC
100
AcDbEntity
  8
0
 62
         0
100
AcDbLine
 10
170.1363924662
 20
312.5123697917
 30
0.0
 11
170.1363924662
 21
302.5123697917
 31
0.0
  0
LINE
  5
FD
100
AcDbEntity
  8
0
 62
         0
100
AcDbLine
 10
171.7443925063
 20
306.5123697917
 30
0.0
 11
170.1363924662
 21
312.5123697917
 31
0.0
  0
LINE
  5
FE
100
AcDbEntity
  8
0
 62
         0
100
AcDbLine
 10
170.1363924662
 20
312.5123697917
 30
0.0
 11
168.5283924262
 21
306.5123697917
 31
0.0
  0
LINE
  5
FF
100
AcDbEntity
  8
0
 62
         0
100
AcDbLine
 10
170.1363924662
 20
192.5123697917
 30
0.0
 11
170.1363924662
 21
202.5123697917
 31
0.0
  0
LINE
  5
100
100
AcDbEntity
  8
0
 62
         0
100
AcDbLine
 10
168.5283924262
 20
198.5123697917
 30
0.0
 11
170.1363924662
 21
192.5123697917
 31
0.0
  0
LINE
  5
101
100
AcDbEntity
  8
0
 62
         0
100
AcDbLine
 10
170.1363924662
 20
192.5123697917
 30
0.0
 11
171.7443925063
 21
198.5123697917
 31
0.0
  0
ENDBLK
  5
102
100
AcDbEntity
  8
0
100
AcDbBlockEnd
  0
BLOCK
  5
113
100
AcDbEntity
  8
0
100
AcDbBlockBegin
  2
*D10
 70
         1
 10
0.0
 20
0.0
 30
0.0
  3

  1

  0
TEXT
  5
114
100
AcDbEntity
  8
0
 62
         0
100
AcDbText
 10
312.5273177226
 20
179.5300781965
 30
0.0
 40
5.3974999189
  1
120
 50
90.0
100
AcDbText
  0
LINE
  5
115
100
AcDbEntity
  8
0
 62
         0
100
AcDbLine
 10
335.4798177083
 20
244.292578125
 30
0.0
 11
311.4798177083
 21
244.292578125
 31
0.0
  0
LINE
  5
116
100
AcDbEntity
  8
0
 62
         0
100
AcDbLine
 10
335.4798177083
 20
124.292578125
 30
0.0
 11
311.4798177083
 21
124.292578125
 31
0.0
  0
LINE
  5
117
100
AcDbEntity
  8
0
 62
         0
100
AcDbLine
 10
315.4798177083
 20
244.292578125
 30
0.0
 11
315.4798177083
 21
192.2300780058
 31
0.0
  0
LINE
  5
118
100
AcDbEntity
  8
0
 62
         0
100
AcDbLine
 10
315.4798177083
 20
124.292578125
 30
0.0
 11
315.4798177083
 21
192.2300780058
 31
0.0
  0
LINE
  5
119
100
AcDbEntity
  8
0
 62
         0
100
AcDbLine
 10
315.4798177083
 20
244.292578125
 30
0.0
 11
315.4798177083
 21
176.3550782442
 31
0.0
  0
LINE
  5
11A
100
AcDbEntity
  8
0
 62
         0
100
AcDbLine
 10
315.4798177083
 20
124.292578125
 30
0.0
 11
315.4798177083
 21
176.3550782442
 31
0.0
  0
LINE
  5
11B
100
AcDbEntity
  8
0
 62
         0
100
AcDbLine
 10
315.4798177083
 20
124.292578125
 30
0.0
 11
315.4798177083
 21
134.292578125
 31
0.0
  0
LINE
  5
11C
100
AcDbEntity
  8
0
 62
         0
100
AcDbLine
 10
313.8718176683
 20
130.292578125
 30
0.0
 11
315.4798177083
 21
124.292578125
 31
0.0
  0
LINE
  5
11D
100
AcDbEntity
  8
0
 62
         0
100
AcDbLine
 10
315.4798177083
 20
124.292578125
 30
0.0
 11
317.0878177484
 21
130.292578125
 31
0.0
  0
LINE
  5
11E
100
AcDbEntity
  8
0
 62
         0
100
AcDbLine
 10
315.4798177083
 20
244.292578125
 30
0.0
 11
315.4798177083
 21
234.292578125
 31
0.0
  0
LINE
  5
11F
100
AcDbEntity
  8
0
 62
         0
100
AcDbLine
 10
317.0878177484
 20
238.292578125
 30
0.0
 11
315.4798177083
 21
244.292578125
 31
0.0
  0
LINE
  5
120
100
AcDbEntity
  8
0
 62
         0
100
AcDbLine
 10
315.4798177083
 20
244.292578125
 30
0.0
 11
313.8718176683
 21
238.292578125
 31
0.0
  0
ENDBLK
  5
121
100
AcDbEntity
  8
0
100
AcDbBlockEnd
  0
BLOCK
  5
155
100
AcDbEntity
  8
0
100
AcDbBlockBegin
  2
*D11
 70
         1
 10
0.0
 20
0.0
 30
0.0
  3

  1

  0
TEXT
  5
156
100
AcDbEntity
  8
0
 62
         0
100
AcDbText
 10
85.230572931
 20
367.7745441039
 30
0.0
 40
5.3974999189
  1
9
 50
90.0
100
AcDbText
  0
LINE
  5
157
100
AcDbEntity
  8
0
 62
         0
100
AcDbLine
 10
108.1830729167
 20
361.9501302083
 30
0.0
 11
84.1830729167
 21
361.9501302083
 31
0.0
  0
LINE
  5
158
100
AcDbEntity
  8
0
 62
         0
100
AcDbLine
 10
108.1830729167
 20
352.9501302083
 30
0.0
 11
84.1830729167
 21
352.9501302083
 31
0.0
  0
LINE
  5
159
100
AcDbEntity
  8
0
 62
         0
100
AcDbLine
 10
88.1830729167
 20
361.9501302083
 30
0.0
 11
88.1830729167
 21
374.1245440086
 31
0.0
  0
LINE
  5
15A
100
AcDbEntity
  8
0
 62
         0
100
AcDbLine
 10
88.1830729167
 20
352.9501302083
 30
0.0
 11
88.1830729167
 21
374.1245440086
 31
0.0
  0
LINE
  5
15B
100
AcDbEntity
  8
0
 62
         0
100
AcDbLine
 10
88.1830729167
 20
361.9501302083
 30
0.0
 11
88.1830729167
 21
364.5995441516
 31
0.0
  0
LINE
  5
15C
100
AcDbEntity
  8
0
 62
         0
100
AcDbLine
 10
88.1830729167
 20
352.9501302083
 30
0.0
 11
88.1830729167
 21
364.5995441516
 31
0.0
  0
LINE
  5
15D
100
AcDbEntity
  8
0
 62
         0
100
AcDbLine
 10
88.1830729167
 20
352.9501302083
 30
0.0
 11
88.1830729167
 21
342.9501302083
 31
0.0
  0
LINE
  5
15E
100
AcDbEntity
  8
0
 62
         0
100
AcDbLine
 10
89.7910729567
 20
346.9501302083
 30
0.0
 11
88.1830729167
 21
352.9501302083
 31
0.0
  0
LINE
  5
15F
100
AcDbEntity
  8
0
 62
         0
100
AcDbLine
 10
88.1830729167
 20
352.9501302083
 30
0.0
 11
86.5750728766
 21
346.9501302083
 31
0.0
  0
LINE
  5
160
100
AcDbEntity
  8
0
 62
         0
100
AcDbLine
 10
88.1830729167
 20
361.9501302083
 30
0.0
 11
88.1830729167
 21
371.9501302083
 31
0.0
  0
LINE
  5
161
100
AcDbEntity
  8
0
 62
         0
100
AcDbLine
 10
86.5750728766
 20
367.9501302083
 30
0.0
 11
88.1830729167
 21
361.9501302083
 31
0.0
  0
LINE
  5
162
100
AcDbEntity
  8
0
 62
         0
100
AcDbLine
 10
88.1830729167
 20
361.9501302083
 30
0.0
 11
89.7910729567
 21
367.9501302083
 31
0.0
  0
ENDBLK
  5
163
100
AcDbEntity
  8
0
100
AcDbBlockEnd
  0
BLOCK
  5
166
100
AcDbEntity
  8
0
100
AcDbBlockBegin
  2
*D12
 70
         1
 10
0.0
 20
0.0
 30
0.0
  3

  1

  0
TEXT
  5
167
100
AcDbEntity
  8
0
 62
         0
100
AcDbText
 10
142.2301448233
 20
284.7186647626
 30
0.0
 40
5.3974999189
  1
144.938
 50
90.0
100
AcDbText
  0
LINE
  5
168
100
AcDbEntity
  8
0
 62
         0
100
AcDbLine
 10
125.182644809
 20
217.0121991739
 30
0.0
 11
149.182644809
 21
217.0121991739
 31
0.0
  0
LINE
  5
169
100
AcDbEntity
  8
0
 62
         0
100
AcDbLine
 10
123.1830729167
 20
361.9501302083
 30
0.0
 11
149.182644809
 21
361.9501302083
 31
0.0
  0
LINE
  5
16A
100
AcDbEntity
  8
0
 62
         0
100
AcDbLine
 10
145.182644809
 20
217.0121991739
 30
0.0
 11
145.182644809
 21
297.4186645719
 31
0.0
  0
LINE
  5
16B
100
AcDbEntity
  8
0
 62
         0
100
AcDbLine
 10
145.182644809
 20
361.9501302083
 30
0.0
 11
145.182644809
 21
297.4186645719
 31
0.0
  0
LINE
  5
16C
100
AcDbEntity
  8
0
 62
         0
100
AcDbLine
 10
145.182644809
 20
217.0121991739
 30
0.0
 11
145.182644809
 21
281.5436648103
 31
0.0
  0
LINE
  5
16D
100
AcDbEntity
  8
0
 62
         0
100
AcDbLine
 10
145.182644809
 20
361.9501302083
 30
0.0
 11
145.182644809
 21
281.5436648103
 31
0.0
  0
LINE
  5
16E
100
AcDbEntity
  8
0
 62
         0
100
AcDbLine
 10
145.182644809
 20
361.9501302083
 30
0.0
 11
145.182644809
 21
351.9501302083
 31
0.0
  0
LINE
  5
16F
100
AcDbEntity
  8
0
 62
         0
100
AcDbLine
 10
146.7906448491
 20
355.9501302083
 30
0.0
 11
145.182644809
 21
361.9501302083
 31
0.0
  0
LINE
  5
170
100
AcDbEntity
  8
0
 62
         0
100
AcDbLine
 10
145.182644809
 20
361.9501302083
 30
0.0
 11
143.574644769
 21
355.9501302083
 31
0.0
  0
LINE
  5
171
100
AcDbEntity
  8
0
 62
         0
100
AcDbLine
 10
145.182644809
 20
217.0121991739
 30
0.0
 11
145.182644809
 21
227.0121991739
 31
0.0
  0
LINE
  5
172
100
AcDbEntity
  8
0
 62
         0
100
AcDbLine
 10
143.574644769
 20
223.0121991739
 30
0.0
 11
145.182644809
 21
217.0121991739
 31
0.0
  0
LINE
  5
173
100
AcDbEntity
  8
0
 62
         0
100
AcDbLine
 10
145.182644809
 20
217.0121991739
 30
0.0
 11
146.7906448491
 21
223.0121991739
 31
0.0
  0
ENDBLK
  5
174
100
AcDbEntity
  8
0
100
AcDbBlockEnd
  0
BLOCK
  5
177
100
AcDbEntity
  8
0
100
AcDbBlockBegin
  2
*D13
 70
         1
 10
0.0
 20
0.0
 30
0.0
  3

  1

  0
TEXT
  5
178
100
AcDbEntity
  8
0
 62
         0
100
AcDbText
 10
224.150520881
 20
380.5000918945
 30
0.0
 40
5.3974999189
  1
11
100
AcDbText
  0
LINE
  5
179
100
AcDbEntity
  8
0
 62
         0
100
AcDbLine
 10
232.8255208333
 20
342.9501302083
 30
0.0
 11
232.8255208333
 21
381.5475919088
 31
0.0
  0
LINE
  5
17A
100
AcDbEntity
  8
0
 62
         0
100
AcDbLine
 10
221.8255208333
 20
342.9501302083
 30
0.0
 11
221.8255208333
 21
381.5475919088
 31
0.0
  0
LINE
  5
17B
100
AcDbEntity
  8
0
 62
         0
100
AcDbLine
 10
232.8255208333
 20
377.5475919088
 30
0.0
 11
233.675520738
 21
377.5475919088
 31
0.0
  0
LINE
  5
17C
100
AcDbEntity
  8
0
 62
         0
100
AcDbLine
 10
221.8255208333
 20
377.5475919088
 30
0.0
 11
233.675520738
 21
377.5475919088
 31
0.0
  0
LINE
  5
17D
100
AcDbEntity
  8
0
 62
         0
100
AcDbLine
 10
232.8255208333
 20
377.5475919088
 30
0.0
 11
220.9755209287
 21
377.5475919088
 31
0.0
  0
LINE
  5
17E
100
AcDbEntity
  8
0
 62
         0
100
AcDbLine
 10
221.8255208333
 20
377.5475919088
 30
0.0
 11
220.9755209287
 21
377.5475919088
 31
0.0
  0
LINE
  5
17F
100
AcDbEntity
  8
0
 62
         0
100
AcDbLine
 10
221.8255208333
 20
377.5475919088
 30
0.0
 11
211.8255208333
 21
377.5475919088
 31
0.0
  0
LINE
  5
180
100
AcDbEntity
  8
0
 62
         0
100
AcDbLine
 10
215.8255208333
 20
375.9395918687
 30
0.0
 11
221.8255208333
 21
377.5475919088
 31
0.0
  0
LINE
  5
181
100
AcDbEntity
  8
0
 62
         0
100
AcDbLine
 10
221.8255208333
 20
377.5475919088
 30
0.0
 11
215.8255208333
 21
379.1555919488
 31
0.0
  0
LINE
  5
182
100
AcDbEntity
  8
0
 62
         0
100
AcDbLine
 10
232.8255208333
 20
377.5475919088
 30
0.0
 11
242.8255208333
 21
377.5475919088
 31
0.0
  0
LINE
  5
183
100
AcDbEntity
  8
0
 62
         0
100
AcDbLine
 10
238.8255208333
 20
379.1555919488
 30
0.0
 11
232.8255208333
 21
377.5475919088
 31
0.0
  0
LINE
  5
184
100
AcDbEntity
  8
0
 62
         0
100
AcDbLine
 10
232.8255208333
 20
377.5475919088
 30
0.0
 11
238.8255208333
 21
375.9395918687
 31
0.0
  0
ENDBLK
  5
185
100
AcDbEntity
  8
0
100
AcDbBlockEnd
  0
BLOCK
  5
188
100
AcDbEntity
  8
0
100
AcDbBlockBegin
  2
*D14
 70
         1
 10
0.0
 20
0.0
 30
0.0
  3

  1

  0
TEXT
  5
189
100
AcDbEntity
  8
0
 62
         0
100
AcDbText
 10
85.230572931
 20
339.775130256
 30
0.0
 40
5.3974999189
  1
20
 50
90.0
100
AcDbText
  0
LINE
  5
18A
100
AcDbEntity
  8
0
 62
         0
100
AcDbLine
 10
108.1830729167
 20
352.9501302083
 30
0.0
 11
84.1830729167
 21
352.9501302083
 31
0.0
  0
LINE
  5
18B
100
AcDbEntity
  8
0
 62
         0
100
AcDbLine
 10
108.1830729167
 20
332.9501302083
 30
0.0
 11
84.1830729167
 21
332.9501302083
 31
0.0
  0
LINE
  5
18C
100
AcDbEntity
  8
0
 62
         0
100
AcDbLine
 10
88.1830729167
 20
352.9501302083
 30
0.0
 11
88.1830729167
 21
349.300130113
 31
0.0
  0
LINE
  5
18D
100
AcDbEntity
  8
0
 62
         0
100
AcDbLine
 10
88.1830729167
 20
332.9501302083
 30
0.0
 11
88.1830729167
 21
349.300130113
 31
0.0
  0
LINE
  5
18E
100
AcDbEntity
  8
0
 62
         0
100
AcDbLine
 10
88.1830729167
 20
352.9501302083
 30
0.0
 11
88.1830729167
 21
336.6001303037
 31
0.0
  0
LINE
  5
18F
100
AcDbEntity
  8
0
 62
         0
100
AcDbLine
 10
88.1830729167
 20
332.9501302083
 30
0.0
 11
88.1830729167
 21
336.6001303037
 31
0.0
  0
LINE
  5
190
100
AcDbEntity
  8
0
 62
         0
100
AcDbLine
 10
88.1830729167
 20
332.9501302083
 30
0.0
 11
88.1830729167
 21
322.9501302083
 31
0.0
  0
LINE
  5
191
100
AcDbEntity
  8
0
 62
         0
100
AcDbLine
 10
89.7910729567
 20
326.9501302083
 30
0.0
 11
88.1830729167
 21
332.9501302083
 31
0.0
  0
LINE
  5
192
100
AcDbEntity
  8
0
 62
         0
100
AcDbLine
 10
88.1830729167
 20
332.9501302083
 30
0.0
 11
86.5750728766
 21
326.9501302083
 31
0.0
  0
LINE
  5
193
100
AcDbEntity
  8
0
 62
         0
100
AcDbLine
 10
88.1830729167
 20
352.9501302083
 30
0.0
 11
88.1830729167
 21
362.9501302083
 31
0.0
  0
LINE
  5
194
100
AcDbEntity
  8
0
 62
         0
100
AcDbLine
 10
86.5750728766
 20
358.9501302083
 30
0.0
 11
88.1830729167
 21
352.9501302083
 31
0.0
  0
LINE
  5
195
100
AcDbEntity
  8
0
 62
         0
100
AcDbLine
 10
88.1830729167
 20
352.9501302083
 30
0.0
 11
89.7910729567
 21
358.9501302083
 31
0.0
  0
ENDBLK
  5
196
100
AcDbEntity
  8
0
100
AcDbBlockEnd
  0
BLOCK
  5
1B3
100
AcDbEntity
  8
0
100
AcDbBlockBegin
  2
*D15
 70
         1
 10
0.0
 20
0.0
 30
0.0
  3

  1

  0
TEXT
  5
1B4
100
AcDbEntity
  8
0
 62
         0
100
AcDbText
 10
412.7503012737
 20
181.1175781727
 30
0.0
 40
5.3974999189
  1
40
 50
90.0
100
AcDbText
  0
LINE
  5
1B5
100
AcDbEntity
  8
0
 62
         0
100
AcDbLine
 10
375.180061849
 20
164.292578125
 30
0.0
 11
419.7028012594
 21
164.292578125
 31
0.0
  0
LINE
  5
1B6
100
AcDbEntity
  8
0
 62
         0
100
AcDbLine
 10
375.180061849
 20
204.292578125
 30
0.0
 11
419.7028012594
 21
204.292578125
 31
0.0
  0
LINE
  5
1B7
100
AcDbEntity
  8
0
 62
         0
100
AcDbLine
 10
415.7028012594
 20
164.292578125
 30
0.0
 11
415.7028012594
 21
190.6425780296
 31
0.0
  0
LINE
  5
1B8
100
AcDbEntity
  8
0
 62
         0
100
AcDbLine
 10
415.7028012594
 20
204.292578125
 30
0.0
 11
415.7028012594
 21
190.6425780296
 31
0.0
  0
LINE
  5
1B9
100
AcDbEntity
  8
0
 62
         0
100
AcDbLine
 10
415.7028012594
 20
164.292578125
 30
0.0
 11
415.7028012594
 21
177.9425782204
 31
0.0
  0
LINE
  5
1BA
100
AcDbEntity
  8
0
 62
         0
100
AcDbLine
 10
415.7028012594
 20
204.292578125
 30
0.0
 11
415.7028012594
 21
177.9425782204
 31
0.0
  0
LINE
  5
1BB
100
AcDbEntity
  8
0
 62
         0
100
AcDbLine
 10
415.7028012594
 20
204.292578125
 30
0.0
 11
415.7028012594
 21
194.292578125
 31
0.0
  0
LINE
  5
1BC
100
AcDbEntity
  8
0
 62
         0
100
AcDbLine
 10
417.3108012994
 20
198.292578125
 30
0.0
 11
415.7028012594
 21
204.292578125
 31
0.0
  0
LINE
  5
1BD
100
AcDbEntity
  8
0
 62
         0
100
AcDbLine
 10
415.7028012594
 20
204.292578125
 30
0.0
 11
414.0948012193
 21
198.292578125
 31
0.0
  0
LINE
  5
1BE
100
AcDbEntity
  8
0
 62
         0
100
AcDbLine
 10
415.7028012594
 20
164.292578125
 30
0.0
 11
415.7028012594
 21
174.292578125
 31
0.0
  0
LINE
  5
1BF
100
AcDbEntity
  8
0
 62
         0
100
AcDbLine
 10
414.0948012193
 20
170.292578125
 30
0.0
 11
415.7028012594
 21
164.292578125
 31
0.0
  0
LINE
  5
1C0
100
AcDbEntity
  8
0
 62
         0
100
AcDbLine
 10
415.7028012594
 20
164.292578125
 30
0.0
 11
417.3108012994
 21
170.292578125
 31
0.0
  0
ENDBLK
  5
1C1
100
AcDbEntity
  8
0
100
AcDbBlockEnd
  0
BLOCK
  5
219
100
AcDbEntity
  8
0
100
AcDbBlockBegin
  2
*D16
 70
         1
 10
0.0
 20
0.0
 30
0.0
  3

  1

  0
TEXT
  5
21A
100
AcDbEntity
  8
0
 62
         0
100
AcDbText
 10
363.304817756
 20
280.844817694
 30
0.0
 40
5.3974999189
  1
62
100
AcDbText
  0
LINE
  5
21B
100
AcDbEntity
  8
0
 62
         0
100
AcDbLine
 10
335.4798177083
 20
297.8923177083
 30
0.0
 11
335.4798177083
 21
273.8923177083
 31
0.0
  0
LINE
  5
21C
100
AcDbEntity
  8
0
 62
         0
100
AcDbLine
 10
397.4798177083
 20
297.8923177083
 30
0.0
 11
397.4798177083
 21
273.8923177083
 31
0.0
  0
LINE
  5
21D
100
AcDbEntity
  8
0
 62
         0
100
AcDbLine
 10
335.4798177083
 20
277.8923177083
 30
0.0
 11
372.829817613
 21
277.8923177083
 31
0.0
  0
LINE
  5
21E
100
AcDbEntity
  8
0
 62
         0
100
AcDbLine
 10
397.4798177083
 20
277.8923177083
 30
0.0
 11
372.829817613
 21
277.8923177083
 31
0.0
  0
LINE
  5
21F
100
AcDbEntity
  8
0
 62
         0
100
AcDbLine
 10
335.4798177083
 20
277.8923177083
 30
0.0
 11
360.1298178037
 21
277.8923177083
 31
0.0
  0
LINE
  5
220
100
AcDbEntity
  8
0
 62
         0
100
AcDbLine
 10
397.4798177083
 20
277.8923177083
 30
0.0
 11
360.1298178037
 21
277.8923177083
 31
0.0
  0
LINE
  5
221
100
AcDbEntity
  8
0
 62
         0
100
AcDbLine
 10
397.4798177083
 20
277.8923177083
 30
0.0
 11
387.4798177083
 21
277.8923177083
 31
0.0
  0
LINE
  5
222
100
AcDbEntity
  8
0
 62
         0
100
AcDbLine
 10
391.4798177083
 20
276.2843176683
 30
0.0
 11
397.4798177083
 21
277.8923177083
 31
0.0
  0
LINE
  5
223
100
AcDbEntity
  8
0
 62
         0
100
AcDbLine
 10
397.4798177083
 20
277.8923177083
 30
0.0
 11
391.4798177083
 21
279.5003177484
 31
0.0
  0
LINE
  5
224
100
AcDbEntity
  8
0
 62
         0
100
AcDbLine
 10
335.4798177083
 20
277.8923177083
 30
0.0
 11
345.4798177083
 21
277.8923177083
 31
0.0
  0
LINE
  5
225
100
AcDbEntity
  8
0
 62
         0
100
AcDbLine
 10
341.4798177083
 20
279.5003177484
 30
0.0
 11
335.4798177083
 21
277.8923177083
 31
0.0
  0
LINE
  5
226
100
AcDbEntity
  8
0
 62
         0
100
AcDbLine
 10
335.4798177083
 20
277.8923177083
 30
0.0
 11
341.4798177083
 21
276.2843176683
 31
0.0
  0
ENDBLK
  5
227
100
AcDbEntity
  8
0
100
AcDbBlockEnd
  0
BLOCK
  5
22A
100
AcDbEntity
  8
0
100
AcDbBlockBegin
  2
*D17
 70
         1
 10
0.0
 20
0.0
 30
0.0
  3

  1

  0
TEXT
  5
22B
100
AcDbEntity
  8
0
 62
         0
100
AcDbText
 10
312.5273177226
 20
321.717317756
 30
0.0
 40
5.3974999189
  1
54
 50
90.0
100
AcDbText
  0
LINE
  5
22C
100
AcDbEntity
  8
0
 62
         0
100
AcDbLine
 10
335.4798177083
 20
351.8923177083
 30
0.0
 11
311.4798177083
 21
351.8923177083
 31
0.0
  0
LINE
  5
22D
100
AcDbEntity
  8
0
 62
         0
100
AcDbLine
 10
335.4798177083
 20
297.8923177083
 30
0.0
 11
311.4798177083
 21
297.8923177083
 31
0.0
  0
LINE
  5
22E
100
AcDbEntity
  8
0
 62
         0
100
AcDbLine
 10
315.4798177083
 20
351.8923177083
 30
0.0
 11
315.4798177083
 21
331.242317613
 31
0.0
  0
LINE
  5
22F
100
AcDbEntity
  8
0
 62
         0
100
AcDbLine
 10
315.4798177083
 20
297.8923177083
 30
0.0
 11
315.4798177083
 21
331.242317613
 31
0.0
  0
LINE
  5
230
100
AcDbEntity
  8
0
 62
         0
100
AcDbLine
 10
315.4798177083
 20
351.8923177083
 30
0.0
 11
315.4798177083
 21
318.5423178037
 31
0.0
  0
LINE
  5
231
100
AcDbEntity
  8
0
 62
         0
100
AcDbLine
 10
315.4798177083
 20
297.8923177083
 30
0.0
 11
315.4798177083
 21
318.5423178037
 31
0.0
  0
LINE
  5
232
100
AcDbEntity
  8
0
 62
         0
100
AcDbLine
 10
315.4798177083
 20
297.8923177083
 30
0.0
 11
315.4798177083
 21
307.8923177083
 31
0.0
  0
LINE
  5
233
100
AcDbEntity
  8
0
 62
         0
100
AcDbLine
 10
313.8718176683
 20
303.8923177083
 30
0.0
 11
315.4798177083
 21
297.8923177083
 31
0.0
  0
LINE
  5
234
100
AcDbEntity
  8
0
 62
         0
100
AcDbLine
 10
315.4798177083
 20
297.8923177083
 30
0.0
 11
317.0878177484
 21
303.8923177083
 31
0.0
  0
LINE
  5
235
100
AcDbEntity
  8
0
 62
         0
100
AcDbLine
 10
315.4798177083
 20
351.8923177083
 30
0.0
 11
315.4798177083
 21
341.8923177083
 31
0.0
  0
LINE
  5
236
100
AcDbEntity
  8
0
 62
         0
100
AcDbLine
 10
317.0878177484
 20
345.8923177083
 30
0.0
 11
315.4798177083
 21
351.8923177083
 31
0.0
  0
LINE
  5
237
100
AcDbEntity
  8
0
 62
         0
100
AcDbLine
 10
315.4798177083
 20
351.8923177083
 30
0.0
 11
313.8718176683
 21
345.8923177083
 31
0.0
  0
ENDBLK
  5
238
100
AcDbEntity
  8
0
100
AcDbBlockEnd
  0
BLOCK
  5
23B
100
AcDbEntity
  8
0
100
AcDbBlockBegin
  2
*D18
 70
         1
 10
0.0
 20
0.0
 30
0.0
  3

  1

  0
TEXT
  5
23C
100
AcDbEntity
  8
0
 62
         0
100
AcDbText
 10
544.6285549561
 20
268.3133464019
 30
0.0
 40
5.3974999189
  1
40
 50
90.0
100
AcDbText
  0
LINE
  5
23D
100
AcDbEntity
  8
0
 62
         0
100
AcDbLine
 10
534.4795572917
 20
251.4883463542
 30
0.0
 11
551.5810549418
 21
251.4883463542
 31
0.0
  0
LINE
  5
23E
100
AcDbEntity
  8
0
 62
         0
100
AcDbLine
 10
534.4795572917
 20
291.4883463542
 30
0.0
 11
551.5810549418
 21
291.4883463542
 31
0.0
  0
LINE
  5
23F
100
AcDbEntity
  8
0
 62
         0
100
AcDbLine
 10
547.5810549418
 20
251.4883463542
 30
0.0
 11
547.5810549418
 21
277.8383462588
 31
0.0
  0
LINE
  5
240
100
AcDbEntity
  8
0
 62
         0
100
AcDbLine
 10
547.5810549418
 20
291.4883463542
 30
0.0
 11
547.5810549418
 21
277.8383462588
 31
0.0
  0
LINE
  5
241
100
AcDbEntity
  8
0
 62
         0
100
AcDbLine
 10
547.5810549418
 20
251.4883463542
 30
0.0
 11
547.5810549418
 21
265.1383464495
 31
0.0
  0
LINE
  5
242
100
AcDbEntity
  8
0
 62
         0
100
AcDbLine
 10
547.5810549418
 20
291.4883463542
 30
0.0
 11
547.5810549418
 21
265.1383464495
 31
0.0
  0
LINE
  5
243
100
AcDbEntity
  8
0
 62
         0
100
AcDbLine
 10
547.5810549418
 20
291.4883463542
 30
0.0
 11
547.5810549418
 21
281.4883463542
 31
0.0
  0
LINE
  5
244
100
AcDbEntity
  8
0
 62
         0
100
AcDbLine
 10
549.1890549819
 20
285.4883463542
 30
0.0
 11
547.5810549418
 21
291.4883463542
 31
0.0
  0
LINE
  5
245
100
AcDbEntity
  8
0
 62
         0
100
AcDbLine
 10
547.5810549418
 20
291.4883463542
 30
0.0
 11
545.9730549018
 21
285.4883463542
 31
0.0
  0
LINE
  5
246
100
AcDbEntity
  8
0
 62
         0
100
AcDbLine
 10
547.5810549418
 20
251.4883463542
 30
0.0
 11
547.5810549418
 21
261.4883463542
 31
0.0
  0
LINE
  5
247
100
AcDbEntity
  8
0
 62
         0
100
AcDbLine
 10
545.9730549018
 20
257.4883463542
 30
0.0
 11
547.5810549418
 21
251.4883463542
 31
0.0
  0
LINE
  5
248
100
AcDbEntity
  8
0
 62
         0
100
AcDbLine
 10
547.5810549418
 20
251.4883463542
 30
0.0
 11
549.1890549819
 21
257.4883463542
 31
0.0
  0
ENDBLK
  5
249
100
AcDbEntity
  8
0
100
AcDbBlockEnd
  0
BLOCK
  5
24C
100
AcDbEntity
  8
0
100
AcDbBlockBegin
  2
*D19
 70
         1
 10
0.0
 20
0.0
 30
0.0
  3

  1

  0
TEXT
  5
24D
100
AcDbEntity
  8
0
 62
         0
100
AcDbText
 10
484.3250000477
 20
334.5700768391
 30
0.0
 40
5.3974999189
  1
83
100
AcDbText
  0
LINE
  5
24E
100
AcDbEntity
  8
0
 62
         0
100
AcDbLine
 10
529.0
 20
295.4883463542
 30
0.0
 11
529.0
 21
335.6175768534
 31
0.0
  0
LINE
  5
24F
100
AcDbEntity
  8
0
 62
         0
100
AcDbLine
 10
446.0
 20
271.4883463542
 30
0.0
 11
446.0
 21
335.6175768534
 31
0.0
  0
LINE
  5
250
100
AcDbEntity
  8
0
 62
         0
100
AcDbLine
 10
529.0
 20
331.6175768534
 30
0.0
 11
493.8499999046
 21
331.6175768534
 31
0.0
  0
LINE
  5
251
100
AcDbEntity
  8
0
 62
         0
100
AcDbLine
 10
446.0
 20
331.6175768534
 30
0.0
 11
493.8499999046
 21
331.6175768534
 31
0.0
  0
LINE
  5
252
100
AcDbEntity
  8
0
 62
         0
100
AcDbLine
 10
529.0
 20
331.6175768534
 30
0.0
 11
481.1500000954
 21
331.6175768534
 31
0.0
  0
LINE
  5
253
100
AcDbEntity
  8
0
 62
         0
100
AcDbLine
 10
446.0
 20
331.6175768534
 30
0.0
 11
481.1500000954
 21
331.6175768534
 31
0.0
  0
LINE
  5
254
100
AcDbEntity
  8
0
 62
         0
100
AcDbLine
 10
446.0
 20
331.6175768534
 30
0.0
 11
456.0
 21
331.6175768534
 31
0.0
  0
LINE
  5
255
100
AcDbEntity
  8
0
 62
         0
100
AcDbLine
 10
452.0
 20
333.2255768935
 30
0.0
 11
446.0
 21
331.6175768534
 31
0.0
  0
LINE
  5
256
100
AcDbEntity
  8
0
 62
         0
100
AcDbLine
 10
446.0
 20
331.6175768534
 30
0.0
 11
452.0
 21
330.0095768134
 31
0.0
  0
LINE
  5
257
100
AcDbEntity
  8
0
 62
         0
100
AcDbLine
 10
529.0
 20
331.6175768534
 30
0.0
 11
519.0
 21
331.6175768534
 31
0.0
  0
LINE
  5
258
100
AcDbEntity
  8
0
 62
         0
100
AcDbLine
 10
523.0
 20
330.0095768134
 30
0.0
 11
529.0
 21
331.6175768534
 31
0.0
  0
LINE
  5
259
100
AcDbEntity
  8
0
 62
         0
100
AcDbLine
 10
529.0
 20
331.6175768534
 30
0.0
 11
523.0
 21
333.2255768935
 31
0.0
  0
ENDBLK
  5
25A
100
AcDbEntity
  8
0
100
AcDbBlockEnd
  0
BLOCK
  5
25D
100
AcDbEntity
  8
0
100
AcDbBlockBegin
  2
*D20
 70
         1
 10
0.0
 20
0.0
 30
0.0
  3

  1

  0
TEXT
  5
25E
100
AcDbEntity
  8
0
 62
         0
100
AcDbText
 10
513.3250000477
 20
318.4408463399
 30
0.0
 40
5.3974999189
  1
25
100
AcDbText
  0
LINE
  5
25F
100
AcDbEntity
  8
0
 62
         0
100
AcDbLine
 10
529.0
 20
295.4883463542
 30
0.0
 11
529.0
 21
319.4883463542
 31
0.0
  0
LINE
  5
260
100
AcDbEntity
  8
0
 62
         0
100
AcDbLine
 10
504.0
 20
295.4883463542
 30
0.0
 11
504.0
 21
319.4883463542
 31
0.0
  0
LINE
  5
261
100
AcDbEntity
  8
0
 62
         0
100
AcDbLine
 10
529.0
 20
315.4883463542
 30
0.0
 11
522.8499999046
 21
315.4883463542
 31
0.0
  0
LINE
  5
262
100
AcDbEntity
  8
0
 62
         0
100
AcDbLine
 10
504.0
 20
315.4883463542
 30
0.0
 11
522.8499999046
 21
315.4883463542
 31
0.0
  0
LINE
  5
263
100
AcDbEntity
  8
0
 62
         0
100
AcDbLine
 10
529.0
 20
315.4883463542
 30
0.0
 11
510.1500000954
 21
315.4883463542
 31
0.0
  0
LINE
  5
264
100
AcDbEntity
  8
0
 62
         0
100
AcDbLine
 10
504.0
 20
315.4883463542
 30
0.0
 11
510.1500000954
 21
315.4883463542
 31
0.0
  0
LINE
  5
265
100
AcDbEntity
  8
0
 62
         0
100
AcDbLine
 10
504.0
 20
315.4883463542
 30
0.0
 11
514.0
 21
315.4883463542
 31
0.0
  0
LINE
  5
266
100
AcDbEntity
  8
0
 62
         0
100
AcDbLine
 10
510.0
 20
317.0963463942
 30
0.0
 11
504.0
 21
315.4883463542
 31
0.0
  0
LINE
  5
267
100
AcDbEntity
  8
0
 62
         0
100
AcDbLine
 10
504.0
 20
315.4883463542
 30
0.0
 11
510.0
 21
313.8803463141
 31
0.0
  0
LINE
  5
268
100
AcDbEntity
  8
0
 62
         0
100
AcDbLine
 10
529.0
 20
315.4883463542
 30
0.0
 11
519.0
 21
315.4883463542
 31
0.0
  0
LINE
  5
269
100
AcDbEntity
  8
0
 62
         0
100
AcDbLine
 10
523.0
 20
313.8803463141
 30
0.0
 11
529.0
 21
315.4883463542
 31
0.0
  0
LINE
  5
26A
100
AcDbEntity
  8
0
 62
         0
100
AcDbLine
 10
529.0
 20
315.4883463542
 30
0.0
 11
523.0
 21
317.0963463942
 31
0.0
  0
ENDBLK
  5
26B
100
AcDbEntity
  8
0
100
AcDbBlockEnd
  0
BLOCK
  5
26F
100
AcDbEntity
  8
0
100
AcDbBlockBegin
  2
*D21
 70
         1
 10
0.0
 20
0.0
 30
0.0
  3

  1

  0
TEXT
  5
270
100
AcDbEntity
  8
0
 62
         0
100
AcDbText
 10
391.8932344571
 20
356.4488240522
 30
0.0
 40
5.3974999189
  1
%%c 16
 50
45.0
100
AcDbText
  0
LINE
  5
271
100
AcDbEntity
  8
0
 62
         0
100
AcDbLine
 10
372.1366719578
 20
333.5491719578
 30
0.0
 11
404.6900992374
 21
366.1025992374
 31
0.0
  0
LINE
  5
272
100
AcDbEntity
  8
0
 62
         0
100
AcDbLine
 10
375.2422849125
 20
338.9288403774
 30
0.0
 11
372.1366719578
 21
333.5491719578
 31
0.0
  0
LINE
  5
273
100
AcDbEntity
  8
0
 62
         0
100
AcDbLine
 10
372.1366719578
 20
333.5491719578
 30
0.0
 11
377.5163403774
 21
336.6547849125
 31
0.0
  0
ENDBLK
  5
274
100
AcDbEntity
  8
0
100
AcDbBlockEnd
  0
BLOCK
  5
277
100
AcDbEntity
  8
0
100
AcDbBlockBegin
  2
*D22
 70
         1
 10
0.0
 20
0.0
 30
0.0
  3

  1

  0
TEXT
  5
278
100
AcDbEntity
  8
0
 62
         0
100
AcDbText
 10
492.4221093893
 20
268.3133464019
 30
0.0
 40
5.3974999189
  1
32
 50
90.0
100
AcDbText
  0
LINE
  5
279
100
AcDbEntity
  8
0
 62
         0
100
AcDbLine
 10
475.374609375
 20
255.4883463542
 30
0.0
 11
499.374609375
 21
255.4883463542
 31
0.0
  0
LINE
  5
27A
100
AcDbEntity
  8
0
 62
         0
100
AcDbLine
 10
475.374609375
 20
287.4883463542
 30
0.0
 11
499.374609375
 21
287.4883463542
 31
0.0
  0
LINE
  5
27B
100
AcDbEntity
  8
0
 62
         0
100
AcDbLine
 10
495.374609375
 20
255.4883463542
 30
0.0
 11
495.374609375
 21
277.8383462588
 31
0.0
  0
LINE
  5
27C
100
AcDbEntity
  8
0
 62
         0
100
AcDbLine
 10
495.374609375
 20
287.4883463542
 30
0.0
 11
495.374609375
 21
277.8383462588
 31
0.0
  0
LINE
  5
27D
100
AcDbEntity
  8
0
 62
         0
100
AcDbLine
 10
495.374609375
 20
255.4883463542
 30
0.0
 11
495.374609375
 21
265.1383464495
 31
0.0
  0
LINE
  5
27E
100
AcDbEntity
  8
0
 62
         0
100
AcDbLine
 10
495.374609375
 20
287.4883463542
 30
0.0
 11
495.374609375
 21
265.1383464495
 31
0.0
  0
LINE
  5
27F
100
AcDbEntity
  8
0
 62
         0
100
AcDbLine
 10
495.374609375
 20
287.4883463542
 30
0.0
 11
495.374609375
 21
277.4883463542
 31
0.0
  0
LINE
  5
280
100
AcDbEntity
  8
0
 62
         0
100
AcDbLine
 10
496.9826094151
 20
281.4883463542
 30
0.0
 11
495.374609375
 21
287.4883463542
 31
0.0
  0
LINE
  5
281
100
AcDbEntity
  8
0
 62
         0
100
AcDbLine
 10
495.374609375
 20
287.4883463542
 30
0.0
 11
493.7666093349
 21
281.4883463542
 31
0.0
  0
LINE
  5
282
100
AcDbEntity
  8
0
 62
         0
100
AcDbLine
 10
495.374609375
 20
255.4883463542
 30
0.0
 11
495.374609375
 21
265.4883463542
 31
0.0
  0
LINE
  5
283
100
AcDbEntity
  8
0
 62
         0
100
AcDbLine
 10
493.7666093349
 20
261.4883463542
 30
0.0
 11
495.374609375
 21
255.4883463542
 31
0.0
  0
LINE
  5
284
100
AcDbEntity
  8
0
 62
         0
100
AcDbLine
 10
495.374609375
 20
255.4883463542
 30
0.0
 11
496.9826094151
 21
261.4883463542
 31
0.0
  0
ENDBLK
  5
285
100
AcDbEntity
  8
0
100
AcDbBlockEnd
  0
ENDSEC
  0
SECTION
  2
ENTITIES
  0
LINE
  5
28
100
AcDbEntity
  8
ﾚｲﾔｰ1
100
AcDbLine
 10
122.6830729167
 20
77.436898072
 30
0.0
 11
122.6830729167
 21
61.9501302083
 31
0.0
  0
LINE
  5
29
100
AcDbEntity
  8
ﾚｲﾔｰ1
100
AcDbLine
 10
258.3255208333
 20
192.5123697917
 30
0.0
 11
196.3255208333
 21
192.5123697917
 31
0.0
  0
LINE
  5
2A
100
AcDbEntity
  8
ﾚｲﾔｰ1
100
AcDbLine
 10
139.6830729167
 20
194.8123697917
 30
0.0
 11
89.9830729167
 21
194.8123697917
 31
0.0
  0
LINE
  5
2B
100
AcDbEntity
  8
ﾚｲﾔｰ1
100
AcDbLine
 10
234.8255208333
 20
81.9501302083
 30
0.0
 11
232.8255208333
 21
81.7677317116
 31
0.0
  0
LINE
  5
2C
100
AcDbEntity
  8
ﾚｲﾔｰ1
100
AcDbLine
 10
219.8255208333
 20
81.9501302083
 30
0.0
 11
221.8255208333
 21
81.7677317116
 31
0.0
  0
ARC
  5
2D
100
AcDbEntity
  8
ﾚｲﾔｰ1
100
AcDbCircle
 10
-229.3255208333
 20
216.9501302083
 30
0.0
 40
3.0
210
0.0
220
0.0
230
-1.0
100
AcDbArc
 50
90.0
 51
270.0
  0
ARC
  5
2E
100
AcDbEntity
  8
ﾚｲﾔｰ1
100
AcDbCircle
 10
225.3255208333
 20
216.9501302083
 30
0.0
 40
3.0
210
0.0
220
0.0
230
1.0
100
AcDbArc
 50
90.0
 51
270.0
  0
DIMENSION
  5
41
100
AcDbEntity
  8
寸法線
 62
         3
100
AcDbDimension
  2
*D0
 10
229.3255208333
 20
239.9501302083
 30
0.0
 11
227.3255208333
 21
239.9501302083
 31
0.0
 70
       128
210
0.0
220
0.0
230
1.0
  1
<>
  3
VELDIM0
100
AcDbAlignedDimension
 13
229.3255208333
 23
219.9501302083
 33
0.0
 14
225.3255208333
 24
219.9501302083
 34
0.0
100
AcDbRotatedDimension
  0
DIMENSION
  5
52
100
AcDbEntity
  8
寸法線
 62
         3
100
AcDbDimension
  2
*D1
 10
125.1830729167
 20
236.9501302083
 30
0.0
 11
123.1830729167
 21
236.9501302083
 31
0.0
 70
       128
210
0.0
220
0.0
230
1.0
  1
<>
  3
VELDIM0
100
AcDbAlignedDimension
 13
125.1830729167
 23
216.9501302083
 33
0.0
 14
121.1830729167
 24
216.9501302083
 34
0.0
100
AcDbRotatedDimension
  0
DIMENSION
  5
63
100
AcDbEntity
  8
寸法線
 62
         3
100
AcDbDimension
  2
*D2
 10
249.3255208333
 20
213.9501302083
 30
0.0
 11
249.3255208333
 21
216.9501302083
 31
0.0
 70
       128
210
0.0
220
0.0
230
1.0
  1
<>
  3
VELDIM0
100
AcDbAlignedDimension
 13
229.3255208333
 23
213.9501302083
 33
0.0
 14
229.3255208333
 24
219.9501302083
 34
0.0
 50
90.0
100
AcDbRotatedDimension
  0
LINE
  5
64
100
AcDbEntity
  8
ﾚｲﾔｰ1
100
AcDbLine
 10
210.0155208333
 20
194.8123697917
 30
0.0
 11
212.3255208333
 21
202.5123697917
 31
0.0
  0
LINE
  5
65
100
AcDbEntity
  8
ﾚｲﾔｰ1
100
AcDbLine
 10
212.3255208333
 20
194.8123697917
 30
0.0
 11
212.3255208333
 21
202.5123697917
 31
0.0
  0
LINE
  5
66
100
AcDbEntity
  8
ﾚｲﾔｰ1
100
AcDbLine
 10
214.6355208333
 20
194.8123697917
 30
0.0
 11
212.3255208333
 21
202.5123697917
 31
0.0
  0
LINE
  5
67
100
AcDbEntity
  8
ﾚｲﾔｰ1
100
AcDbLine
 10
240.0155208333
 20
194.8123697917
 30
0.0
 11
242.3255208333
 21
202.5123697917
 31
0.0
  0
LINE
  5
68
100
AcDbEntity
  8
ﾚｲﾔｰ1
100
AcDbLine
 10
242.3255208333
 20
194.8123697917
 30
0.0
 11
242.3255208333
 21
202.5123697917
 31
0.0
  0
LINE
  5
69
100
AcDbEntity
  8
ﾚｲﾔｰ1
100
AcDbLine
 10
244.6355208333
 20
194.8123697917
 30
0.0
 11
242.3255208333
 21
202.5123697917
 31
0.0
  0
LINE
  5
6A
100
AcDbEntity
  8
ﾚｲﾔｰ1
100
AcDbLine
 10
123.1830729167
 20
213.9501302083
 30
0.0
 11
123.1830729167
 21
194.8123697917
 31
0.0
  0
ARC
  5
6B
100
AcDbEntity
  8
ﾚｲﾔｰ1
100
AcDbCircle
 10
115.6830729167
 20
76.9501302083
 30
0.0
 40
9.0138781887
210
0.0
220
0.0
230
1.0
100
AcDbArc
 50
19.4400348282
 51
33.690067526
  0
LINE
  5
6C
100
AcDbEntity
  8
ﾚｲﾔｰ1
100
AcDbLine
 10
108.1830729167
 20
81.9501302083
 30
0.0
 11
108.1830729167
 21
192.5123697917
 31
0.0
  0
LINE
  5
6D
100
AcDbEntity
  8
ﾚｲﾔｰ1
100
AcDbLine
 10
123.1830729167
 20
192.5123697917
 30
0.0
 11
123.1830729167
 21
81.9501302083
 31
0.0
  0
LINE
  5
6E
100
AcDbEntity
  8
ﾚｲﾔｰ1
100
AcDbLine
 10
107.1830729167
 20
61.9501302083
 30
0.0
 11
107.1830729167
 21
79.9501302083
 31
0.0
  0
LINE
  5
6F
100
AcDbEntity
  8
ﾚｲﾔｰ1
100
AcDbLine
 10
124.1830729167
 20
61.9501302083
 30
0.0
 11
107.1830729167
 21
61.9501302083
 31
0.0
  0
LINE
  5
70
100
AcDbEntity
  8
ﾚｲﾔｰ1
100
AcDbLine
 10
124.1830729167
 20
79.9501302083
 30
0.0
 11
124.1830729167
 21
61.9501302083
 31
0.0
  0
ARC
  5
71
100
AcDbEntity
  8
ﾚｲﾔｰ1
100
AcDbCircle
 10
115.6830729167
 20
76.9501302083
 30
0.0
 40
9.0138781887
210
0.0
220
0.0
230
1.0
100
AcDbArc
 50
146.309932474
 51
160.5599651718
  0
ARC
  5
72
100
AcDbEntity
  8
ﾚｲﾔｰ1
100
AcDbCircle
 10
114.1830729167
 20
74.436898072
 30
0.0
 40
9.0138781887
210
0.0
220
0.0
230
1.0
100
AcDbArc
 50
19.4400348282
 51
33.690067526
  0
ARC
  5
73
100
AcDbEntity
  8
ﾚｲﾔｰ1
100
AcDbCircle
 10
117.2330729167
 20
74.436898072
 30
0.0
 40
9.0138781887
210
0.0
220
0.0
230
1.0
100
AcDbArc
 50
146.309932474
 51
160.5599651718
  0
LINE
  5
74
100
AcDbEntity
  8
ﾚｲﾔｰ1
100
AcDbLine
 10
121.6830729167
 20
79.436898072
 30
0.0
 11
109.7330729167
 21
79.436898072
 31
0.0
  0
LINE
  5
75
100
AcDbEntity
  8
ﾚｲﾔｰ1
100
AcDbLine
 10
108.7330729167
 20
61.9501302083
 30
0.0
 11
108.7330729167
 21
77.436898072
 31
0.0
  0
ARC
  5
76
100
AcDbEntity
  8
ﾚｲﾔｰ1
100
AcDbCircle
 10
128.8953880939
 20
342.9501302083
 30
0.0
 40
23.0
210
0.0
220
0.0
230
1.0
100
AcDbArc
 50
154.2285382594
 51
205.7714617406
  0
LINE
  5
77
100
AcDbEntity
  8
ﾚｲﾔｰ1
100
AcDbLine
 10
234.8255208333
 20
361.9501302083
 30
0.0
 11
234.8255208333
 21
352.9501302083
 31
0.0
  0
LINE
  5
78
100
AcDbEntity
  8
ﾚｲﾔｰ1
100
AcDbLine
 10
219.8255208333
 20
352.9501302083
 30
0.0
 11
219.8255208333
 21
361.9501302083
 31
0.0
  0
DIMENSION
  5
89
100
AcDbEntity
  8
寸法線
 62
         3
100
AcDbDimension
  2
*D3
 10
59.282828776
 20
272.5123697917
 30
0.0
 11
59.282828776
 21
252.5123697917
 31
0.0
 70
       128
210
0.0
220
0.0
230
1.0
  1
<>
  3
VELDIM0
100
AcDbAlignedDimension
 13
79.282828776
 23
272.5123697917
 33
0.0
 14
79.282828776
 24
232.5123697917
 34
0.0
 50
90.0
100
AcDbRotatedDimension
  0
LINE
  5
8A
100
AcDbEntity
  8
ﾚｲﾔｰ1
 62
         3
100
AcDbLine
 10
96.6833170573
 20
272.5123697917
 30
0.0
 11
79.282828776
 21
272.5123697917
 31
0.0
  0
LINE
  5
8B
100
AcDbEntity
  8
ﾚｲﾔｰ1
 62
         3
100
AcDbLine
 10
96.6833170573
 20
232.5123697917
 30
0.0
 11
79.282828776
 21
232.5123697917
 31
0.0
  0
ARC
  5
8C
100
AcDbEntity
  8
ﾚｲﾔｰ1
100
AcDbCircle
 10
89.9830729167
 20
196.8123697917
 30
0.0
 40
2.0
210
0.0
220
0.0
230
1.0
100
AcDbArc
 50
180.0
 51
270.0
  0
LINE
  5
8D
100
AcDbEntity
  8
ﾚｲﾔｰ1
100
AcDbLine
 10
139.6830729167
 20
192.5123697917
 30
0.0
 11
90.6830729167
 21
192.5123697917
 31
0.0
  0
ARC
  5
8E
100
AcDbEntity
  8
ﾚｲﾔｰ1
100
AcDbCircle
 10
90.6830729167
 20
197.5123697917
 30
0.0
 40
5.0
210
0.0
220
0.0
230
1.0
100
AcDbArc
 50
180.0
 51
270.0
  0
LINE
  5
8F
100
AcDbEntity
  8
ﾚｲﾔｰ1
100
AcDbLine
 10
87.9830729167
 20
200.2123697917
 30
0.0
 11
93.3830729167
 21
194.8123697917
 31
0.0
  0
LINE
  5
90
100
AcDbEntity
  8
ﾚｲﾔｰ1
100
AcDbLine
 10
139.6830729167
 20
194.8123697917
 30
0.0
 11
139.6830729167
 21
192.5123697917
 31
0.0
  0
LINE
  5
91
100
AcDbEntity
  8
ﾚｲﾔｰ1
100
AcDbLine
 10
229.3255208333
 20
219.9501302083
 30
0.0
 11
229.3255208333
 21
213.9501302083
 31
0.0
  0
LINE
  5
92
100
AcDbEntity
  8
ﾚｲﾔｰ1
100
AcDbLine
 10
225.3255208333
 20
219.9501302083
 30
0.0
 11
225.3255208333
 21
213.9501302083
 31
0.0
  0
ELLIPSE
  5
93
100
AcDbEntity
  8
ﾚｲﾔｰ1
100
AcDbEllipse
 10
123.1830729167
 20
216.9501302083
 30
0.0
 11
0.0
 21
3.0
 31
0.0
210
0.0
220
0.0
230
1.0
 40
0.6666666667
 41
-1.5707963267948966
 42
4.7123889803846897
  0
DIMENSION
  5
A4
100
AcDbEntity
  8
寸法線
 62
         3
100
AcDbDimension
  2
*D4
 10
221.8255208333
 20
41.9501302083
 30
0.0
 11
227.3255208333
 21
41.9501302083
 31
0.0
 70
       128
210
0.0
220
0.0
230
1.0
  1
<>
  3
VELDIM0
100
AcDbAlignedDimension
 13
221.8255208333
 23
61.9501302083
 33
0.0
 14
232.8255208333
 24
61.9501302083
 34
0.0
 50
180.0
100
AcDbRotatedDimension
  0
DIMENSION
  5
B5
100
AcDbEntity
  8
寸法線
 62
         3
100
AcDbDimension
  2
*D5
 10
159.6830729167
 20
192.5123697917
 30
0.0
 11
159.6830729167
 21
193.6623697917
 31
0.0
 70
       128
210
0.0
220
0.0
230
1.0
  1
<>
  3
VELDIM0
100
AcDbAlignedDimension
 13
139.6830729167
 23
192.5123697917
 33
0.0
 14
139.6830729167
 24
194.8123697917
 34
0.0
 50
90.0
100
AcDbRotatedDimension
  0
DIMENSION
  5
C6
100
AcDbEntity
  8
寸法線
 62
         3
100
AcDbDimension
  2
*D6
 10
196.3255208333
 20
172.5123697917
 30
0.0
 11
227.3255208333
 21
172.5123697917
 31
0.0
 70
       128
210
0.0
220
0.0
230
1.0
  1
<>
  3
VELDIM0
100
AcDbAlignedDimension
 13
196.3255208333
 23
192.5123697917
 33
0.0
 14
258.3255208333
 24
192.5123697917
 34
0.0
 50
180.0
100
AcDbRotatedDimension
  0
DIMENSION
  5
D7
100
AcDbEntity
  8
寸法線
 62
         3
100
AcDbDimension
  2
*D7
 10
254.8255208333
 20
61.9501302083
 30
0.0
 11
254.8255208333
 21
71.9501302083
 31
0.0
 70
       128
210
0.0
220
0.0
230
1.0
  1
<>
  3
VELDIM0
100
AcDbAlignedDimension
 13
232.8255208333
 23
61.9501302083
 33
0.0
 14
234.8255208333
 24
81.9501302083
 34
0.0
 50
90.0
100
AcDbRotatedDimension
  0
DIMENSION
  5
E8
100
AcDbEntity
  8
寸法線
 62
         3
100
AcDbDimension
  2
*D8
 10
123.1830729167
 20
124.1420572917
 30
0.0
 11
115.6830729167
 21
124.1420572917
 31
0.0
 70
       128
210
0.0
220
0.0
230
1.0
  1
%%c<>
  3
VELDIM0
100
AcDbAlignedDimension
 13
123.1830729167
 23
104.1420572917
 33
0.0
 14
108.1830729167
 24
104.1420572917
 34
0.0
100
AcDbRotatedDimension
  0
LINE
  5
E9
100
AcDbEntity
  8
ﾚｲﾔｰ1
100
AcDbLine
 10
258.3255208333
 20
194.8123697917
 30
0.0
 11
196.3255208333
 21
194.8123697917
 31
0.0
  0
LINE
  5
EA
100
AcDbEntity
  8
ﾚｲﾔｰ1
100
AcDbLine
 10
234.8255208333
 20
192.5123697917
 30
0.0
 11
234.8255208333
 21
81.9501302083
 31
0.0
  0
LINE
  5
EB
100
AcDbEntity
  8
ﾚｲﾔｰ1
100
AcDbLine
 10
219.8255208333
 20
81.9501302083
 30
0.0
 11
219.8255208333
 21
192.5123697917
 31
0.0
  0
LINE
  5
EC
100
AcDbEntity
  8
ﾚｲﾔｰ1
100
AcDbLine
 10
232.8255208333
 20
61.9501302083
 30
0.0
 11
232.8255208333
 21
81.7677317116
 31
0.0
  0
LINE
  5
ED
100
AcDbEntity
  8
ﾚｲﾔｰ1
100
AcDbLine
 10
232.8255208333
 20
61.9501302083
 30
0.0
 11
221.8255208333
 21
61.9501302083
 31
0.0
  0
LINE
  5
EE
100
AcDbEntity
  8
ﾚｲﾔｰ1
100
AcDbLine
 10
221.8255208333
 20
61.9501302083
 30
0.0
 11
221.8255208333
 21
81.7677317116
 31
0.0
  0
LINE
  5
EF
100
AcDbEntity
  8
ﾚｲﾔｰ1
100
AcDbLine
 10
89.9830729167
 20
310.2123697917
 30
0.0
 11
139.6830729167
 21
310.2123697917
 31
0.0
  0
ARC
  5
F0
100
AcDbEntity
  8
ﾚｲﾔｰ1
100
AcDbCircle
 10
89.9830729167
 20
308.2123697917
 30
0.0
 40
2.0
210
0.0
220
0.0
230
1.0
100
AcDbArc
 50
90.0
 51
180.0
  0
LINE
  5
F1
100
AcDbEntity
  8
ﾚｲﾔｰ1
100
AcDbLine
 10
90.6830729167
 20
312.5123697917
 30
0.0
 11
139.6830729167
 21
312.5123697917
 31
0.0
  0
CIRCLE
  5
F2
100
AcDbEntity
  8
ﾚｲﾔｰ1
100
AcDbCircle
 10
366.4798177083
 20
204.292578125
 30
0.0
 40
4.5
210
0.0
220
0.0
230
1.0
  0
DIMENSION
  5
103
100
AcDbEntity
  8
寸法線
 62
         3
100
AcDbDimension
  2
*D9
 10
170.1363924662
 20
192.5123697917
 30
0.0
 11
170.1363924662
 21
252.5123697917
 31
0.0
 70
       128
210
0.0
220
0.0
230
1.0
  1
<>
  3
VELDIM0
100
AcDbAlignedDimension
 13
139.6830729167
 23
192.5123697917
 33
0.0
 14
139.6830729167
 24
312.5123697917
 34
0.0
 50
90.0
100
AcDbRotatedDimension
  0
LINE
  5
104
100
AcDbEntity
  8
ﾚｲﾔｰ1
100
AcDbLine
 10
17.1529947917
 20
401.5778462306
 30
0.0
 11
17.1529947917
 21
16.8828125
 31
0.0
  0
LINE
  5
105
100
AcDbEntity
  8
ﾚｲﾔｰ1
100
AcDbLine
 10
196.3255208333
 20
192.5123697917
 30
0.0
 11
196.3255208333
 21
312.5123697917
 31
0.0
  0
LINE
  5
106
100
AcDbEntity
  8
ﾚｲﾔｰ1
 62
         3
100
AcDbLine
 10
227.3255208333
 20
369.799549377
 30
0.0
 11
227.3255208333
 21
51.242518127
 31
0.0
  0
LINE
  5
107
100
AcDbEntity
  8
ﾚｲﾔｰ1
100
AcDbLine
 10
234.8255208333
 20
310.2123697917
 30
0.0
 11
234.8255208333
 21
194.8123697917
 31
0.0
  0
LINE
  5
108
100
AcDbEntity
  8
ﾚｲﾔｰ1
100
AcDbLine
 10
219.8255208333
 20
194.8123697917
 30
0.0
 11
219.8255208333
 21
310.2123697917
 31
0.0
  0
LINE
  5
109
100
AcDbEntity
  8
ﾚｲﾔｰ1
100
AcDbLine
 10
108.1830729167
 20
194.8123697917
 30
0.0
 11
108.1830729167
 21
310.2123697917
 31
0.0
  0
LINE
  5
10A
100
AcDbEntity
  8
ﾚｲﾔｰ1
 62
         3
100
AcDbLine
 10
115.6830729167
 20
369.799549377
 30
0.0
 11
115.6830729167
 21
51.242518127
 31
0.0
  0
LINE
  5
10B
100
AcDbEntity
  8
ﾚｲﾔｰ1
100
AcDbLine
 10
258.3255208333
 20
192.5123697917
 30
0.0
 11
258.3255208333
 21
312.5123697917
 31
0.0
  0
LINE
  5
10C
100
AcDbEntity
  8
ﾚｲﾔｰ1
100
AcDbLine
 10
87.9830729167
 20
196.8123697917
 30
0.0
 11
87.9830729167
 21
308.2123697917
 31
0.0
  0
LINE
  5
10D
100
AcDbEntity
  8
ﾚｲﾔｰ1
100
AcDbLine
 10
85.6830729167
 20
197.5123697917
 30
0.0
 11
85.6830729167
 21
307.5123697917
 31
0.0
  0
LINE
  5
10E
100
AcDbEntity
  8
ﾚｲﾔｰ1
100
AcDbLine
 10
17.1529947917
 20
16.8828125
 30
0.0
 11
564.2042975681
 21
16.8828125
 31
0.0
  0
LINE
  5
10F
100
AcDbEntity
  8
ﾚｲﾔｰ1
100
AcDbLine
 10
564.2042975681
 20
401.5778462306
 30
0.0
 11
17.1529947917
 21
401.5778462306
 31
0.0
  0
MTEXT
  5
110
100
AcDbEntity
  8
ﾚｲﾔｰ1
100
AcDbMText
 10
491.1183598209
 20
45.4855243657
 30
0.0
 40
7.1966662884
 41
70.880019064
 71
         1
 72
         1
  1
\W0.8;\fＭＳ Ｐゴシック;\W1.0;落し棒
  0
MTEXT
  5
111
100
AcDbEntity
  8
ﾚｲﾔｰ1
100
AcDbMText
 10
392.7732198203
 20
44.8031693785
 30
0.0
 40
6.161816275
 41
99.7207873519
 71
         1
 72
         1
  1
\W0.8;\fＭＳ ゴシック;\W1.0;ＮＫキャスターゲート
  0
DIMENSION
  5
122
100
AcDbEntity
  8
寸法線
 62
         3
100
AcDbDimension
  2
*D10
 10
315.4798177083
 20
244.292578125
 30
0.0
 11
315.4798177083
 21
184.292578125
 31
0.0
 70
       128
210
0.0
220
0.0
230
1.0
  1
<>
  3
VELDIM0
100
AcDbAlignedDimension
 13
335.4798177083
 23
244.292578125
 33
0.0
 14
335.4798177083
 24
124.292578125
 34
0.0
 50
90.0
100
AcDbRotatedDimension
  0
LINE
  5
123
100
AcDbEntity
  8
ﾚｲﾔｰ1
100
AcDbLine
 10
564.2042975681
 20
16.8828125
 30
0.0
 11
564.2042975681
 21
401.5778462306
 31
0.0
  0
LINE
  5
124
100
AcDbEntity
  8
ﾚｲﾔｰ1
 62
         3
100
AcDbLine
 10
366.4798177083
 20
251.8938925873
 30
0.0
 11
366.4798177083
 21
111.4713541667
 31
0.0
  0
LINE
  5
125
100
AcDbEntity
  8
ﾚｲﾔｰ1
100
AcDbLine
 10
397.4798177083
 20
124.292578125
 30
0.0
 11
397.4798177083
 21
244.292578125
 31
0.0
  0
LINE
  5
126
100
AcDbEntity
  8
ﾚｲﾔｰ1
100
AcDbLine
 10
335.4798177083
 20
124.292578125
 30
0.0
 11
335.4798177083
 21
244.292578125
 31
0.0
  0
LINE
  5
127
100
AcDbEntity
  8
ﾚｲﾔｰ1
 62
         3
100
AcDbLine
 10
375.180061849
 20
204.292578125
 30
0.0
 11
357.7795735677
 21
204.292578125
 31
0.0
  0
LINE
  5
128
100
AcDbEntity
  8
ﾚｲﾔｰ1
100
AcDbLine
 10
214.6355208333
 20
310.2123697917
 30
0.0
 11
212.3255208333
 21
302.5123697917
 31
0.0
  0
LINE
  5
129
100
AcDbEntity
  8
ﾚｲﾔｰ1
100
AcDbLine
 10
240.0155208333
 20
310.2123697917
 30
0.0
 11
242.3255208333
 21
302.5123697917
 31
0.0
  0
LINE
  5
12A
100
AcDbEntity
  8
ﾚｲﾔｰ1
100
AcDbLine
 10
335.4798177083
 20
351.8923177083
 30
0.0
 11
397.4798177083
 21
351.8923177083
 31
0.0
  0
LINE
  5
12B
100
AcDbEntity
  8
ﾚｲﾔｰ1
100
AcDbLine
 10
108.1830729167
 20
352.9501302083
 30
0.0
 11
108.1830729167
 21
361.9501302083
 31
0.0
  0
ARC
  5
12C
100
AcDbEntity
  8
ﾚｲﾔｰ1
100
AcDbCircle
 10
-102.4707577395
 20
342.9501302083
 30
0.0
 40
23.0
210
0.0
220
0.0
230
-1.0
100
AcDbArc
 50
154.2285382594
 51
205.7714617406
  0
ARC
  5
12D
100
AcDbEntity
  8
ﾚｲﾔｰ1
100
AcDbCircle
 10
-102.4707577395
 20
342.9501302083
 30
0.0
 40
21.0
210
0.0
220
0.0
230
-1.0
100
AcDbArc
 50
151.5631098511
 51
208.4368901489
  0
LINE
  5
12E
100
AcDbEntity
  8
ﾚｲﾔｰ1
100
AcDbLine
 10
123.1830729167
 20
361.9501302083
 30
0.0
 11
123.1830729167
 21
352.9501302083
 31
0.0
  0
LINE
  5
12F
100
AcDbEntity
  8
ﾚｲﾔｰ1
100
AcDbLine
 10
110.4292027813
 20
352.9501302083
 30
0.0
 11
120.9369430521
 21
352.9501302083
 31
0.0
  0
LINE
  5
130
100
AcDbEntity
  8
ﾚｲﾔｰ1
100
AcDbLine
 10
110.4292027813
 20
332.9501302083
 30
0.0
 11
120.9369430521
 21
332.9501302083
 31
0.0
  0
LINE
  5
131
100
AcDbEntity
  8
ﾚｲﾔｰ1
100
AcDbLine
 10
196.3255208333
 20
310.2123697917
 30
0.0
 11
258.3255208333
 21
310.2123697917
 31
0.0
  0
LINE
  5
132
100
AcDbEntity
  8
ﾚｲﾔｰ1
100
AcDbLine
 10
234.8255208333
 20
332.9501302083
 30
0.0
 11
234.8255208333
 21
312.5123697917
 31
0.0
  0
LINE
  5
133
100
AcDbEntity
  8
ﾚｲﾔｰ1
100
AcDbLine
 10
219.8255208333
 20
312.5123697917
 30
0.0
 11
219.8255208333
 21
332.9501302083
 31
0.0
  0
LINE
  5
134
100
AcDbEntity
  8
ﾚｲﾔｰ1
100
AcDbLine
 10
219.8255208333
 20
332.9501302083
 30
0.0
 11
221.8255208333
 21
333.132528705
 31
0.0
  0
LINE
  5
135
100
AcDbEntity
  8
ﾚｲﾔｰ1
100
AcDbLine
 10
219.8255208333
 20
352.9501302083
 30
0.0
 11
221.8255208333
 21
352.7677317116
 31
0.0
  0
LINE
  5
136
100
AcDbEntity
  8
ﾚｲﾔｰ1
100
AcDbLine
 10
219.8255208333
 20
361.9501302083
 30
0.0
 11
234.8255208333
 21
361.9501302083
 31
0.0
  0
LINE
  5
137
100
AcDbEntity
  8
ﾚｲﾔｰ1
100
AcDbLine
 10
234.8255208333
 20
352.9501302083
 30
0.0
 11
232.8255208333
 21
352.7677317116
 31
0.0
  0
LINE
  5
138
100
AcDbEntity
  8
ﾚｲﾔｰ1
100
AcDbLine
 10
234.8255208333
 20
332.9501302083
 30
0.0
 11
232.8255208333
 21
333.132528705
 31
0.0
  0
LINE
  5
139
100
AcDbEntity
  8
ﾚｲﾔｰ1
100
AcDbLine
 10
232.8255208333
 20
333.132528705
 30
0.0
 11
232.8255208333
 21
352.7677317116
 31
0.0
  0
LINE
  5
13A
100
AcDbEntity
  8
ﾚｲﾔｰ1
100
AcDbLine
 10
221.8255208333
 20
333.132528705
 30
0.0
 11
221.8255208333
 21
352.7677317116
 31
0.0
  0
LINE
  5
13B
100
AcDbEntity
  8
ﾚｲﾔｰ1
100
AcDbLine
 10
108.1830729167
 20
312.5123697917
 30
0.0
 11
108.1830729167
 21
332.9501302083
 31
0.0
  0
LINE
  5
13C
100
AcDbEntity
  8
ﾚｲﾔｰ1
100
AcDbLine
 10
123.1830729167
 20
332.9501302083
 30
0.0
 11
123.1830729167
 21
312.5123697917
 31
0.0
  0
LINE
  5
13D
100
AcDbEntity
  8
ﾚｲﾔｰ1
100
AcDbLine
 10
123.1830729167
 20
310.2123697917
 30
0.0
 11
123.1830729167
 21
219.9501302083
 31
0.0
  0
LINE
  5
13E
100
AcDbEntity
  8
ﾚｲﾔｰ1
100
AcDbLine
 10
196.3255208333
 20
312.5123697917
 30
0.0
 11
258.3255208333
 21
312.5123697917
 31
0.0
  0
LINE
  5
13F
100
AcDbEntity
  8
ﾚｲﾔｰ1
100
AcDbLine
 10
139.6830729167
 20
312.5123697917
 30
0.0
 11
139.6830729167
 21
310.2123697917
 31
0.0
  0
LINE
  5
140
100
AcDbEntity
  8
ﾚｲﾔｰ1
100
AcDbLine
 10
108.1830729167
 20
361.9501302083
 30
0.0
 11
123.1830729167
 21
361.9501302083
 31
0.0
  0
LINE
  5
141
100
AcDbEntity
  8
ﾚｲﾔｰ1
 62
         3
100
AcDbLine
 10
369.6617982237
 20
161.1105976097
 30
0.0
 11
373.6101467803
 21
143.784157197
 31
0.0
  0
LINE
  5
142
100
AcDbEntity
  8
ﾚｲﾔｰ1
 62
         3
100
AcDbLine
 10
369.6617982237
 20
161.1105976097
 30
0.0
 11
371.3672521614
 21
157.8810204818
 31
0.0
  0
LINE
  5
143
100
AcDbEntity
  8
ﾚｲﾔｰ1
 62
         3
100
AcDbLine
 10
369.6617982237
 20
161.1105976097
 30
0.0
 11
369.5239760948
 21
157.4609748045
 31
0.0
  0
CIRCLE
  5
144
100
AcDbEntity
  8
ﾚｲﾔｰ1
100
AcDbCircle
 10
-366.4798177083
 20
164.292578125
 30
0.0
 40
4.5
210
0.0
220
0.0
230
-1.0
  0
LINE
  5
145
100
AcDbEntity
  8
ﾚｲﾔｰ1
100
AcDbLine
 10
504.0
 20
287.4883463542
 30
0.0
 11
504.0
 21
295.4883463542
 31
0.0
  0
ARC
  5
146
100
AcDbEntity
  8
ﾚｲﾔｰ1
100
AcDbCircle
 10
90.6830729167
 20
307.5123697917
 30
0.0
 40
5.0
210
0.0
220
0.0
230
1.0
100
AcDbArc
 50
90.0
 51
180.0
  0
LINE
  5
147
100
AcDbEntity
  8
ﾚｲﾔｰ1
100
AcDbLine
 10
87.9830729167
 20
304.8123697917
 30
0.0
 11
93.3830729167
 21
310.2123697917
 31
0.0
  0
LINE
  5
148
100
AcDbEntity
  8
ﾚｲﾔｰ1
100
AcDbLine
 10
115.6830729167
 20
352.9501302083
 30
0.0
 11
115.6830729167
 21
332.9501302083
 31
0.0
  0
ARC
  5
149
100
AcDbEntity
  8
ﾚｲﾔｰ1
100
AcDbCircle
 10
128.8953880939
 20
342.9501302083
 30
0.0
 40
21.0
210
0.0
220
0.0
230
1.0
100
AcDbArc
 50
151.5631098511
 51
208.4368901489
  0
MTEXT
  5
14A
100
AcDbEntity
  8
ﾚｲﾔｰ1
100
AcDbMText
 10
475.6166666667
 20
186.395703125
 30
0.0
 40
5.9972220421
 41
62.675
 71
         1
 72
         1
  1
\W0.8;\fＭＳ Ｐゴシック;\W1.0;固定Ｕボルト
  0
LINE
  5
14B
100
AcDbEntity
  8
ﾚｲﾔｰ1
 62
         3
100
AcDbLine
 10
401.8299397786
 20
184.292578125
 30
0.0
 11
331.129695638
 21
184.292578125
 31
0.0
  0
LINE
  5
14C
100
AcDbEntity
  8
ﾚｲﾔｰ1
100
AcDbLine
 10
397.4798177083
 20
124.292578125
 30
0.0
 11
335.4798177083
 21
124.292578125
 31
0.0
  0
LINE
  5
14D
100
AcDbEntity
  8
ﾚｲﾔｰ1
100
AcDbLine
 10
351.4798177083
 20
124.292578125
 30
0.0
 11
351.4798177083
 21
134.292578125
 31
0.0
  0
LINE
  5
14E
100
AcDbEntity
  8
ﾚｲﾔｰ1
100
AcDbLine
 10
381.4798177083
 20
124.292578125
 30
0.0
 11
381.4798177083
 21
134.292578125
 31
0.0
  0
LINE
  5
14F
100
AcDbEntity
  8
ﾚｲﾔｰ1
 62
         3
100
AcDbLine
 10
375.180061849
 20
164.292578125
 30
0.0
 11
357.7795735677
 21
164.292578125
 31
0.0
  0
LINE
  5
150
100
AcDbEntity
  8
ﾚｲﾔｰ1
100
AcDbLine
 10
348.4798177083
 20
124.292578125
 30
0.0
 11
351.4798177083
 21
134.292578125
 31
0.0
  0
LINE
  5
151
100
AcDbEntity
  8
ﾚｲﾔｰ1
100
AcDbLine
 10
354.4798177083
 20
124.292578125
 30
0.0
 11
351.4798177083
 21
134.292578125
 31
0.0
  0
LINE
  5
152
100
AcDbEntity
  8
ﾚｲﾔｰ1
100
AcDbLine
 10
378.4798177083
 20
124.292578125
 30
0.0
 11
381.4798177083
 21
134.292578125
 31
0.0
  0
LINE
  5
153
100
AcDbEntity
  8
ﾚｲﾔｰ1
100
AcDbLine
 10
384.4798177083
 20
124.292578125
 30
0.0
 11
381.4798177083
 21
134.292578125
 31
0.0
  0
DIMENSION
  5
164
100
AcDbEntity
  8
寸法線
 62
         3
100
AcDbDimension
  2
*D11
 10
88.1830729167
 20
361.9501302083
 30
0.0
 11
88.1830729167
 21
369.3620440801
 31
0.0
 70
       128
210
0.0
220
0.0
230
1.0
  1
<>
  3
VELDIM0
100
AcDbAlignedDimension
 13
108.1830729167
 23
361.9501302083
 33
0.0
 14
108.1830729167
 24
352.9501302083
 34
0.0
 50
90.0
100
AcDbRotatedDimension
  0
DIMENSION
  5
175
100
AcDbEntity
  8
寸法線
 62
         3
100
AcDbDimension
  2
*D12
 10
145.182644809
 20
217.0121991739
 30
0.0
 11
145.182644809
 21
289.4811646911
 31
0.0
 70
       128
210
0.0
220
0.0
230
1.0
  1
<>
  3
VELDIM0
100
AcDbAlignedDimension
 13
125.182644809
 23
217.0121991739
 33
0.0
 14
123.1830729167
 24
361.9501302083
 34
0.0
 50
90.0
100
AcDbRotatedDimension
  0
DIMENSION
  5
186
100
AcDbEntity
  8
寸法線
 62
         3
100
AcDbDimension
  2
*D13
 10
232.8255208333
 20
377.5475919088
 30
0.0
 11
227.3255208333
 21
377.5475919088
 31
0.0
 70
       128
210
0.0
220
0.0
230
1.0
  1
<>
  3
VELDIM0
100
AcDbAlignedDimension
 13
232.8255208333
 23
342.9501302083
 33
0.0
 14
221.8255208333
 24
342.9501302083
 34
0.0
100
AcDbRotatedDimension
  0
DIMENSION
  5
197
100
AcDbEntity
  8
寸法線
 62
         3
100
AcDbDimension
  2
*D14
 10
88.1830729167
 20
352.9501302083
 30
0.0
 11
88.1830729167
 21
342.9501302083
 31
0.0
 70
       128
210
0.0
220
0.0
230
1.0
  1
<>
  3
VELDIM0
100
AcDbAlignedDimension
 13
108.1830729167
 23
352.9501302083
 33
0.0
 14
108.1830729167
 24
332.9501302083
 34
0.0
 50
90.0
100
AcDbRotatedDimension
  0
LINE
  5
198
100
AcDbEntity
  8
ﾚｲﾔｰ1
100
AcDbLine
 10
242.3255208333
 20
302.5123697917
 30
0.0
 11
242.3255208333
 21
310.2123697917
 31
0.0
  0
LINE
  5
199
100
AcDbEntity
  8
ﾚｲﾔｰ1
100
AcDbLine
 10
244.6355208333
 20
310.2123697917
 30
0.0
 11
242.3255208333
 21
302.5123697917
 31
0.0
  0
LINE
  5
19A
100
AcDbEntity
  8
ﾚｲﾔｰ1
100
AcDbLine
 10
210.0155208333
 20
310.2123697917
 30
0.0
 11
212.3255208333
 21
302.5123697917
 31
0.0
  0
LINE
  5
19B
100
AcDbEntity
  8
ﾚｲﾔｰ1
100
AcDbLine
 10
212.3255208333
 20
302.5123697917
 30
0.0
 11
212.3255208333
 21
310.2123697917
 31
0.0
  0
LINE
  5
19C
100
AcDbEntity
  8
ﾚｲﾔｰ1
100
AcDbLine
 10
335.4798177083
 20
297.8923177083
 30
0.0
 11
335.4798177083
 21
351.8923177083
 31
0.0
  0
LINE
  5
19D
100
AcDbEntity
  8
ﾚｲﾔｰ1
100
AcDbLine
 10
397.4798177083
 20
297.8923177083
 30
0.0
 11
397.4798177083
 21
351.8923177083
 31
0.0
  0
LINE
  5
19E
100
AcDbEntity
  8
ﾚｲﾔｰ1
100
AcDbLine
 10
504.0
 20
255.4883463542
 30
0.0
 11
504.0
 21
247.4883463542
 31
0.0
  0
LINE
  5
19F
100
AcDbEntity
  8
ﾚｲﾔｰ1
100
AcDbLine
 10
397.4798177083
 20
297.8923177083
 30
0.0
 11
335.4798177083
 21
297.8923177083
 31
0.0
  0
LINE
  5
1A0
100
AcDbEntity
  8
ﾚｲﾔｰ1
100
AcDbLine
 10
335.4798177083
 20
244.292578125
 30
0.0
 11
397.4798177083
 21
244.292578125
 31
0.0
  0
LINE
  5
1A1
100
AcDbEntity
  8
ﾚｲﾔｰ1
100
AcDbLine
 10
381.4798177083
 20
234.292578125
 30
0.0
 11
381.4798177083
 21
244.292578125
 31
0.0
  0
ARC
  5
1A2
100
AcDbEntity
  8
ﾚｲﾔｰ1
100
AcDbCircle
 10
366.4798177083
 20
327.8923177083
 30
0.0
 40
8.0
210
0.0
220
0.0
230
1.0
100
AcDbArc
 50
14.3615115629
 51
345.6384884371
  0
ARC
  5
1A3
100
AcDbEntity
  8
ﾚｲﾔｰ1
100
AcDbCircle
 10
374.4798177083
 20
327.8923177083
 30
0.0
 40
2.0
210
0.0
220
0.0
230
1.0
100
AcDbArc
 50
262.8192442185
 51
97.1807557815
  0
LINE
  5
1A4
100
AcDbEntity
  8
ﾚｲﾔｰ1
100
AcDbLine
 10
374.4798176387
 20
325.8923177083
 30
0.0
 11
374.2257844007
 21
325.8923177083
 31
0.0
  0
LINE
  5
1A5
100
AcDbEntity
  8
ﾚｲﾔｰ1
100
AcDbLine
 10
374.4798180818
 20
329.8923177083
 30
0.0
 11
374.2257844007
 21
329.8923177083
 31
0.0
  0
LINE
  5
1A6
100
AcDbEntity
  8
ﾚｲﾔｰ1
100
AcDbLine
 10
384.4798177083
 20
244.292578125
 30
0.0
 11
381.4798177083
 21
234.292578125
 31
0.0
  0
LINE
  5
1A7
100
AcDbEntity
  8
ﾚｲﾔｰ1
100
AcDbLine
 10
354.4798177083
 20
297.8923177083
 30
0.0
 11
351.4798177083
 21
307.8923177083
 31
0.0
  0
LINE
  5
1A8
100
AcDbEntity
  8
ﾚｲﾔｰ1
100
AcDbLine
 10
348.4798177083
 20
297.8923177083
 30
0.0
 11
351.4798177083
 21
307.8923177083
 31
0.0
  0
LINE
  5
1A9
100
AcDbEntity
  8
ﾚｲﾔｰ1
 62
         3
100
AcDbLine
 10
366.4798177083
 20
358.168359375
 30
0.0
 11
366.4798177083
 21
291.7230005685
 31
0.0
  0
LINE
  5
1AA
100
AcDbEntity
  8
ﾚｲﾔｰ1
 62
         3
100
AcDbLine
 10
412.8645833333
 20
327.8923177083
 30
0.0
 11
320.0950520833
 21
327.8923177083
 31
0.0
  0
LINE
  5
1AB
100
AcDbEntity
  8
ﾚｲﾔｰ1
100
AcDbLine
 10
378.4798177083
 20
244.292578125
 30
0.0
 11
381.4798177083
 21
234.292578125
 31
0.0
  0
LINE
  5
1AC
100
AcDbEntity
  8
ﾚｲﾔｰ1
100
AcDbLine
 10
351.4798177083
 20
234.292578125
 30
0.0
 11
351.4798177083
 21
244.292578125
 31
0.0
  0
LINE
  5
1AD
100
AcDbEntity
  8
ﾚｲﾔｰ1
100
AcDbLine
 10
351.4798177083
 20
297.8923177083
 30
0.0
 11
351.4798177083
 21
307.8923177083
 31
0.0
  0
LINE
  5
1AE
100
AcDbEntity
  8
ﾚｲﾔｰ1
100
AcDbLine
 10
381.4798177083
 20
297.8923177083
 30
0.0
 11
381.4798177083
 21
307.8923177083
 31
0.0
  0
LINE
  5
1AF
100
AcDbEntity
  8
ﾚｲﾔｰ1
100
AcDbLine
 10
384.4798177083
 20
297.8923177083
 30
0.0
 11
381.4798177083
 21
307.8923177083
 31
0.0
  0
LINE
  5
1B0
100
AcDbEntity
  8
ﾚｲﾔｰ1
100
AcDbLine
 10
378.4798177083
 20
297.8923177083
 30
0.0
 11
381.4798177083
 21
307.8923177083
 31
0.0
  0
LINE
  5
1B1
100
AcDbEntity
  8
ﾚｲﾔｰ1
100
AcDbLine
 10
473.5
 20
177.2234815756
 30
0.0
 11
515.1861328125
 21
177.2234815756
 31
0.0
  0
DIMENSION
  5
1C2
100
AcDbEntity
  8
寸法線
 62
         3
100
AcDbDimension
  2
*D15
 10
415.7028012594
 20
164.292578125
 30
0.0
 11
415.7028012594
 21
184.292578125
 31
0.0
 70
       128
210
0.0
220
0.0
230
1.0
  1
<>
  3
VELDIM0
100
AcDbAlignedDimension
 13
375.180061849
 23
164.292578125
 33
0.0
 14
375.180061849
 24
204.292578125
 34
0.0
 50
90.0
100
AcDbRotatedDimension
  0
LINE
  5
1C3
100
AcDbEntity
  8
ﾚｲﾔｰ1
 62
         3
100
AcDbLine
 10
373.6101467803
 20
143.784157197
 30
0.0
 11
399.0392518939
 21
143.784157197
 31
0.0
  0
MTEXT
  5
1C4
100
AcDbEntity
  8
ﾚｲﾔｰ1
100
AcDbMText
 10
375.726813447
 20
152.9563787463
 30
0.0
 40
5.9972220421
 41
29.2434708807
 71
         1
 72
         1
  1
\W0.8;\fＭＳ Ｐゴシック;\W1.0;2-φ9
  0
LINE
  5
1C5
100
AcDbEntity
  8
ﾚｲﾔｰ1
100
AcDbLine
 10
505.2
 20
288.6883463542
 30
0.0
 11
504.0
 21
287.4883463542
 31
0.0
  0
LINE
  5
1C6
100
AcDbEntity
  8
ﾚｲﾔｰ1
100
AcDbLine
 10
505.2
 20
288.6883463542
 30
0.0
 11
505.2
 21
294.2883463542
 31
0.0
  0
LINE
  5
1C7
100
AcDbEntity
  8
ﾚｲﾔｰ1
100
AcDbLine
 10
514.6383333333
 20
258.8483463542
 30
0.0
 11
514.6383333333
 21
244.1283463542
 31
0.0
  0
LINE
  5
1C8
100
AcDbEntity
  8
ﾚｲﾔｰ1
100
AcDbLine
 10
523.3583333333
 20
247.4883463542
 30
0.0
 11
529.0
 21
247.4883463542
 31
0.0
  0
LINE
  5
1C9
100
AcDbEntity
  8
ﾚｲﾔｰ1
100
AcDbLine
 10
529.0
 20
248.6883463542
 30
0.0
 11
523.3583333333
 21
248.6883463542
 31
0.0
  0
LINE
  5
1CA
100
AcDbEntity
  8
ﾚｲﾔｰ1
100
AcDbLine
 10
523.3583333333
 20
255.4883463542
 30
0.0
 11
529.0
 21
255.4883463542
 31
0.0
  0
LINE
  5
1CB
100
AcDbEntity
  8
ﾚｲﾔｰ1
 62
         3
100
AcDbLine
 10
534.4795572917
 20
291.4883463542
 30
0.0
 11
457.0
 21
291.4883463542
 31
0.0
  0
LINE
  5
1CC
100
AcDbEntity
  8
ﾚｲﾔｰ1
 62
         3
100
AcDbLine
 10
534.4795572917
 20
251.4883463542
 30
0.0
 11
457.0
 21
251.4883463542
 31
0.0
  0
LINE
  5
1CD
100
AcDbEntity
  8
ﾚｲﾔｰ1
 62
         3
100
AcDbLine
 10
450.0
 20
284.4883463542
 30
0.0
 11
450.0
 21
258.4883463542
 31
0.0
  0
LINE
  5
1CE
100
AcDbEntity
  8
ﾚｲﾔｰ1
100
AcDbLine
 10
529.0
 20
247.4883463542
 30
0.0
 11
529.0
 21
255.4883463542
 31
0.0
  0
ARC
  5
1CF
100
AcDbEntity
  8
ﾚｲﾔｰ1
100
AcDbCircle
 10
457.0
 20
258.4883463542
 30
0.0
 40
11.0
210
0.0
220
0.0
230
1.0
100
AcDbArc
 50
180.0
 51
270.0
  0
LINE
  5
1D0
100
AcDbEntity
  8
ﾚｲﾔｰ1
100
AcDbLine
 10
446.0
 20
284.4883463542
 30
0.0
 11
446.0
 21
258.4883463542
 31
0.0
  0
ARC
  5
1D1
100
AcDbEntity
  8
ﾚｲﾔｰ1
100
AcDbCircle
 10
457.0
 20
284.4883463542
 30
0.0
 40
11.0
210
0.0
220
0.0
230
1.0
100
AcDbArc
 50
90.0
 51
180.0
  0
LINE
  5
1D2
100
AcDbEntity
  8
ﾚｲﾔｰ1
100
AcDbLine
 10
529.0
 20
294.2883463542
 30
0.0
 11
523.3583333333
 21
294.2883463542
 31
0.0
  0
LINE
  5
1D3
100
AcDbEntity
  8
ﾚｲﾔｰ1
100
AcDbLine
 10
523.3583333333
 20
295.4883463542
 30
0.0
 11
529.0
 21
295.4883463542
 31
0.0
  0
LINE
  5
1D4
100
AcDbEntity
  8
ﾚｲﾔｰ1
100
AcDbLine
 10
529.0
 20
254.2883463542
 30
0.0
 11
523.3583333333
 21
254.2883463542
 31
0.0
  0
LINE
  5
1D5
100
AcDbEntity
  8
ﾚｲﾔｰ1
100
AcDbLine
 10
516.6383333333
 20
244.1283463542
 30
0.0
 11
522.6383333333
 21
244.1283463542
 31
0.0
  0
LINE
  5
1D6
100
AcDbEntity
  8
ﾚｲﾔｰ1
100
AcDbLine
 10
522.6383333333
 20
258.8483463542
 30
0.0
 11
516.6383333333
 21
258.8483463542
 31
0.0
  0
ARC
  5
1D7
100
AcDbEntity
  8
ﾚｲﾔｰ1
100
AcDbCircle
 10
513.5983333333
 20
251.4883463542
 30
0.0
 40
9.76
210
0.0
220
0.0
230
1.0
100
AcDbArc
 50
337.9
 51
22.1
  0
ARC
  5
1D8
100
AcDbEntity
  8
ﾚｲﾔｰ1
100
AcDbCircle
 10
520.6383333333
 20
245.9683463542
 30
0.0
 40
2.72
210
0.0
220
0.0
230
1.0
100
AcDbArc
 50
317.3
 51
42.7
  0
LINE
  5
1D9
100
AcDbEntity
  8
ﾚｲﾔｰ1
100
AcDbLine
 10
523.3583333333
 20
257.0083463542
 30
0.0
 11
523.3583333333
 21
245.9683463542
 31
0.0
  0
LINE
  5
1DA
100
AcDbEntity
  8
ﾚｲﾔｰ1
100
AcDbLine
 10
457.0
 20
247.4883463542
 30
0.0
 11
514.6383333333
 21
247.4883463542
 31
0.0
  0
ARC
  5
1DB
100
AcDbEntity
  8
ﾚｲﾔｰ1
100
AcDbCircle
 10
457.0
 20
258.4883463542
 30
0.0
 40
3.0
210
0.0
220
0.0
230
1.0
100
AcDbArc
 50
180.0
 51
270.0
  0
LINE
  5
1DC
100
AcDbEntity
  8
ﾚｲﾔｰ1
100
AcDbLine
 10
354.4798177083
 20
244.292578125
 30
0.0
 11
351.4798177083
 21
234.292578125
 31
0.0
  0
LINE
  5
1DD
100
AcDbEntity
  8
ﾚｲﾔｰ1
100
AcDbLine
 10
348.4798177083
 20
244.292578125
 30
0.0
 11
351.4798177083
 21
234.292578125
 31
0.0
  0
LINE
  5
1DE
100
AcDbEntity
  8
ﾚｲﾔｰ1
100
AcDbLine
 10
516.6383333333
 20
244.1283463542
 30
0.0
 11
516.6383333333
 21
258.8483463542
 31
0.0
  0
ARC
  5
1DF
100
AcDbEntity
  8
ﾚｲﾔｰ1
  6
BORDER
 62
         3
100
AcDbCircle
 10
457.0
 20
284.4883463542
 30
0.0
 40
7.0
210
0.0
220
0.0
230
1.0
100
AcDbArc
 50
90.0
 51
180.0
  0
ARC
  5
1E0
100
AcDbEntity
  8
ﾚｲﾔｰ1
  6
BORDER
 62
         3
100
AcDbCircle
 10
457.0
 20
258.4883463542
 30
0.0
 40
7.0
210
0.0
220
0.0
230
1.0
100
AcDbArc
 50
180.0
 51
270.0
  0
LINE
  5
1E1
100
AcDbEntity
  8
ﾚｲﾔｰ1
100
AcDbLine
 10
505.2
 20
254.2883463542
 30
0.0
 11
505.2
 21
248.6883463542
 31
0.0
  0
LINE
  5
1E2
100
AcDbEntity
  8
ﾚｲﾔｰ1
100
AcDbLine
 10
505.2
 20
254.2883463542
 30
0.0
 11
504.0
 21
255.4883463542
 31
0.0
  0
LINE
  5
1E3
100
AcDbEntity
  8
ﾚｲﾔｰ1
100
AcDbLine
 10
505.2
 20
248.6883463542
 30
0.0
 11
504.0
 21
247.4883463542
 31
0.0
  0
LINE
  5
1E4
100
AcDbEntity
  8
ﾚｲﾔｰ1
100
AcDbLine
 10
516.6383333333
 20
258.8483463542
 30
0.0
 11
516.6383333333
 21
244.1283463542
 31
0.0
  0
LINE
  5
1E5
100
AcDbEntity
  8
ﾚｲﾔｰ1
100
AcDbLine
 10
514.6383333333
 20
258.8483463542
 30
0.0
 11
516.6383333333
 21
258.8483463542
 31
0.0
  0
LINE
  5
1E6
100
AcDbEntity
  8
ﾚｲﾔｰ1
100
AcDbLine
 10
514.6383333333
 20
298.8483463542
 30
0.0
 11
516.6383333333
 21
298.8483463542
 31
0.0
  0
LINE
  5
1E7
100
AcDbEntity
  8
ﾚｲﾔｰ1
100
AcDbLine
 10
514.6383333333
 20
284.1283463542
 30
0.0
 11
514.6383333333
 21
298.8483463542
 31
0.0
  0
LINE
  5
1E8
100
AcDbEntity
  8
ﾚｲﾔｰ1
100
AcDbLine
 10
516.6383333333
 20
284.1283463542
 30
0.0
 11
514.6383333333
 21
284.1283463542
 31
0.0
  0
LINE
  5
1E9
100
AcDbEntity
  8
ﾚｲﾔｰ1
100
AcDbLine
 10
514.6383333333
 20
288.6883463542
 30
0.0
 11
505.2
 21
288.6883463542
 31
0.0
  0
LINE
  5
1EA
100
AcDbEntity
  8
ﾚｲﾔｰ1
100
AcDbLine
 10
514.6383333333
 20
294.2883463542
 30
0.0
 11
505.2
 21
294.2883463542
 31
0.0
  0
LINE
  5
1EB
100
AcDbEntity
  8
ﾚｲﾔｰ1
100
AcDbLine
 10
514.6383333333
 20
295.4883463542
 30
0.0
 11
457.0
 21
295.4883463542
 31
0.0
  0
LINE
  5
1EC
100
AcDbEntity
  8
ﾚｲﾔｰ1
100
AcDbLine
 10
529.0
 20
295.4883463542
 30
0.0
 11
523.3583333333
 21
295.4883463542
 31
0.0
  0
LINE
  5
1ED
100
AcDbEntity
  8
ﾚｲﾔｰ1
100
AcDbLine
 10
514.6383333333
 20
287.4883463542
 30
0.0
 11
457.0
 21
287.4883463542
 31
0.0
  0
LINE
  5
1EE
100
AcDbEntity
  8
ﾚｲﾔｰ1
100
AcDbLine
 10
529.0
 20
287.4883463542
 30
0.0
 11
523.3583333333
 21
287.4883463542
 31
0.0
  0
LINE
  5
1EF
100
AcDbEntity
  8
ﾚｲﾔｰ1
100
AcDbLine
 10
514.6383333333
 20
292.5184076665
 30
0.0
 11
516.6383333333
 21
291.4883463542
 31
0.0
  0
LINE
  5
1F0
100
AcDbEntity
  8
ﾚｲﾔｰ1
100
AcDbLine
 10
514.6383333333
 20
291.4883463542
 30
0.0
 11
516.6383333333
 21
290.4582850418
 31
0.0
  0
LINE
  5
1F1
100
AcDbEntity
  8
ﾚｲﾔｰ1
100
AcDbLine
 10
514.6383333333
 20
251.4883463542
 30
0.0
 11
516.6383333333
 21
250.4582850418
 31
0.0
  0
LINE
  5
1F2
100
AcDbEntity
  8
ﾚｲﾔｰ1
100
AcDbLine
 10
514.6383333333
 20
252.5184076665
 30
0.0
 11
516.6383333333
 21
251.4883463542
 31
0.0
  0
LINE
  5
1F3
100
AcDbEntity
  8
ﾚｲﾔｰ1
100
AcDbLine
 10
454.0
 20
284.4883463542
 30
0.0
 11
454.0
 21
258.4883463542
 31
0.0
  0
ARC
  5
1F4
100
AcDbEntity
  8
ﾚｲﾔｰ1
100
AcDbCircle
 10
457.0
 20
284.4883463542
 30
0.0
 40
3.0
210
0.0
220
0.0
230
1.0
100
AcDbArc
 50
90.0
 51
180.0
  0
LINE
  5
1F5
100
AcDbEntity
  8
ﾚｲﾔｰ1
100
AcDbLine
 10
529.0
 20
295.4883463542
 30
0.0
 11
529.0
 21
287.4883463542
 31
0.0
  0
LINE
  5
1F6
100
AcDbEntity
  8
ﾚｲﾔｰ1
100
AcDbLine
 10
505.2
 20
294.2883463542
 30
0.0
 11
504.0
 21
295.4883463542
 31
0.0
  0
MTEXT
  5
1F7
100
AcDbEntity
  8
ﾚｲﾔｰ1
100
AcDbMText
 10
434.2768380469
 20
57.8410621178
 30
0.0
 40
4.9647513094
 41
20.9974542836
 71
         1
 72
         1
  1
\W0.8;\fＭＳ ゴシック;\W1.0;作成日
  0
MTEXT
  5
1F8
100
AcDbEntity
  8
ﾚｲﾔｰ1
100
AcDbMText
 10
467.4680599395
 20
23.1088042925
 30
0.0
 40
3.5635201958
 41
6.7978776277
 71
         1
 72
         1
  1
\W0.8;\fＭＳ ゴシック;\W1.0;番
  0
MTEXT
  5
1F9
100
AcDbEntity
  8
ﾚｲﾔｰ1
100
AcDbMText
 10
378.4017163938
 20
58.5363929187
 30
0.0
 40
5.4293133613
 41
17.3936062962
 71
         1
 72
         1
  1
\W0.8;\fＭＳ Ｐゴシック;\W1.0;尺度
210
0.0
220
0.0
230
0.9999999999999999
 11
1.0
 21
0.0
 31
0.0
  0
MTEXT
  5
1FA
100
AcDbEntity
  8
ﾚｲﾔｰ1
100
AcDbMText
 10
377.4043617436
 20
47.8364267988
 30
0.0
 40
5.6591768929
 41
9.5552559051
 71
         1
 72
         1
  1
\W0.8;\fＭＳ ゴシック;\W1.0;名\P称
  0
LINE
  5
1FB
100
AcDbEntity
  8
ﾚｲﾔｰ1
100
AcDbLine
 10
514.6383333333
 20
248.6883463542
 30
0.0
 11
505.2
 21
248.6883463542
 31
0.0
  0
LINE
  5
1FC
100
AcDbEntity
  8
ﾚｲﾔｰ1
100
AcDbLine
 10
457.0
 20
255.4883463542
 30
0.0
 11
514.6383333333
 21
255.4883463542
 31
0.0
  0
LINE
  5
1FD
100
AcDbEntity
  8
ﾚｲﾔｰ1
100
AcDbLine
 10
514.6383333333
 20
254.2883463542
 30
0.0
 11
505.2
 21
254.2883463542
 31
0.0
  0
LINE
  5
1FE
100
AcDbEntity
  8
ﾚｲﾔｰ1
100
AcDbLine
 10
516.6383333333
 20
298.8483463542
 30
0.0
 11
516.6383333333
 21
284.1283463542
 31
0.0
  0
LINE
  5
1FF
100
AcDbEntity
  8
ﾚｲﾔｰ1
100
AcDbLine
 10
516.6383333333
 20
284.1283463542
 30
0.0
 11
516.6383333333
 21
298.8483463542
 31
0.0
  0
LINE
  5
200
100
AcDbEntity
  8
ﾚｲﾔｰ1
100
AcDbLine
 10
516.6383333333
 20
295.1683463542
 30
0.0
 11
522.6383333333
 21
295.1683463542
 31
0.0
  0
ARC
  5
201
100
AcDbEntity
  8
ﾚｲﾔｰ1
100
AcDbCircle
 10
-520.6383333333
 20
285.9683463542
 30
0.0
 40
2.72
210
0.0
220
0.0
230
-1.0
100
AcDbArc
 50
137.3
 51
222.7000000001
  0
LINE
  5
202
100
AcDbEntity
  8
ﾚｲﾔｰ1
100
AcDbLine
 10
516.6383333333
 20
287.8083463542
 30
0.0
 11
522.6383333333
 21
287.8083463542
 31
0.0
  0
LINE
  5
203
100
AcDbEntity
  8
ﾚｲﾔｰ1
100
AcDbLine
 10
523.3583333333
 20
285.9683463542
 30
0.0
 11
523.3583333333
 21
297.0083463542
 31
0.0
  0
ARC
  5
204
100
AcDbEntity
  8
ﾚｲﾔｰ1
100
AcDbCircle
 10
-520.6383333333
 20
297.0083463542
 30
0.0
 40
2.72
210
0.0
220
0.0
230
-1.0
100
AcDbArc
 50
137.3
 51
222.7
  0
ARC
  5
205
100
AcDbEntity
  8
ﾚｲﾔｰ1
100
AcDbCircle
 10
-513.5983333333
 20
291.4883463542
 30
0.0
 40
9.76
210
0.0
220
0.0
230
-1.0
100
AcDbArc
 50
157.9
 51
202.1
  0
LINE
  5
206
100
AcDbEntity
  8
ﾚｲﾔｰ1
100
AcDbLine
 10
522.6383333333
 20
284.1283463542
 30
0.0
 11
516.6383333333
 21
284.1283463542
 31
0.0
  0
LINE
  5
207
100
AcDbEntity
  8
ﾚｲﾔｰ1
100
AcDbLine
 10
516.6383333333
 20
298.8483463542
 30
0.0
 11
522.6383333333
 21
298.8483463542
 31
0.0
  0
LINE
  5
208
100
AcDbEntity
  8
ﾚｲﾔｰ1
100
AcDbLine
 10
529.0
 20
288.6883463542
 30
0.0
 11
523.3583333333
 21
288.6883463542
 31
0.0
  0
LINE
  5
209
100
AcDbEntity
  8
ﾚｲﾔｰ1
100
AcDbLine
 10
523.3583333333
 20
287.4883463542
 30
0.0
 11
529.0
 21
287.4883463542
 31
0.0
  0
LINE
  5
20A
100
AcDbEntity
  8
ﾚｲﾔｰ1
 62
         3
100
AcDbLine
 10
496.0
 20
212.5123697917
 30
0.0
 11
537.5764973958
 21
212.5123697917
 31
0.0
  0
LINE
  5
20B
100
AcDbEntity
  8
ﾚｲﾔｰ1
 62
         3
100
AcDbLine
 10
509.9191666667
 20
248.6883463542
 30
0.0
 11
496.0
 21
212.5123697917
 31
0.0
  0
LINE
  5
20C
100
AcDbEntity
  8
ﾚｲﾔｰ1
 62
         3
100
AcDbLine
 10
509.9191666667
 20
248.6883463542
 30
0.0
 11
509.2508144983
 21
242.3769432651
 31
0.0
  0
LINE
  5
20D
100
AcDbEntity
  8
ﾚｲﾔｰ1
 62
         3
100
AcDbLine
 10
509.9191666667
 20
248.6883463542
 30
0.0
 11
506.1846551657
 21
243.5566870297
 31
0.0
  0
MTEXT
  5
20E
100
AcDbEntity
  8
ﾚｲﾔｰ1
100
AcDbMText
 10
503.7677083333
 20
220.687369744
 30
0.0
 40
5.9972220421
 41
41.5373860677
 71
         1
 72
         1
  1
\W0.8;\fＭＳ Ｐゴシック;\W1.0;Ｍ８ネジ
  0
LINE
  5
20F
100
AcDbEntity
  8
ﾚｲﾔｰ1
100
AcDbLine
 10
516.6383333333
 20
255.1683463542
 30
0.0
 11
522.6383333333
 21
255.1683463542
 31
0.0
  0
ARC
  5
210
100
AcDbEntity
  8
ﾚｲﾔｰ1
100
AcDbCircle
 10
520.6383333333
 20
257.0083463542
 30
0.0
 40
2.72
210
0.0
220
0.0
230
1.0
100
AcDbArc
 50
317.3
 51
42.7000000001
  0
LINE
  5
211
100
AcDbEntity
  8
ﾚｲﾔｰ1
100
AcDbLine
 10
516.6383333333
 20
247.8083463542
 30
0.0
 11
522.6383333333
 21
247.8083463542
 31
0.0
  0
MTEXT
  5
212
100
AcDbEntity
  8
ﾚｲﾔｰ1
100
AcDbMText
 10
398.4749152018
 20
59.049879195
 30
0.0
 40
5.7013270234
 41
40.3406603843
 71
         1
 72
         1
  1
\W0.8;\fＭＳ Ｐゴシック;\W1.0;1/２
  0
LINE
  5
213
100
AcDbEntity
  8
ﾚｲﾔｰ1
100
AcDbLine
 10
376.5012916851
 20
16.8828125
 30
0.0
 11
376.5012916851
 21
63.0707433915
 31
0.0
  0
LINE
  5
214
100
AcDbEntity
  8
ﾚｲﾔｰ1
100
AcDbLine
 10
465.1692607417
 20
33.3028067697
 30
0.0
 11
465.1692607417
 21
16.8828125
 31
0.0
  0
LINE
  5
215
100
AcDbEntity
  8
ﾚｲﾔｰ1
100
AcDbLine
 10
473.3792578766
 20
16.8828125
 30
0.0
 11
473.3792578766
 21
33.3028067697
 31
0.0
  0
LINE
  5
216
100
AcDbEntity
  8
ﾚｲﾔｰ1
100
AcDbLine
 10
376.5012916851
 20
63.0707433915
 30
0.0
 11
560.3832757038
 21
63.0707433915
 31
0.0
  0
LINE
  5
217
100
AcDbEntity
  8
ﾚｲﾔｰ1
100
AcDbLine
 10
560.3832757038
 20
33.3028067697
 30
0.0
 11
376.5012916851
 21
33.3028067697
 31
0.0
  0
DIMENSION
  5
228
100
AcDbEntity
  8
寸法線
 62
         3
100
AcDbDimension
  2
*D16
 10
335.4798177083
 20
277.8923177083
 30
0.0
 11
366.4798177083
 21
277.8923177083
 31
0.0
 70
       128
210
0.0
220
0.0
230
1.0
  1
<>
  3
VELDIM0
100
AcDbAlignedDimension
 13
335.4798177083
 23
297.8923177083
 33
0.0
 14
397.4798177083
 24
297.8923177083
 34
0.0
 50
180.0
100
AcDbRotatedDimension
  0
DIMENSION
  5
239
100
AcDbEntity
  8
寸法線
 62
         3
100
AcDbDimension
  2
*D17
 10
315.4798177083
 20
351.8923177083
 30
0.0
 11
315.4798177083
 21
324.8923177083
 31
0.0
 70
       128
210
0.0
220
0.0
230
1.0
  1
<>
  3
VELDIM0
100
AcDbAlignedDimension
 13
335.4798177083
 23
351.8923177083
 33
0.0
 14
335.4798177083
 24
297.8923177083
 34
0.0
 50
90.0
100
AcDbRotatedDimension
  0
DIMENSION
  5
24A
100
AcDbEntity
  8
寸法線
 62
         3
100
AcDbDimension
  2
*D18
 10
547.5810549418
 20
251.4883463542
 30
0.0
 11
547.5810549418
 21
271.4883463542
 31
0.0
 70
       128
210
0.0
220
0.0
230
1.0
  1
<>
  3
VELDIM0
100
AcDbAlignedDimension
 13
534.4795572917
 23
251.4883463542
 33
0.0
 14
534.4795572917
 24
291.4883463542
 34
0.0
 50
90.0
100
AcDbRotatedDimension
  0
DIMENSION
  5
25B
100
AcDbEntity
  8
寸法線
 62
         3
100
AcDbDimension
  2
*D19
 10
529.0
 20
331.6175768534
 30
0.0
 11
487.5
 21
331.6175768534
 31
0.0
 70
       128
210
0.0
220
0.0
230
1.0
  1
<>
  3
VELDIM0
100
AcDbAlignedDimension
 13
529.0
 23
295.4883463542
 33
0.0
 14
446.0
 24
271.4883463542
 34
0.0
100
AcDbRotatedDimension
  0
DIMENSION
  5
26C
100
AcDbEntity
  8
寸法線
 62
         3
100
AcDbDimension
  2
*D20
 10
529.0
 20
315.4883463542
 30
0.0
 11
516.5
 21
315.4883463542
 31
0.0
 70
       128
210
0.0
220
0.0
230
1.0
  1
<>
  3
VELDIM0
100
AcDbAlignedDimension
 13
529.0
 23
295.4883463542
 33
0.0
 14
504.0
 24
295.4883463542
 34
0.0
100
AcDbRotatedDimension
  0
DIMENSION
  5
275
100
AcDbEntity
  8
0
 62
         3
100
AcDbDimension
  2
*D21
 10
360.8229634588
 20
322.2354634588
 30
0.0
 11
418.1274403904
 21
360.489939246
 31
0.0
 70
       131
210
0.0
220
0.0
230
1.0
  1
%%c <>
  3
VELDIM1
100
AcDbDiametricDimension
 15
372.1366719578
 25
333.5491719578
 35
0.0
 40
0.0
  0
DIMENSION
  5
286
100
AcDbEntity
  8
寸法線
 62
         3
100
AcDbDimension
  2
*D22
 10
495.374609375
 20
255.4883463542
 30
0.0
 11
495.374609375
 21
271.4883463542
 31
0.0
 70
       128
210
0.0
220
0.0
230
1.0
  1
<>
  3
VELDIM0
100
AcDbAlignedDimension
 13
475.374609375
 23
255.4883463542
 33
0.0
 14
475.374609375
 24
287.4883463542
 34
0.0
 50
90.0
100
AcDbRotatedDimension
  0
LINE
  5
287
100
AcDbEntity
  8
ﾚｲﾔｰ1
100
AcDbLine
 10
514.6383333333
 20
244.1283463542
 30
0.0
 11
516.6383333333
 21
244.1283463542
 31
0.0
  0
LINE
  5
288
100
AcDbEntity
  8
ﾚｲﾔｰ1
100
AcDbLine
 10
560.3832757038
 20
49.003502573
 30
0.0
 11
376.5012916851
 21
49.0031905931
 31
0.0
  0
LINE
  5
289
100
AcDbEntity
  8
ﾚｲﾔｰ1
100
AcDbLine
 10
434.1159713562
 20
49.0033631262
 30
0.0
 11
434.1159713562
 21
63.0707433915
 31
0.0
  0
LINE
  5
28A
100
AcDbEntity
  8
ﾚｲﾔｰ1
100
AcDbLine
 10
393.9485988953
 20
49.0032224648
 30
0.0
 11
393.9485988953
 21
63.07060273
 31
0.0
  0
LINE
  5
28B
100
AcDbEntity
  8
ﾚｲﾔｰ1
100
AcDbLine
 10
384.71128882
 20
49.0032055906
 30
0.0
 11
384.71128882
 21
33.2206994496
 31
0.0
  0
LINE
  5
28C
100
AcDbEntity
  8
ﾚｲﾔｰ1
100
AcDbLine
 10
484.0911731852
 20
49.0034632949
 30
0.0
 11
484.0911731852
 21
63.0708435601
 31
0.0
  0
LINE
  5
28D
100
AcDbEntity
  8
ﾚｲﾔｰ1
100
AcDbLine
 10
452.4243544088
 20
49.0033965709
 30
0.0
 11
452.4243544088
 21
63.0707768361
 31
0.0
  0
MTEXT
  5
28E
100
AcDbEntity
  8
ﾚｲﾔｰ1
100
AcDbMText
 10
477.5912337358
 20
28.7629492578
 30
0.0
 40
7.6613334257
 41
93.4648852
 71
         1
 72
         1
  1
\W0.8;\fＭＳ ゴシック;\W1.0;００２２００８
  0
MTEXT
  5
28F
100
AcDbEntity
  8
ﾚｲﾔｰ1
100
AcDbMText
 10
552.5696079707
 20
58.2053740345
 30
0.0
 40
4.8849482952
 41
8.9662023195
 71
         1
 72
         1
  1
\W0.8;\fＭＳ ゴシック;\W1.0;殿
  0
MTEXT
  5
290
100
AcDbEntity
  8
ﾚｲﾔｰ1
100
AcDbMText
 10
453.699847721
 20
58.3528417208
 30
0.0
 40
5.4852502538
 41
35.091234257
 71
         1
 72
         1
  1
\W0.8;\fＭＳ ゴシック;\W1.0;2000.8.25
210
0.0
220
0.0
230
0.9999999999999999
 11
1.0
 21
0.0
 31
0.0
  0
MTEXT
  5
291
100
AcDbEntity
  8
ﾚｲﾔｰ1
100
AcDbMText
 10
382.3351799711
 20
29.158548942
 30
0.0
 40
8.3393322111
 41
93.6330722804
 71
         1
 72
         1
  1
\W0.8;\fＭＳ ゴシック;\W1.0;日本機電株式会社
  0
MTEXT
  5
292
100
AcDbEntity
  8
ﾚｲﾔｰ1
100
AcDbMText
 10
467.4680599395
 20
30.6550823542
 30
0.0
 40
3.5635201958
 41
6.7978776277
 71
         1
 72
         1
  1
\W0.8;\fＭＳ ゴシック;\W1.0;図
  0
ENDSEC
  0
SECTION
  2
OBJECTS
  0
DICTIONARY
  5
19
100
AcDbDictionary
  3
ACAD_GROUP
350
1A
  3
ACAD_MLINESTYLE
350
1B
  0
DICTIONARY
  5
1A
102
{ACAD_REACTORS
330
19
102
}
100
AcDbDictionary
  0
DICTIONARY
  5
1B
102
{ACAD_REACTORS
330
19
102
}
100
AcDbDictionary
  3
STANDARD
350
1C
  0
MLINESTYLE
  5
1C
102
{ACAD_REACTORS
330
1B
102
}
100
AcDbMlineStyle
  2
STANDARD
 70
         0
  3

 62
         0
 51
90.0
 52
90.0
 71
         2
 49
0.5
 62
       256
  6
BYLAYER
 49
-0.5
 62
       256
  6
BYLAYER
  0
ENDSEC
  0
EOF
